osu file format v14

[General]
AudioFilename: audio.mp3
AudioLeadIn: 0
PreviewTime: 77107
Countdown: 0
SampleSet: Normal
StackLeniency: 0.7
Mode: 0
LetterboxInBreaks: 0
WidescreenStoryboard: 0

[Editor]
Bookmarks: 22024,35357,46024,56691,67357,99357
DistanceSpacing: 1.2
BeatDivisor: 2
GridSize: 4
TimelineZoom: 1.5

[Metadata]
Title:Vanity
TitleUnicode:Vanity
Artist:Powerless feat. kakichoco
ArtistUnicode:Powerless feat. kakichoco
Creator:Kyuukai
Version:PsiOniC & Kin's Easy
Source:
Tags:kakiless 柿チョコ 無力P MuryokuP Comiket Odyssey Utaite worminators linada yaleufeu celerih realazy psionic naotoshi sotarks kin
BeatmapID:1382040
BeatmapSetID:651712

[Difficulty]
HPDrainRate:3
CircleSize:3.2
OverallDifficulty:3
ApproachRate:4
SliderMultiplier:0.8
SliderTickRate:1

[Events]
//Background and Video events
0,0,"BG500.jpg",0,0
//Break Periods
//Storyboard Layer 0 (Background)
//Storyboard Layer 1 (Fail)
//Storyboard Layer 2 (Pass)
//Storyboard Layer 3 (Foreground)
//Storyboard Sound Samples

[TimingPoints]
691,333.333333333333,4,1,2,50,1,0
1024,-100,4,2,0,40,0,0
1357,-100,4,2,0,50,0,0
1857,-100,4,2,0,30,0,0
2190,-100,4,2,0,50,0,0
3357,-100,4,2,0,30,0,0
3690,-100,4,2,0,50,0,0
4024,-100,4,2,0,40,0,0
4524,-100,4,2,0,30,0,0
5024,-100,4,2,0,20,0,0
5357,-100,4,2,0,50,0,0
6024,-100,4,2,0,30,0,0
6357,-100,4,2,0,40,0,0
6690,-100,4,2,0,50,0,0
7190,-100,4,2,0,30,0,0
7524,-100,4,2,0,50,0,0
8690,-100,4,2,0,40,0,0
9024,-100,4,2,0,50,0,0
9857,-100,4,2,0,40,0,0
10190,-100,4,2,0,50,0,0
10690,-100,4,2,0,70,0,0
11357,-100,4,2,0,50,0,0
11690,-100,4,2,0,40,0,0
12024,-100,4,2,0,50,0,0
12524,-100,4,2,0,40,0,0
12857,-100,4,2,0,50,0,0
13357,-100,4,2,0,40,0,0
14024,-100,4,2,0,50,0,0
14357,-100,4,2,0,40,0,0
14690,-100,4,2,0,50,0,0
15190,-100,4,2,0,40,0,0
15690,-100,4,2,0,30,0,0
16024,-100,4,2,0,50,0,0
16690,-100,4,2,0,50,0,0
17024,-100,4,2,0,40,0,0
17357,-100,4,2,0,50,0,0
17857,-100,4,2,0,40,0,0
18190,-100,4,2,0,50,0,0
19690,-100,4,2,0,40,0,0
20024,-100,4,2,0,50,0,0
20524,-100,4,2,0,40,0,0
20857,-100,4,2,0,50,0,0
21357,-100,4,2,0,60,0,0
22024,-100,4,1,2,50,0,0
24690,-100,4,1,0,50,0,0
24857,-100,4,1,0,70,0,0
27357,-100,4,1,0,50,0,0
27524,-100,4,1,0,70,0,0
30024,-100,4,1,0,90,0,0
30190,-100,4,1,0,70,0,0
31024,-100,4,1,0,50,0,0
31190,-100,4,1,0,70,0,0
34690,-100,4,1,0,100,0,0
35357,-100,4,1,0,70,0,0
36357,-100,4,1,0,50,0,0
36524,-100,4,1,0,70,0,0
38024,-100,4,1,0,50,0,0
38190,-100,4,1,0,70,0,0
41690,-100,4,1,0,90,0,0
41857,-100,4,1,0,70,0,0
42690,-100,4,1,0,60,0,0
43357,-100,4,1,0,80,0,0
43524,-100,4,1,0,70,0,0
44357,-100,4,1,0,60,0,0
45357,-100,4,1,0,80,0,0
45690,-100,4,2,0,100,0,0
46190,-100,4,2,0,80,0,0
48690,-100,4,1,2,80,0,0
49357,-100,4,2,0,80,0,0
51357,-100,4,1,2,80,0,0
52024,-100,4,2,0,80,0,0
53024,-100,4,1,2,80,0,0
53357,-100,4,2,0,80,0,0
54024,-100,4,1,2,80,0,0
54190,-100,4,2,0,80,0,0
56024,-100,4,2,0,90,0,0
56357,-100,4,2,0,100,0,0
56690,-100,4,2,0,80,0,0
57024,-100,4,1,2,80,0,0
57357,-100,4,2,0,80,0,0
59357,-100,4,1,2,80,0,0
60024,-100,4,2,0,80,0,0
62024,-100,4,1,2,80,0,0
62690,-100,4,2,0,80,0,0
63690,-100,4,1,2,80,0,0
64024,-100,4,2,0,80,0,0
64690,-100,4,1,2,80,0,0
64857,-100,4,2,0,80,0,0
66690,-100,4,2,0,90,0,0
67024,-100,4,2,0,100,0,0
67357,-100,4,2,1,100,0,0
67524,-100,4,2,0,60,0,0
68690,-100,4,2,0,80,0,0
68857,-100,4,2,0,60,0,0
72690,-100,4,2,1,55,0,0
74024,-100,4,2,1,60,0,0
75357,-100,4,1,0,100,0,0
77190,-100,4,2,1,50,0,0
78024,-100,4,1,0,100,0,1
78190,-100,4,1,0,50,0,1
78690,-100,4,1,0,80,0,1
79190,-100,4,1,0,70,0,1
79357,-100,4,1,0,85,0,1
80524,-100,4,1,0,80,0,0
80690,-100,4,1,0,100,0,1
81024,-100,4,1,0,50,0,1
81357,-100,4,1,0,80,0,1
81857,-100,4,1,0,90,0,1
82024,-100,4,1,0,80,0,1
83190,-100,4,1,0,80,0,0
83357,-100,4,1,0,100,0,1
83690,-100,4,1,0,50,0,1
84024,-100,4,1,0,80,0,1
84524,-100,4,1,0,60,0,1
84690,-100,4,1,0,80,0,1
85690,-100,4,1,0,50,0,1
86024,-100,4,1,0,80,0,1
86357,-100,4,1,0,50,0,1
86690,-100,4,1,0,80,0,1
88024,-100,4,1,0,100,0,1
88524,-100,4,1,0,80,0,0
88690,-100,4,1,0,100,0,1
89024,-100,4,1,0,50,0,1
89357,-100,4,1,0,80,0,1
91190,-100,4,1,0,80,0,0
91357,-100,4,1,0,100,0,1
91690,-100,4,1,0,50,0,1
92024,-100,4,1,0,80,0,1
93857,-100,4,1,0,80,0,0
94024,-100,4,1,0,100,0,1
94357,-100,4,1,0,50,0,1
94690,-100,4,1,0,80,0,1
96024,-100,4,2,0,50,0,1
96524,-100,4,1,0,80,0,0
96690,-100,4,1,0,100,0,1
96857,-100,4,1,0,80,0,0
99357,-100,4,1,0,80,0,0

[Colours]
Combo1 : 128,64,64
Combo2 : 0,128,255
Combo3 : 192,192,192

[HitObjects]
180,100,691,6,0,L|268:92,1,80,4|2,0:0|0:0,0:0:0:0:
332,28,1357,2,0,P|360:80|344:140,1,120,2|2,0:0|0:0,0:0:0:0:
264,184,2190,2,0,B|184:192|184:192|136:184,1,120,2|2,0:0|0:0,0:0:0:0:
20,36,3357,6,0,L|12:116,1,80,2|2,0:0|0:0,0:0:0:0:
36,208,4024,2,0,B|48:264|20:264|32:328,2,120,2|2|2,0:0|0:0|0:0,0:0:0:0:
112,152,5357,1,2,0:0:0:0:
284,68,6024,6,0,L|364:76,1,80,2|2,0:0|0:0,0:0:0:0:
432,8,6690,2,0,P|460:56|444:128,1,120,2|2,0:0|0:0,0:0:0:0:
368,168,7524,2,0,B|288:160|288:160|244:168,1,120,2|2,0:0|0:0,0:0:0:0:
64,220,8690,6,0,P|60:248|68:308,1,80,2|2,0:0|0:0,0:0:0:0:
136,364,9357,2,0,P|208:372|272:360,1,120,2|2,0:0|0:0,0:0:0:0:
340,320,10190,2,0,B|320:244|320:244|336:200,1,120,2|2,0:0|0:0,0:0:0:0:
408,28,11357,6,0,L|320:20,1,80,2|2,0:0|0:0,0:0:0:0:
236,48,12024,2,0,P|216:80|236:168,1,120,2|2,0:0|0:0,0:0:0:0:
308,108,12857,2,0,B|388:116|388:116|424:136,1,120,2|2,0:0|0:0,0:0:0:0:
296,280,14024,6,0,L|216:272,1,80,2|2,0:0|0:0,0:0:0:0:
144,204,14690,2,0,P|124:240|132:324,2,120,2|2|2,0:0|0:0|0:0,0:0:0:0:
240,188,16024,1,2,0:0:0:0:
432,168,16690,6,0,P|444:212|440:252,1,80,2|2,0:0|0:0,0:0:0:0:
464,336,17357,2,0,P|412:336|356:284,1,120,2|2,0:0|0:0,0:0:0:0:
340,208,18190,2,0,B|315:211|289:227|275:251|275:251|252:243|223:247,1,120,2|2,0:0|0:0,0:0:0:0:
56,308,19357,6,0,P|48:276|56:220,1,80,2|2,0:0|0:0,0:0:0:0:
104,152,20024,2,0,L|224:160,1,120,2|2,0:0|0:0,0:0:0:0:
263,248,20857,2,0,L|143:240,1,120,2|2,0:0|0:0,0:0:0:0:
53,230,21690,2,2,L|-7:226,1,40,0|0,0:0|0:0,0:0:0:0:
256,192,22024,12,0,23357,1:0:0:0:
340,80,24690,6,0,B|360:116|360:160|328:192|328:192|336:212|332:236,1,160,6|2,0:0|0:3,0:0:0:0:
268,300,25690,2,0,B|188:284|188:284|140:292,2,120,2|2|2,0:0|0:3|0:3,0:0:0:0:
448,236,27357,6,0,P|480:180|456:88,1,160,2|0,0:0|0:0,0:0:0:0:
368,64,28357,2,0,B|288:56|288:56|264:64|236:64,2,120,2|4|0,0:0|0:3|0:0,0:0:0:0:
460,232,30024,6,0,L|296:220,1,160,2|2,0:0|0:3,0:0:0:0:
212,264,31024,2,0,P|206:322|236:373,2,120,2|2|2,0:0|0:3|0:3,0:0:0:0:
308,100,32690,6,0,L|136:108,1,160,2|2,0:0|0:3,0:0:0:0:
100,196,33690,2,0,L|259:188,1,160,2|2,0:0|0:3,0:0:0:0:
356,184,34690,1,2,0:3:0:0:
404,100,35024,1,2,0:3:0:0:
308,100,35357,6,0,B|189:105|189:105|148:88,1,160,6|2,0:0|0:3,0:0:0:0:
116,0,36357,2,0,P|76:24|60:108,2,120,2|2|2,0:0|0:3|0:3,0:0:0:0:
304,40,38024,6,0,B|352:44|384:32|384:32|424:48|436:100,1,160,2|2,0:0|0:3,0:0:0:0:
408,184,39024,2,0,B|396:244|436:244|416:316,2,120,2|2|2,0:0|0:3|0:3,0:0:0:0:
256,68,40690,6,0,L|92:76,1,160,2|2,0:0|0:3,0:0:0:0:
32,148,41690,2,0,B|24:228|24:228|40:296,2,120,2|2|2,0:0|0:3|0:0,0:0:0:0:
224,148,43357,6,0,B|232:68|232:68|216:0,2,120,2|2|2,0:0|0:3|0:0,0:0:0:0:
216,244,44690,2,0,L|304:236,1,80,0|2,0:0|0:3,0:0:0:0:
328,328,45357,2,0,L|248:336,1,80,2|2,0:3|0:3,0:0:0:0:
152,328,46024,6,0,P|116:288|112:256,1,80,4|0,1:0|2:0,0:0:0:0:
152,176,46690,2,0,B|160:96|120:100|128:16,2,160,0|0|0,1:0|0:0|1:0,0:0:0:0:
56,344,48690,6,0,L|144:340,1,80
196,264,49357,2,0,L|357:271,2,160,0|0|0,1:0|0:0|1:0,0:0:0:0:
36,160,51357,6,0,P|24:112|36:76,1,80
108,24,52024,2,0,L|260:32,2,120,0|0|0,1:0|1:0|0:0,0:0:0:0:
116,120,53357,1,0,1:0:0:0:
136,312,54024,6,0,P|196:332|304:300,1,160,0|2,0:0|1:2,0:0:0:0:
376,272,55024,2,0,L|464:280,2,80,2|0|0,0:0|0:0|0:0,0:0:0:0:
320,196,56024,1,0,1:0:0:0:
264,120,56357,1,0,1:0:0:0:
224,208,56690,6,0,L|236:304,1,80,4|0,1:0|0:0,0:0:0:0:
312,340,57357,2,0,P|372:344|444:256,2,160,0|2|0,1:0|0:0|1:0,0:0:0:0:
180,200,59357,6,0,L|170:120,1,80
160,24,60024,2,0,B|120:28|120:28|40:20|40:20|0:24,2,160,2|2|0,1:2|0:0|1:0,0:0:0:0:
356,24,62024,6,0,P|372:72|356:120,1,80,4|2,0:2|0:2,0:0:0:0:
320,184,62690,2,0,B|240:176|240:176|196:184,2,120,0|2|0,1:0|1:2|0:0,0:0:0:0:
416,180,64024,6,0,P|448:128|448:20,2,160,2|0|0,1:2|0:0|1:0,0:0:0:0:
320,184,65690,2,0,B|280:172|280:172|244:188|204:172|204:172|164:184,1,160,2|0,0:0|1:0,0:0:0:0:
84,232,66690,2,0,P|76:280|84:316,1,80,2|2,1:3|1:3,0:0:0:0:
160,368,67357,6,0,L|324:356,1,160,4|2,0:0|0:0,0:0:0:0:
396,300,68357,1,2,0:0:0:0:
396,300,68690,2,0,B|408:264|384:224|384:224|400:188|400:188|388:168|388:140,1,160,2|0,0:0|0:0,0:0:0:0:
232,36,70024,6,0,L|104:40,2,120,2|2|0,0:0|0:0|0:0,0:0:0:0:
388,149,71690,2,0,L|516:153,2,120,2|2|2,0:0|0:0|0:0,0:0:0:0:
316,212,73024,5,2,0:0:0:0:
316,212,73357,2,0,L|236:209,1,80
168,140,74024,6,0,P|164:100|188:48,2,80,2|2|2,0:0|0:0|0:0,0:0:0:0:
144,236,75024,1,2,0:0:0:0:
236,209,75357,6,0,L|304:217,1,40,2|2,0:2|0:2,0:0:0:0:
200,60,78024,6,0,L|298:71,1,80,6|2,0:0|0:0,0:0:0:0:
348,136,78690,2,0,P|372:96|360:20,2,120,2|2|0,0:3|0:0|0:0,0:0:0:0:
332,232,80024,2,0,P|288:252|228:244,1,80,2|0,0:0|0:0,0:0:0:0:
256,160,80691,6,0,L|176:150,1,80,2|2,0:0|0:0,0:0:0:0:
108,84,81357,2,0,P|84:124|96:200,2,120,2|2|0,0:3|0:0|0:0,0:0:0:0:
200,60,82691,2,0,L|298:71,1,80,2|0,0:0|0:0,0:0:0:0:
360,120,83357,6,0,P|372:172|360:204,1,80,2|2,0:0|0:0,0:0:0:0:
292,260,84024,2,0,P|332:288|412:276,2,120,0|2|0,0:0|0:0|0:0,0:0:0:0:
220,196,85357,2,0,L|124:200,2,80,2|2|2,0:0|0:0|0:0,0:0:0:0:
280,120,86357,5,2,0:0:0:0:
280,120,86690,2,0,B|360:124|360:124|400:120,2,120,0|2|0,0:0|0:0|0:0,0:0:0:0:
184,112,88024,1,4,0:2:0:0:
88,104,88357,1,4,0:2:0:0:
132,188,88690,6,0,L|128:268,1,80,6|2,0:0|0:0,0:0:0:0:
188,344,89357,2,0,P|120:364|64:336,2,120,0|2|0,0:0|0:0|0:0,0:0:0:0:
224,256,90690,2,0,L|324:264,1,80,2|0,0:0|0:0,0:0:0:0:
364,188,91357,6,0,L|464:180,1,80,2|2,0:0|0:0,0:0:0:0:
508,252,92024,2,0,B|512:332|512:332|500:376,2,120,0|2|0,0:0|0:0|0:0,0:0:0:0:
443,181,93357,6,0,L|435:81,1,80,2|0,0:0|0:0,0:0:0:0:
348,60,94024,2,0,P|304:68|248:56,1,80,2|2,0:0|0:0,0:0:0:0:
180,28,94690,2,0,B|100:32|100:32|56:24,2,120,0|2|0,0:0|0:0|0:0,0:0:0:0:
269,63,96024,2,2,B|297:91|309:135|297:175|297:175|273:187|265:219,1,160,2|2,0:1|0:0,0:0:0:0:
256,192,96857,12,4,99357,0:0:0:0:
