osu file format v14

[General]
AudioFilename: audio.mp3
AudioLeadIn: 0
PreviewTime: 77107
Countdown: 0
SampleSet: Normal
StackLeniency: 0.2
Mode: 0
LetterboxInBreaks: 0
WidescreenStoryboard: 0

[Editor]
Bookmarks: 99357
DistanceSpacing: 1
BeatDivisor: 4
GridSize: 4
TimelineZoom: 1.7

[Metadata]
Title:Vanity
TitleUnicode:Vanity
Artist:Powerless feat. kakichoco
ArtistUnicode:Powerless feat. kakichoco
Creator:Kyuukai
Version:Nao's Insane
Source:
Tags:kakiless 柿チョコ 無力P MuryokuP Comiket Odyssey Utaite worminators linada yaleufeu celerih realazy psionic naotoshi sotarks kin
BeatmapID:1382037
BeatmapSetID:651712

[Difficulty]
HPDrainRate:6
CircleSize:4.1
OverallDifficulty:8
ApproachRate:9
SliderMultiplier:1.4
SliderTickRate:1

[Events]
//Background and Video events
0,0,"nao's sexy catgirl.jpg",0,0
//Break Periods
//Storyboard Layer 0 (Background)
//Storyboard Layer 1 (Fail)
//Storyboard Layer 2 (Pass)
//Storyboard Layer 3 (Foreground)
//Storyboard Sound Samples

[TimingPoints]
691,333.333333333333,4,1,2,50,1,0
1024,-100,4,2,0,50,0,0
2857,-100,4,2,0,50,0,0
10857,-100,4,2,0,50,0,0
13524,-100,4,2,0,50,0,0
21357,-200,4,2,0,50,0,0
22024,-200,4,1,2,50,0,0
24690,-83.3333333333333,4,2,1,65,0,0
59024,-133.333333333333,4,2,1,65,0,0
67357,-133.333333333333,4,2,1,50,0,0
67940,-133.333333333333,4,2,0,50,0,0
72690,-133.333333333333,4,2,1,55,0,0
74024,-133.333333333333,4,2,1,60,0,0
77190,-133.333333333333,4,2,1,50,0,0
78024,-66.6666666666667,4,2,1,80,0,1
80524,-66.6666666666667,4,2,1,70,0,0
80690,-66.6666666666667,4,2,1,80,0,1
83190,-66.6666666666667,4,2,1,70,0,1
83274,-66.6666666666667,4,2,1,70,0,0
83357,-66.6666666666667,4,2,1,80,0,1
88524,-66.6666666666667,4,2,1,70,0,1
88607,-66.6666666666667,4,2,1,70,0,0
88690,-66.6666666666667,4,2,1,80,0,1
91190,-66.6666666666667,4,2,1,70,0,1
91274,-66.6666666666667,4,2,1,70,0,0
91357,-66.6666666666667,4,2,1,80,0,1
93857,-66.6666666666667,4,2,1,70,0,1
93940,-66.6666666666667,4,2,1,70,0,0
94024,-66.6666666666667,4,2,1,80,0,1
96524,-66.6666666666667,4,2,1,70,0,0
96690,-400,4,1,2,80,0,1
96857,-400,4,1,2,70,0,0

[Colours]
Combo1 : 243,78,78
Combo2 : 138,219,253
Combo3 : 185,185,185

[HitObjects]
143,148,691,5,4,0:0:0:0:
143,148,1024,6,0,L|150:233,1,70,2|0,0:0|0:0,0:0:0:0:
64,93,1357,2,0,P|116:58|208:82,1,140,2|0,0:0|0:0,0:0:0:0:
247,136,1857,1,0,0:0:0:0:
330,13,2024,2,0,L|324:82,2,70,2|0|0,0:0|0:0|0:0,0:0:0:0:
289,200,2524,1,2,0:0:0:0:
464,223,2857,2,0,P|438:162|372:160,1,140,2|0,0:0|0:0,0:0:0:0:
464,223,3357,5,0,0:0:0:0:
289,261,3690,2,0,L|299:331,1,70,2|0,0:0|0:0,0:0:0:0:
359,195,4024,2,0,P|291:166|221:193,1,140,2|0,0:0|0:0,0:0:0:0:
176,262,4524,1,0,0:0:0:0:
121,173,4690,2,0,L|125:331,1,140,2|0,0:0|0:0,0:0:0:0:
28,222,5190,5,2,0:0:0:0:
234,171,5524,1,2,0:0:0:0:
121,77,5857,1,2,0:0:0:0:
121,77,6191,1,2,0:0:0:0:
214,112,6357,2,0,P|279:93|364:102,2,140,2|0|0,0:0|0:0|0:0,0:0:0:0:
418,174,7190,6,0,P|448:120|419:24,1,140,2|2,0:0|0:0,0:0:0:0:
350,98,7691,1,0,0:0:0:0:
271,36,7857,2,0,P|236:31|201:33,1,70,2|0,0:0|0:0,0:0:0:0:
122,100,8190,2,0,P|113:159|34:180,1,140,2|0,0:0|0:0,0:0:0:0:
122,100,8690,5,0,0:0:0:0:
182,289,9024,2,0,L|182:219,1,70,2|0,0:0|0:0,0:0:0:0:
270,268,9357,1,2,0:0:0:0:
97,271,9524,2,0,P|105:334|121:360,2,70,2|0|0,0:0|0:0|0:0,0:0:0:0:
86,173,10024,2,0,P|27:148|-3:149,2,70,2|0|0,0:0|0:0|0:0,0:0:0:0:
170,113,10524,1,2,0:0:0:0:
390,201,10857,2,0,P|357:141|292:124,1,140,2|0,0:0|0:0,0:0:0:0:
390,201,11357,5,0,0:0:0:0:
183,235,11690,2,0,L|184:149,1,70,2|0,0:0|0:0,0:0:0:0:
109,294,12024,2,0,P|163:325|254:295,1,140,2|0,0:0|0:0,0:0:0:0:
288,239,12525,1,0,0:0:0:0:
380,355,12690,2,0,L|369:285,2,70,2|0|0,0:0|0:0|0:0,0:0:0:0:
288,239,13191,2,0,L|302:154,1,70,2|0,0:0|0:0,0:0:0:0:
411,205,13524,2,0,P|471:202|468:123,1,140,2|0,0:0|0:0,0:0:0:0:
479,134,14024,5,0,0:0:0:0:
323,110,14357,2,0,L|328:39,1,70,2|0,0:0|0:0,0:0:0:0:
396,172,14691,2,0,P|331:205|259:183,1,140,2|0,0:0|0:0,0:0:0:0:
210,118,15191,1,0,0:0:0:0:
160,211,15358,2,0,L|153:53,1,140,2|0,0:0|0:0,0:0:0:0:
69,147,15857,5,2,0:0:0:0:
246,144,16190,1,2,0:0:0:0:
158,291,16524,1,2,0:0:0:0:
158,291,16858,1,2,0:0:0:0:
258,265,17024,2,0,P|324:278|408:264,2,140,2|0|0,0:0|0:0|0:0,0:0:0:0:
457,189,17857,6,0,P|491:240|469:338,1,140,2|2,0:0|0:0,0:0:0:0:
387,374,18358,2,0,L|313:374,1,70,2|0,0:0|0:0,0:0:0:0:
395,269,18691,1,2,0:0:0:0:
309,130,18858,2,0,P|267:195|310:253,1,140,2|2,0:0|0:0,0:0:0:0:
309,130,19357,5,0,0:0:0:0:
212,20,19690,2,0,P|211:55|204:90,1,70,2|0,0:0|0:0,0:0:0:0:
129,134,20024,2,0,P|171:168|207:184,1,70,2|0,0:0|0:0,0:0:0:0:
337,115,20357,2,0,P|285:134|253:157,1,70,2|0,0:0|0:0,0:0:0:0:
419,165,20691,1,0,0:0:0:0:
341,206,20857,1,2,0:0:0:0:
107,235,21190,1,2,0:0:0:0:
187,307,21357,6,0,B|153:297|121:318|121:318|79:308|52:326,1,140,0|4,0:0|0:0,0:0:0:0:
53,326,23524,5,0,0:0:0:0:
49,287,23690,1,0,0:0:0:0:
45,247,23857,1,0,0:0:0:0:
40,208,24024,1,0,0:0:0:0:
53,326,24357,5,0,0:0:0:0:
49,287,24440,1,0,0:0:0:0:
45,247,24523,1,0,0:0:0:0:
40,208,24606,1,0,0:0:0:0:
36,169,24691,6,0,P|105:135|214:160,1,167.999994873047,4|0,0:0|0:0,0:0:0:0:
325,196,25191,1,8,0:0:0:0:
219,355,25357,2,0,L|226:251,1,83.9999974365235,2|0,0:0|0:0,0:0:0:0:
278,100,25691,2,0,B|342:79|391:126|391:126|439:162|487:130|487:130|463:118|436:115,1,251.999992309571,8|8,0:0|0:0,0:0:0:0:
317,193,26357,2,0,L|324:291,1,83.9999974365235,2|0,0:0|0:0,0:0:0:0:
216,161,26691,1,8,0:0:0:0:
329,361,26857,2,0,L|316:172,1,167.999994873047,2|8,0:0|0:0,0:0:0:0:
161,262,27357,6,0,P|85:281|-11:253,1,167.999994873047,4|0,0:0|0:0,0:0:0:0:
81,143,27857,1,8,0:0:0:0:
245,223,28024,2,0,P|251:264|243:305,1,83.9999974365235,2|0,0:0|0:0,0:0:0:0:
492,187,28357,6,0,P|411:165|330:184,1,167.999994873047,8|0,0:0|0:0,0:0:0:0:
405,306,28857,1,8,0:0:0:0:
245,223,29024,2,0,P|239:183|245:139,1,83.9999974365235,2|0,0:0|0:0,0:0:0:0:
346,83,29357,1,8,0:0:0:0:
258,305,29524,2,0,B|264:270|247:232|247:232|229:174|250:124,1,167.999994873047,2|0,0:0|0:0,0:0:0:0:
0,78,30024,6,0,P|81:57|170:88,1,167.999994873047,4|0,0:0|0:0,0:0:0:0:
80,188,30524,1,8,0:0:0:0:
215,274,30691,2,0,P|211:213|197:167,1,83.9999974365235,2|0,0:0|0:0,0:0:0:0:
138,348,31024,2,0,B|220:407|293:351|293:351|315:344|343:356|343:356|314:384,1,251.999992309571,8|8,0:0|0:0,0:0:0:0:
259,226,31691,2,0,P|301:216|342:222,1,83.9999974365235,2|0,0:0|0:0,0:0:0:0:
227,126,32024,1,8,0:0:0:0:
409,179,32191,2,0,B|390:211|345:223|345:223|300:204|244:234,1,167.999994873047,2|8,0:0|0:0,0:0:0:0:
498,224,32691,6,0,P|508:156|490:114,1,83.9999974365235,4|0,0:0|0:0,0:0:0:0:
407,71,33024,1,0,0:0:0:0:
409,179,33191,1,8,0:0:0:0:
283,58,33357,5,8,0:0:0:0:
512,28,33524,1,8,0:0:0:0:
318,144,33691,2,0,B|245:178|214:93|124:150|124:150|152:171|197:162,1,251.999992309571,4|8,0:0|0:0,0:0:0:0:
208,29,34357,2,0,P|163:29|99:46,1,83.9999974365235,2|2,0:0|0:0,0:0:0:0:
4,116,34691,1,2,0:0:0:0:
112,268,34857,5,8,0:0:0:0:
171,110,35024,1,8,0:0:0:0:
286,239,35190,1,8,0:0:0:0:
197,190,35357,6,0,P|294:208|377:176,1,167.999994873047,4|0,0:0|0:0,0:0:0:0:
453,103,35857,1,8,0:0:0:0:
460,308,36024,2,0,P|448:262|450:213,1,83.9999974365235,2|0,0:0|0:0,0:0:0:0:
285,104,36357,2,0,B|310:158|271:222|271:222|258:254|283:295|283:295|309:258|301:229,1,251.999992309571,8|8,0:0|0:0,0:0:0:0:
181,147,37024,2,0,P|139:143|98:147,1,83.9999974365235,2|0,0:0|0:0,0:0:0:0:
29,255,37357,1,8,0:0:0:0:
259,180,37524,2,0,P|224:161|76:153,1,167.999994873047,2|8,0:0|0:0,0:0:0:0:
244,46,38024,6,0,P|281:33|428:51,1,167.999994873047,4|0,0:0|0:0,0:0:0:0:
381,196,38524,1,8,0:0:0:0:
247,262,38691,2,0,P|248:220|258:179,1,83.9999974365235,2|0,0:0|0:0,0:0:0:0:
398,354,39024,2,0,B|298:394|218:344|218:344|254:355|303:336,1,251.999992309571,8|8,0:0|0:0,0:0:0:0:
124,298,39691,2,0,P|115:348|125:387,1,83.9999974365235,2|0,0:0|0:0,0:0:0:0:
8,344,40024,1,8,0:0:0:0:
143,217,40191,2,0,B|134:248|135:280|135:280|101:327|125:389,1,167.999994873047,2|0,0:0|0:0,0:0:0:0:
234,152,40691,6,0,P|175:110|69:138,1,167.999994873047,4|0,0:0|0:0,0:0:0:0:
272,65,41191,1,8,0:0:0:0:
79,207,41357,2,0,P|77:155|96:101,1,83.9999974365235,2|0,0:0|0:0,0:0:0:0:
392,159,41690,6,0,P|305:178|219:140,1,167.999994873047,8|0,0:0|0:0,0:0:0:0:
317,76,42191,1,8,0:0:0:0:
407,253,42357,2,0,P|422:291|423:333,1,83.9999974365235,2|0,0:0|0:0,0:0:0:0:
468,166,42691,1,8,0:0:0:0:
327,271,42857,2,0,B|374:280|406:253|406:253|433:291|420:360,1,167.999994873047,2|8,0:0|0:0,0:0:0:0:
252,181,43357,5,4,0:0:0:0:
169,269,43524,2,0,P|243:295|349:251,1,167.999994873047,8|0,0:0|0:0,0:0:0:0:
139,147,44024,1,8,0:0:0:0:
62,314,44191,1,2,0:0:0:0:
0,192,44357,1,4,0:0:0:0:
169,269,44524,6,0,B|206:297|248:294|248:294|276:250|349:251,1,167.999994873047,8|0,0:0|0:0,0:0:0:0:
218,190,45024,1,8,0:0:0:0:
329,343,45191,1,2,0:0:0:0:
424,241,45357,2,0,L|422:138,1,83.9999974365235,8|8,0:0|0:0,0:0:0:0:
257,116,45691,1,8,0:0:0:0:
233,81,45774,1,8,0:0:0:0:
234,39,45857,1,8,0:0:0:0:
276,36,45941,1,8,0:0:0:0:
314,51,46024,5,4,0:0:0:0:
344,129,46191,1,2,0:0:0:0:
232,266,46524,5,0,0:0:0:0:
261,186,46691,1,8,0:0:0:0:
148,178,47024,5,0,0:0:0:0:
148,178,47357,5,0,0:0:0:0:
91,247,47524,1,2,0:0:0:0:
84,26,47857,5,2,0:0:0:0:
153,83,48024,1,8,0:0:0:0:
68,112,48191,1,0,0:0:0:0:
246,86,48524,5,8,0:0:0:0:
323,132,48691,1,0,0:0:0:0:
323,43,48858,1,2,0:0:0:0:
438,188,49191,5,2,0:0:0:0:
438,277,49358,1,8,0:0:0:0:
323,238,49691,5,0,0:0:0:0:
323,238,50024,5,0,0:0:0:0:
259,312,50191,1,0,0:0:0:0:
227,130,50524,5,0,0:0:0:0:
225,227,50691,1,8,0:0:0:0:
140,179,50857,1,0,0:0:0:0:
315,180,51191,5,8,0:0:0:0:
400,132,51357,1,0,0:0:0:0:
284,32,51691,5,2,0:0:0:0:
171,137,52024,5,8,0:0:0:0:
279,261,52357,5,0,0:0:0:0:
188,244,52524,1,8,0:0:0:0:
344,193,52857,5,8,0:0:0:0:
435,176,53024,1,2,0:0:0:0:
278,118,53357,5,8,0:0:0:0:
247,205,53524,1,8,0:0:0:0:
375,98,53857,5,8,0:0:0:0:
316,27,54024,1,0,0:0:0:0:
478,115,54357,5,2,0:0:0:0:
417,236,54691,5,8,0:0:0:0:
260,180,55024,5,0,0:0:0:0:
271,271,55191,1,2,0:0:0:0:
172,150,55524,5,2,0:0:0:0:
203,340,55857,5,2,0:0:0:0:
83,236,56024,1,8,0:0:0:0:
175,252,56191,1,0,0:0:0:0:
4,163,56357,5,8,0:0:0:0:
106,329,56524,1,8,0:0:0:0:
188,97,56691,1,4,0:0:0:0:
283,66,57024,5,2,0:0:0:0:
314,170,57357,5,8,0:0:0:0:
227,188,57691,5,0,0:0:0:0:
227,188,58024,5,0,0:0:0:0:
312,259,58191,1,2,0:0:0:0:
162,273,58357,1,2,0:0:0:0:
316,159,58691,5,8,0:0:0:0:
258,373,59024,6,0,L|248:315,1,52.5000020027161,2|0,0:0|0:0,0:0:0:0:
227,188,59357,1,0,0:0:0:0:
144,263,59691,5,2,0:0:0:0:
337,231,60024,5,8,0:0:0:0:
302,153,60357,5,0,0:0:0:0:
302,153,60691,5,0,0:0:0:0:
220,195,60857,1,2,0:0:0:0:
227,111,61024,1,0,0:0:0:0:
290,249,61357,5,8,0:0:0:0:
397,168,61691,5,0,0:0:0:0:
354,71,61857,1,8,0:0:0:0:
495,167,62024,1,4,0:0:0:0:
303,155,62357,5,2,0:0:0:0:
446,82,62691,5,8,0:0:0:0:
261,73,63024,5,0,0:0:0:0:
199,146,63191,1,8,0:0:0:0:
328,260,63524,5,8,0:0:0:0:
295,169,63691,1,2,0:0:0:0:
132,224,64024,5,8,0:0:0:0:
227,241,64191,1,2,0:0:0:0:
98,128,64524,5,8,0:0:0:0:
36,202,64691,1,0,0:0:0:0:
164,314,65024,5,2,0:0:0:0:
309,197,65357,5,8,0:0:0:0:
397,335,65691,5,0,0:0:0:0:
399,245,65857,1,8,0:0:0:0:
459,81,66191,5,2,0:0:0:0:
379,128,66357,1,8,0:0:0:0:
461,171,66524,1,2,0:0:0:0:
312,59,66691,5,8,0:0:0:0:
271,68,66774,1,8,0:0:0:0:
238,87,66857,1,8,0:0:0:0:
214,114,66941,1,0,0:0:0:0:
169,122,67024,5,2,0:0:0:0:
163,154,67107,1,2,0:0:0:0:
168,183,67190,1,2,0:0:0:0:
181,209,67274,1,2,0:0:0:0:
213,233,67357,6,0,P|220:289|198:341,1,105.000004005432,4|0,0:0|0:0,0:0:0:0:
31,280,68024,2,0,P|74:263|143:282,1,105.000004005432,2|0,0:0|0:0,0:0:0:0:
17,357,68690,2,0,L|2:242,1,105.000004005432,2|0,0:0|0:0,0:0:0:0:
74,175,69190,2,0,L|87:70,1,105.000004005432,2|0,0:0|0:0,0:0:0:0:
170,34,69691,2,0,L|177:87,1,52.5000020027161,2|0,0:0|0:0,0:0:0:0:
256,134,70024,6,0,L|265:59,2,52.5000020027161,2|0|0,0:0|0:0|0:0,0:0:0:0:
310,213,70524,2,0,B|260:238|208:214|208:214|193:246|211:281,1,157.500006008148,2|0,0:0|0:0,0:0:0:0:
300,324,71191,6,0,P|350:302|414:310,1,105.000004005432,2|0,0:0|0:0,0:0:0:0:
225,353,71691,2,0,P|186:355|160:347,1,52.5000020027161,2|0,0:0|0:0,0:0:0:0:
121,288,72024,1,0,0:0:0:0:
173,351,72191,2,0,P|200:308|197:257,1,105.000004005432,2|0,0:0|0:0,0:0:0:0:
79,218,72691,5,2,0:0:0:0:
107,187,73024,1,2,0:0:0:0:
138,159,73357,1,2,0:0:0:0:
166,128,73690,1,2,0:0:0:0:
194,97,74024,6,0,L|208:28,1,52.5000020027161,2|2,0:0|0:0,0:0:0:0:
278,192,74357,2,0,L|269:121,1,52.5000020027161,2|2,0:0|0:0,0:0:0:0:
198,230,74691,1,2,0:0:0:0:
271,280,74857,1,2,0:0:0:0:
365,141,75024,1,2,0:0:0:0:
278,192,75190,1,2,0:0:0:0:
366,239,75357,5,10,0:0:0:0:
275,101,75524,1,10,0:0:0:0:
278,262,77191,5,2,0:0:0:0:
196,235,77357,1,2,0:0:0:0:
196,148,77524,1,2,0:0:0:0:
278,121,77691,1,2,0:0:0:0:
329,192,77857,1,2,0:0:0:0:
206,57,78024,6,0,P|148:43|94:53,1,105.000004005432,4|0,0:0|0:0,0:0:0:0:
278,262,78357,2,0,P|336:276|390:266,1,105.000004005432,2|0,0:0|0:0,0:0:0:0:
147,151,78691,2,0,P|124:216|159:373,1,210.000008010865,8|0,0:0|0:0,0:0:0:0:
92,78,79191,6,0,B|142:49|200:74|200:74|228:138|312:138,1,210.000008010865,8|8,0:0|0:0,0:0:0:0:
147,151,79691,1,8,0:0:0:0:
287,50,79857,1,0,0:0:0:0:
300,225,80024,1,8,0:0:0:0:
92,78,80191,1,2,0:0:0:0:
125,251,80357,1,2,0:0:0:0:
243,158,80524,1,8,0:0:0:0:
8,208,80691,6,0,P|4:276|35:343,1,105.000004005432,4|0,0:0|0:0,0:0:0:0:
339,193,81024,2,0,P|343:125|312:58,1,105.000004005432,0|0,0:0|0:0,0:0:0:0:
252,260,81357,2,0,P|360:296|450:203,1,210.000008010865,8|0,0:0|0:0,0:0:0:0:
218,384,81857,6,0,L|218:161,1,210.000008010865,8|8,0:0|0:0,0:0:0:0:
105,277,82357,1,8,0:0:0:0:
173,79,82524,1,0,0:0:0:0:
341,230,82691,2,0,P|419:241|479:220,1,105.000004005432,8|2,0:0|0:0,0:0:0:0:
294,101,83024,1,8,0:0:0:0:
246,296,83191,1,8,0:0:0:0:
67,126,83357,6,0,P|56:64|82:5,1,105.000004005432,4|0,0:0|0:0,0:0:0:0:
398,44,83691,2,0,P|409:106|383:165,1,105.000004005432,2|0,0:0|0:0,0:0:0:0:
140,78,84024,2,0,P|211:46|341:113,1,210.000008010865,8|0,0:0|0:0,3:0:0:0:
452,349,84524,6,0,L|409:128,1,210.000008010865,8|2,0:0|0:0,0:0:0:0:
352,327,85024,1,8,0:0:0:0:
510,169,85191,1,0,0:0:0:0:
261,244,85357,1,8,0:0:0:0:
473,283,85524,1,8,0:0:0:0:
303,149,85691,1,0,0:0:0:0:
239,357,85857,1,8,0:0:0:0:
188,104,86024,6,0,P|239:48|389:58,1,210.000008010865,4|0,0:0|0:0,0:0:0:0:
92,192,86524,2,0,L|69:52,1,105.000004005432,2|8,0:0|0:0,0:0:0:0:
301,145,86857,1,0,0:0:0:0:
198,301,87024,1,8,0:0:0:0:
74,88,87191,1,4,0:0:0:0:
74,88,87524,5,2,0:0:0:0:
190,180,87691,1,8,0:0:0:0:
206,5,87857,1,0,0:0:0:0:
97,169,88024,1,8,0:0:0:0:
100,203,88107,1,8,0:0:0:0:
115,234,88190,1,8,0:0:0:0:
140,258,88273,1,8,0:0:0:0:
177,246,88357,5,8,0:0:0:0:
205,237,88440,1,8,0:0:0:0:
235,239,88523,1,8,0:0:0:0:
262,252,88606,1,8,0:0:0:0:
283,274,88691,6,0,P|349:284|413:261,1,105.000004005432,4|0,0:0|0:0,0:0:0:0:
147,102,89024,2,0,P|81:92|17:115,1,105.000004005432,2|0,0:0|0:0,0:0:0:0:
333,177,89357,2,0,B|326:100|398:38|398:38|415:89|412:126,1,210.000008010865,8|0,0:0|0:0,0:0:0:0:
204,294,89857,6,0,P|202:198|144:99,1,210.000008010865,8|8,0:0|0:0,0:0:0:0:
18,248,90357,1,2,0:0:0:0:
173,375,90524,1,0,0:0:0:0:
85,173,90691,1,8,0:0:0:0:
0,356,90857,1,0,0:0:0:0:
204,294,91024,1,2,0:0:0:0:
18,248,91191,1,8,0:0:0:0:
152,99,91357,6,0,P|221:95|286:122,1,105.000004005432,4|0,0:0|0:0,0:0:0:0:
258,383,91691,2,0,P|188:386|123:359,1,105.000004005432,2|0,0:0|0:0,0:0:0:0:
355,133,92024,2,0,P|375:232|353:359,1,210.000008010865,8|0,0:0|0:0,0:0:0:0:
153,253,92524,6,0,P|84:240|38:254,1,105.000004005432,8|0,0:0|0:0,0:0:0:0:
263,301,92857,1,2,0:0:0:0:
190,159,93024,1,8,0:0:0:0:
96,335,93191,1,0,0:0:0:0:
286,205,93357,2,0,P|294:135|283:103,1,105.000004005432,8|0,0:0|0:0,0:0:0:0:
147,36,93691,1,8,0:0:0:0:
374,19,93857,1,8,0:0:0:0:
190,159,94024,6,0,P|109:155|74:169,1,105.000004005432,4|0,0:0|0:0,0:0:0:0:
379,218,94357,2,0,P|460:222|495:208,1,105.000004005432,2|0,0:0|0:0,0:0:0:0:
283,103,94691,2,0,L|285:331,1,210.000008010865,8|0,0:0|0:0,0:0:0:0:
10,243,95191,6,0,P|102:183|201:230,1,210.000008010865,8|8,0:0|0:0,0:0:0:0:
16,106,95691,1,2,0:0:0:0:
215,111,95857,1,0,0:0:0:0:
111,288,96024,1,8,0:0:0:0:
282,274,96191,5,0,0:0:0:0:
188,215,96357,1,2,0:0:0:0:
203,349,96524,1,8,0:0:0:0:
361,302,96690,6,0,B|430:274|495:274|495:274|421:272|353:235|353:235,1,280,4|0,0:0|0:2,0:0:0:0:
