osu file format v14

[General]
AudioFilename: audio.mp3
AudioLeadIn: 0
PreviewTime: 77107
Countdown: 0
SampleSet: Soft
StackLeniency: 0.2
Mode: 0
LetterboxInBreaks: 0
WidescreenStoryboard: 0

[Editor]
Bookmarks: 24691,46024,67357,72691,78024,88691,99357
DistanceSpacing: 1.2
BeatDivisor: 4
GridSize: 4
TimelineZoom: 1.8

[Metadata]
Title:Vanity
TitleUnicode:Vanity
Artist:Powerless feat. kakichoco
ArtistUnicode:Powerless feat. kakichoco
Creator:Kyuukai
Version:Kyunada's Insane
Source:
Tags:kakiless 柿チョコ 無力P MuryokuP Comiket Odyssey Utaite worminators linada yaleufeu celerih realazy psionic naotoshi sotarks kin
BeatmapID:1382036
BeatmapSetID:651712

[Difficulty]
HPDrainRate:6
CircleSize:3.8
OverallDifficulty:7.8
ApproachRate:9
SliderMultiplier:1.6
SliderTickRate:1

[Events]
//Background and Video events
0,0,"nao's sexy catgirl.jpg",0,0
//Break Periods
2,67557,72090
//Storyboard Layer 0 (Background)
//Storyboard Layer 1 (Fail)
//Storyboard Layer 2 (Pass)
//Storyboard Layer 3 (Foreground)
//Storyboard Sound Samples

[TimingPoints]
691,333.333333333333,4,1,2,50,1,0
691,-133.333333333333,4,1,2,50,0,0
1024,-133.333333333333,4,2,22,50,0,0
2857,-133.333333333333,4,2,22,50,0,0
10857,-133.333333333333,4,2,22,50,0,0
13524,-133.333333333333,4,2,22,50,0,0
22024,-133.333333333333,4,1,2,50,0,0
24690,-100,4,2,22,65,0,0
46024,-111.111111111111,4,2,22,65,0,0
67357,-111.111111111111,4,2,22,50,0,0
72690,-133.333333333333,4,2,22,55,0,0
74024,-133.333333333333,4,2,22,60,0,0
77190,-133.333333333333,4,2,22,50,0,0
78024,-90.9090909090909,4,2,22,80,0,1
80524,-90.9090909090909,4,2,22,70,0,0
80690,-90.9090909090909,4,2,22,80,0,1
83190,-90.9090909090909,4,2,22,70,0,0
83357,-90.9090909090909,4,2,22,80,0,1
88524,-90.9090909090909,4,2,22,70,0,0
88690,-90.9090909090909,4,2,22,80,0,1
91190,-90.9090909090909,4,2,22,70,0,0
91357,-90.9090909090909,4,2,22,80,0,1
93857,-90.9090909090909,4,2,22,70,0,0
94024,-90.9090909090909,4,2,22,80,0,1
96524,-90.9090909090909,4,2,22,70,0,0
96690,-185.185185185185,4,1,22,80,0,1
96857,-185.185185185185,4,1,22,70,0,0

[Colours]
Combo1 : 243,78,78
Combo2 : 138,219,253
Combo3 : 185,185,185

[HitObjects]
40,40,691,5,4,0:0:0:0:
172,120,1024,2,0,L|180:196,1,60.0000022888184,2|2,0:0|0:0,0:0:0:0:
100,172,1357,2,0,L|116:320,1,120.000004577637,2|2,0:0|0:0,0:0:0:0:
176,340,1857,1,2,0:0:0:0:
236,292,2024,2,0,P|268:288|308:292,1,60.0000022888184,2|2,0:0|0:0,0:0:0:0:
356,340,2357,2,0,P|388:344|428:340,1,60.0000022888184,2|2,0:0|0:0,0:0:0:0:
500,208,2857,2,0,L|487:88,1,120.000004577637,2|0,0:0|0:0,0:0:0:0:
432,32,3357,5,0,3:0:0:0:
296,108,3690,2,0,L|212:108,1,60.0000022888184,2|2,0:0|0:0,0:0:0:0:
184,48,4024,2,0,P|156:104|180:168,1,120.000004577637,2|2,0:0|0:0,0:0:0:0:
244,184,4524,1,2,0:0:0:0:
244,184,4690,2,0,P|272:240|248:304,1,120.000004577637,2|2,0:0|0:0,0:0:0:0:
200,344,5190,2,0,L|68:352,1,120.000004577637,2|2,0:0|0:0,0:0:0:0:
4,216,5857,6,0,L|123:223,1,120.000004577637,2|2,0:0|0:0,0:0:0:0:
123,223,6357,1,2,0:0:0:0:
204,92,6690,1,0,3:0:0:0:
388,236,7190,1,2,0:0:0:0:
232,252,7524,2,0,L|220:180,2,60.0000022888184,2|2|2,0:0|0:0|0:0,0:0:0:0:
260,324,8024,1,0,0:0:0:0:
260,324,8190,1,2,0:0:0:0:
388,236,8524,1,0,0:0:0:0:
428,304,8690,5,0,3:0:0:0:
476,156,9024,2,0,L|472:80,1,60.0000022888184,2|0,0:0|0:0,0:0:0:0:
396,84,9357,2,0,L|392:143,2,60.0000022888184,2|2|0,0:0|0:0|0:0,0:0:0:0:
340,28,9857,1,0,0:0:0:0:
272,64,10024,2,0,L|212:60,2,60.0000022888184,2|0|0,0:0|0:0|0:0,0:0:0:0:
340,28,10524,1,2,0:0:0:0:
476,104,10857,2,0,L|468:248,1,120.000004577637,2|0,0:0|0:0,0:0:0:0:
464,300,11357,5,0,3:0:0:0:
320,244,11690,2,0,P|280:236|240:236,1,60.0000022888184,2|0,0:0|0:0,0:0:0:0:
200,284,12024,2,0,P|160:292|72:280,1,120.000004577637,2|0,0:0|0:0,0:0:0:0:
16,240,12524,1,2,0:0:0:0:
60,176,12690,2,0,L|56:104,1,60.0000022888184,2|0,0:0|0:0,0:0:0:0:
136,128,13024,2,0,L|132:56,1,60.0000022888184,2|2,0:0|0:0,0:0:0:0:
276,4,13524,2,0,L|283:123,1,120.000004577637,2|0,0:0|0:0,0:0:0:0:
288,200,14024,5,0,3:0:0:0:
224,344,14357,2,0,L|300:356,2,60.0000022888184,2|2|2,0:0|0:0|0:0,0:0:0:0:
68,320,15024,1,2,0:0:0:0:
20,260,15190,1,2,0:0:0:0:
56,192,15357,2,0,P|72:136|68:68,1,120.000004577637,2|0,0:0|0:0,0:0:0:0:
124,20,15857,2,0,P|183:17|241:33,1,120.000004577637,2|2,0:0|0:0,0:0:0:0:
384,100,16524,6,0,P|367:157|370:217,1,120.000004577637,2|2,0:0|0:0,0:0:0:0:
400,288,17024,1,2,0:0:0:0:
256,352,17357,1,2,0:0:0:0:
64,216,17857,6,0,P|66:156|50:98,1,120.000004577637,2|2,0:0|0:0,0:0:0:0:
108,44,18357,2,0,P|136:40|172:44,1,60.0000022888184,2|0,0:0|0:0,0:0:0:0:
228,92,18690,2,0,P|256:96|292:92,1,60.0000022888184,2|2,0:0|0:0,0:0:0:0:
428,28,19190,1,2,0:0:0:0:
464,96,19357,5,0,3:0:0:0:
392,232,19690,2,0,L|392:292,1,60.0000022888184,2|0,0:0|0:0,0:0:0:0:
364,364,20024,2,0,P|404:368|440:352,2,60.0000022888184,2|0|2,0:0|0:0|0:0,0:0:0:0:
296,324,20524,1,2,0:0:0:0:
296,324,20690,2,0,L|212:324,1,60.0000022888184,0|2,0:0|0:0,0:0:0:0:
82,355,21190,6,0,B|94:319|90:287|90:287|54:251|54:251|78:227|87:204|87:204|108:155|64:133|94:71,1,300.000011444092,2|4,0:0|0:0,0:0:0:0:
256,192,22690,12,0,24024,0:0:0:0:
175,305,24690,6,0,P|185:226|151:155,1,160,6|0,1:0|0:0,0:0:0:0:
1,107,25190,1,0,1:0:0:0:
72,167,25357,2,0,L|151:154,1,80,10|0,0:0|0:0,0:0:0:0:
332,317,25690,6,0,B|303:314|270:319|270:319|247:308|247:308|216:314|175:305,1,160,4|0,1:0|0:0,0:0:0:0:
72,167,26190,1,8,0:0:0:0:
192,229,26357,2,0,P|191:268|176:305,1,80,2|0,1:0|0:0,0:0:0:0:
72,167,26690,1,8,0:0:0:0:
192,229,26857,2,0,P|231:229|268:214,1,80,2|0,0:0|0:0,0:0:0:0:
343,266,27190,1,8,0:0:0:0:
262,370,27357,6,0,B|286:289|238:289|268:212,1,160,4|0,1:0|0:0,0:0:0:0:
422,254,27857,2,0,L|342:265,1,80,0|10,1:0|0:0,0:0:0:0:
343,265,28357,6,0,L|501:242,1,160,4|0,1:0|0:0,0:0:0:0:
400,342,28857,1,8,0:0:0:0:
343,266,29024,2,0,P|336:228|342:188,1,80,2|0,1:0|0:0,0:0:0:0:
284,32,29357,1,8,0:0:0:0:
341,108,29524,2,0,P|348:146|342:186,1,80,2|0,1:0|0:0,0:0:0:0:
264,339,29857,1,8,0:0:0:0:
185,261,30024,6,0,B|218:255|240:260|240:260|270:253|270:253|294:266|342:265,1,160,4|0,1:0|0:0,0:0:0:0:
214,103,30524,2,0,L|199:181,1,80,0|10,1:0|0:0,0:0:0:0:
199,181,31024,6,0,L|43:213,1,160,4|0,1:0|0:0,0:0:0:0:
185,260,31524,2,0,L|107:276,1,80,8|2,0:0|1:0,0:0:0:0:
107,276,32024,1,8,0:0:0:0:
199,181,32190,1,2,1:0:0:0:
199,181,32524,1,8,0:0:0:0:
54,60,32690,6,0,P|29:135|42:213,1,160,4|0,1:0|1:0,0:0:0:0:
107,276,33190,1,8,0:0:0:0:
198,180,33357,2,0,L|277:189,1,80,8|8,0:0|0:0,0:0:0:0:
209,333,33690,6,0,P|222:255|198:180,1,160,4|0,1:0|0:0,0:0:0:0:
107,276,34190,1,8,0:0:0:0:
209,333,34357,2,0,L|288:324,1,80,2|2,1:0|1:0,0:0:0:0:
378,320,34690,1,2,1:0:0:0:
198,180,34857,5,8,0:0:0:0:
288,324,35024,1,8,0:0:0:0:
374,176,35190,1,8,0:0:0:0:
288,324,35357,6,0,L|129:342,1,160,4|0,1:0|0:0,0:0:0:0:
142,255,35857,2,0,L|221:245,1,80,0|10,1:0|0:0,0:0:0:0:
288,324,36190,1,0,0:0:0:0:
142,255,36357,6,0,P|129:178|158:104,1,160,6|0,1:0|0:0,0:0:0:0:
339,165,36857,1,8,0:0:0:0:
300,235,37024,2,0,L|221:245,1,80,2|0,1:0|0:0,0:0:0:0:
62,137,37357,1,8,0:0:0:0:
132,175,37524,2,0,L|141:254,1,80,2|0,1:0|0:0,0:0:0:0:
83,320,37857,1,8,0:0:0:0:
221,245,38024,6,0,L|202:86,1,160,4|0,1:0|0:0,0:0:0:0:
132,175,38524,2,0,L|52:165,1,80,0|10,1:0|0:0,0:0:0:0:
52,165,39024,6,0,L|211:185,1,160,4|0,1:0|0:0,0:0:0:0:
118,94,39524,1,8,0:0:0:0:
52,165,39690,2,0,L|60:245,1,80,2|0,1:0|0:0,0:0:0:0:
146,113,40024,1,8,0:0:0:0:
211,185,40190,2,0,L|203:264,1,80,2|0,1:0|0:0,0:0:0:0:
191,352,40524,1,0,0:0:0:0:
360,252,40690,6,0,B|326:254|300:263|300:263|263:255|263:255|236:262|203:264,1,160,4|0,1:0|0:0,0:0:0:0:
191,351,41190,2,0,P|230:347|269:339,1,80,0|10,1:0|0:0,0:0:0:0:
270,339,41690,6,0,P|257:261|281:186,1,160,4|0,1:0|0:0,0:0:0:0:
438,258,42190,2,0,P|399:250|359:251,1,80,8|2,0:0|1:0,0:0:0:0:
359,251,42690,1,8,0:0:0:0:
191,351,42857,1,2,1:0:0:0:
191,351,43190,1,8,0:0:0:0:
281,185,43357,5,4,1:0:0:0:
355,361,43524,1,8,0:0:0:0:
355,361,43857,1,0,1:0:0:0:
280,184,44024,2,0,L|201:173,1,80,8|2,0:0|0:0,0:0:0:0:
360,252,44357,1,4,1:0:0:0:
201,173,44524,6,0,P|167:103|201:33,1,160,12|0,0:0|1:0,0:0:0:0:
256,103,45024,1,8,0:0:0:0:
280,21,45190,2,0,L|200:32,1,80,2|8,1:0|0:0,0:0:0:0:
82,156,45524,1,8,0:0:0:0:
111,160,45607,1,0,0:0:0:0:
141,164,45691,1,8,3:2:0:0:
171,168,45774,1,0,3:0:0:0:
201,173,45857,1,8,3:2:0:0:
388,204,46024,5,4,1:0:0:0:
324,132,46190,1,2,1:0:0:0:
420,116,46524,5,2,1:0:0:0:
356,296,46690,1,10,0:0:0:0:
292,224,47024,1,2,0:0:0:0:
260,316,47357,5,2,0:0:0:0:
388,204,47524,1,2,1:0:0:0:
196,240,47857,5,2,1:0:0:0:
356,296,48024,1,8,0:0:0:0:
292,224,48190,1,2,1:0:0:0:
100,256,48524,5,8,0:0:0:0:
164,332,48690,1,0,1:0:0:0:
164,332,48857,1,0,1:0:0:0:
36,180,49190,5,2,1:0:0:0:
228,148,49357,1,10,0:0:0:0:
100,256,49690,5,2,0:0:0:0:
164,332,49857,1,2,0:0:0:0:
196,240,50024,1,2,0:0:0:0:
228,148,50190,1,0,1:0:0:0:
356,296,50524,5,2,1:0:0:0:
196,240,50690,1,8,0:0:0:0:
292,224,50857,1,2,1:0:0:0:
264,56,51190,5,10,0:0:0:0:
132,164,51357,1,0,1:0:0:0:
292,224,51690,5,0,1:0:0:0:
264,56,52024,5,8,0:0:0:0:
196,240,52524,5,10,0:0:0:0:
324,132,52857,5,10,0:0:0:0:
264,56,53024,1,2,1:0:0:0:
132,164,53357,5,10,0:0:0:0:
168,72,53524,1,2,1:0:0:0:
196,240,53857,5,8,0:0:0:0:
72,88,54024,1,0,1:0:0:0:
196,240,54357,5,0,1:0:0:0:
264,56,54690,5,10,0:0:0:0:
420,116,55024,5,2,0:0:0:0:
324,132,55190,1,0,1:0:0:0:
360,40,55524,5,0,1:0:0:0:
324,132,55690,1,2,0:0:0:0:
420,116,55857,1,2,1:0:0:0:
264,56,56024,5,10,0:0:0:0:
324,132,56190,1,2,1:0:0:0:
420,116,56357,1,8,0:0:0:0:
264,56,56524,1,8,0:0:0:0:
292,222,56690,5,4,1:0:0:0:
264,56,57024,5,2,1:0:0:0:
420,116,57357,5,10,0:0:0:0:
228,148,57690,5,2,0:0:0:0:
292,222,57857,1,0,0:0:0:0:
324,132,58024,1,2,0:0:0:0:
264,56,58190,1,0,1:0:0:0:
168,72,58357,1,2,1:0:0:0:
100,256,58690,5,10,0:0:0:0:
356,296,59357,5,2,1:0:0:0:
356,296,59690,1,2,1:0:0:0:
196,240,60024,5,10,0:0:0:0:
324,132,60357,5,2,0:0:0:0:
388,204,60524,1,0,0:0:0:0:
292,222,60690,1,2,0:0:0:0:
196,240,60857,1,0,1:0:0:0:
228,148,61023,1,2,1:0:0:0:
420,116,61357,5,8,0:0:0:0:
292,222,61857,5,10,0:0:0:0:
132,164,62024,1,4,1:0:0:0:
264,56,62357,5,2,1:0:0:0:
292,222,62690,5,8,0:0:0:0:
100,256,63190,5,10,0:0:0:0:
292,222,63524,5,10,0:0:0:0:
228,148,63690,1,2,1:0:0:0:
164,332,64024,5,10,0:0:0:0:
196,240,64190,1,2,1:0:0:0:
356,296,64524,5,8,0:0:0:0:
196,240,64690,1,0,1:0:0:0:
260,316,65024,5,2,1:0:0:0:
388,204,65357,5,10,0:0:0:0:
228,148,65690,5,2,0:0:0:0:
292,222,65857,1,10,0:0:0:0:
360,40,66190,5,2,1:0:0:0:
324,132,66357,1,8,0:0:0:0:
360,40,66524,1,2,1:0:0:0:
264,56,66690,5,8,0:0:0:0:
239,60,66773,1,8,0:0:0:0:
214,64,66856,1,8,0:0:0:0:
189,68,66939,1,0,1:0:0:0:
168,72,67023,1,8,3:0:0:0:
143,75,67106,1,0,0:0:0:0:
118,78,67189,1,4,3:0:0:0:
93,82,67273,1,4,3:0:0:0:
68,85,67357,5,4,1:0:0:0:
72,88,72690,5,0,1:0:0:0:
264,56,73024,1,0,1:0:0:0:
132,164,73357,5,2,1:0:0:0:
324,132,73691,1,2,1:0:0:0:
196,240,74024,5,2,1:0:0:0:
388,204,74358,1,2,1:0:0:0:
260,316,74690,5,2,1:0:0:0:
452,284,75024,1,2,1:0:0:0:
324,132,75357,5,10,0:0:0:0:
260,316,75524,1,10,0:0:0:0:
256,192,75607,12,2,77190,0:0:0:0:
260,316,78024,6,0,L|172:308,1,88.000002685547,4|0,1:0|0:0,0:0:0:0:
285,231,78357,2,0,L|372:223,1,88.000002685547,2|0,1:0|0:0,0:0:0:0:
237,152,78690,2,0,B|190:141|155:149|155:149|129:137|129:137|99:143|61:135,1,176.000005371094,8|0,0:0|0:0,0:0:0:0:
293,80,79190,6,0,P|327:157|285:230,1,176.000005371094,10|8,0:0|0:0,0:0:0:0:
237,152,79690,1,8,0:0:0:0:
237,152,79857,1,0,0:0:0:0:
260,316,80024,1,8,0:0:0:0:
237,152,80190,1,2,0:0:0:0:
285,230,80357,1,2,1:0:0:0:
141,148,80524,1,8,0:0:0:0:
199,240,80690,6,0,P|242:242|284:229,1,88.000002685547,6|0,1:0|0:0,0:0:0:0:
141,148,81024,2,0,P|100:136|56:139,1,88.000002685547,2|0,1:0|0:0,0:0:0:0:
160,307,81357,2,0,B|180:358|180:358|206:296|199:240,1,176.000005371094,8|0,0:0|0:0,0:0:0:0:
224,135,81857,6,0,B|184:141|165:134|165:134|140:146|140:146|102:128|54:137,1,176.000005371094,10|10,0:0|0:0,0:0:0:0:
160,307,82357,1,2,1:0:0:0:
75,218,82524,1,0,1:0:0:0:
160,307,82690,2,0,B|201:316|201:316|245:306,1,88.000002685547,10|2,0:0|1:0,0:0:0:0:
224,135,83024,5,10,0:0:0:0:
160,307,83190,1,10,0:0:0:0:
224,135,83357,6,0,P|224:91|203:53,1,88.000002685547,6|0,1:0|0:0,0:0:0:0:
53,136,83690,2,0,P|53:179|74:217,1,88.000002685547,2|0,1:0|0:0,0:0:0:0:
245,305,84024,2,0,B|237:274|237:235|237:235|221:211|221:211|230:183|225:136,1,176.000005371094,8|0,0:0|0:0,0:0:0:0:
403,302,84524,6,0,P|323:335|243:303,1,176.000005371094,8|2,0:0|1:0,0:0:0:0:
224,135,85024,2,0,P|266:123|309:130,1,88.000002685547,10|2,0:0|0:0,0:0:0:0:
403,302,85357,1,8,0:0:0:0:
243,303,85524,1,2,1:0:0:0:
398,216,85690,2,0,P|409:258|403:302,1,88.000002685547,0|8,0:0|0:0,0:0:0:0:
310,131,86024,6,0,B|287:62|307:11|307:11|351:63,1,176.000005371094,4|2,1:0|1:0,0:0:0:0:
403,302,86690,1,8,0:0:0:0:
310,131,86857,1,2,0:0:0:0:
398,216,87024,1,2,0:0:0:0:
225,136,87190,6,0,B|172:119|135:133|135:133|98:147|51:131,1,176.000005371094,12|2,0:0|1:0,0:0:0:0:
216,223,87690,2,0,L|224:135,1,88.000002685547,8|0,0:0|1:0,0:0:0:0:
56,304,88024,5,10,0:0:0:0:
49,276,88107,1,8,0:0:0:0:
47,246,88190,1,2,1:0:0:0:
52,218,88273,1,0,1:0:0:0:
59,189,88357,1,8,3:0:0:0:
59,160,88440,1,8,3:0:0:0:
52,131,88524,2,0,L|48:88,1,44.0000013427735,4|4,3:0|3:0,0:0:0:0:
231,47,88690,6,0,L|223:135,1,88.000002685547,6|0,1:0|0:0,0:0:0:0:
308,134,89024,2,0,P|259:126|210:140,1,88.000002685547,2|0,1:0|0:0,0:0:0:0:
137,305,89357,2,0,B|190:288|227:302|227:302|264:316|311:300,1,176.000005371094,8|0,0:0|0:0,0:0:0:0:
127,145,89857,6,0,P|101:208|155:319,1,176.000005371094,10|8,0:0|0:0,0:0:0:0:
299,217,90357,2,0,P|256:212|213:219,1,88.000002685547,0|0,1:0|0:0,0:0:0:0:
309,300,90690,1,10,0:0:0:0:
213,218,90857,1,0,0:0:0:0:
391,175,91024,2,0,P|396:218|389:261,1,88.000002685547,2|10,0:0|0:0,0:0:0:0:
296,91,91357,6,0,L|386:82,1,88.000002685547,6|0,1:0|0:0,0:0:0:0:
220,30,91690,2,0,L|132:38,1,88.000002685547,0|0,1:0|0:0,0:0:0:0:
123,197,92024,2,0,P|159:118|132:37,1,176.000005371094,8|0,0:0|1:0,0:0:0:0:
31,271,92524,6,0,B|71:277|90:270|90:270|115:282|115:282|153:264|201:273,1,176.000005371094,10|2,0:0|1:0,0:0:0:0:
389,261,93024,1,10,0:0:0:0:
288,173,93190,1,2,0:0:0:0:
302,365,93357,2,0,L|295:268,1,88.000002685547,10|0,0:0|0:0,0:0:0:0:
397,149,93690,5,8,0:0:0:0:
389,261,93857,1,8,0:0:0:0:
333,73,94024,6,0,P|382:52|446:64,1,88.000002685547,6|0,1:0|0:0,0:0:0:0:
479,169,94357,2,0,P|435:168|396:148,1,88.000002685547,2|0,1:0|0:0,0:0:0:0:
166,73,94690,2,0,P|245:98|352:57,1,176.000005371094,8|0,0:0|0:0,0:0:0:0:
238,216,95190,6,0,P|159:191|52:232,1,176.000005371094,10|8,0:0|0:0,0:0:0:0:
156,348,95690,1,2,1:0:0:0:
71,216,95857,1,0,0:0:0:0:
221,106,96024,5,10,0:0:0:0:
238,216,96190,1,2,1:0:0:0:
256,328,96357,1,2,0:0:0:0:
274,216,96524,1,10,0:0:0:0:
291,106,96690,6,0,B|313:71|390:69|429:157|348:284|265:282|255:327|255:327|243:282|162:284|84:156|118:65|212:66|221:106,1,691.200016875,4|0,1:0|0:2,0:0:0:0:
