osu file format v14

[General]
AudioFilename: audio.mp3
AudioLeadIn: 0
PreviewTime: 77107
Countdown: 0
SampleSet: Normal
StackLeniency: 0.7
Mode: 0
LetterboxInBreaks: 0
WidescreenStoryboard: 0

[Editor]
Bookmarks: 22024,35357,46024,99357
DistanceSpacing: 0.9
BeatDivisor: 4
GridSize: 4
TimelineZoom: 1.3

[Metadata]
Title:Vanity
TitleUnicode:Vanity
Artist:Powerless feat. kakichoco
ArtistUnicode:Powerless feat. kakichoco
Creator:Kyuukai
Version:Normal
Source:
Tags:kakiless 柿チョコ 無力P MuryokuP Comiket Odyssey Utaite worminators linada yaleufeu celerih realazy psionic naotoshi sotarks kin
BeatmapID:1382038
BeatmapSetID:651712

[Difficulty]
HPDrainRate:3
CircleSize:3.5
OverallDifficulty:4
ApproachRate:5
SliderMultiplier:1
SliderTickRate:1

[Events]
//Background and Video events
0,0,"BG500.jpg",0,0
//Break Periods
2,67557,71491
//Storyboard Layer 0 (Background)
//Storyboard Layer 1 (Fail)
//Storyboard Layer 2 (Pass)
//Storyboard Layer 3 (Foreground)
//Storyboard Sound Samples

[TimingPoints]
691,333.333333333333,4,1,2,50,1,0
1024,-100,4,2,0,50,0,0
22024,-100,4,1,2,50,0,0
24690,-100,4,2,1,65,0,0
46024,-100,4,2,1,65,0,0
67357,-100,4,2,1,50,0,0
72690,-100,4,2,1,55,0,0
74024,-100,4,2,1,60,0,0
75357,-100,4,2,1,60,0,0
77190,-100,4,2,1,50,0,0
78024,-100,4,2,1,80,0,1
80524,-100,4,2,1,70,0,0
80690,-100,4,2,1,80,0,1
83190,-100,4,2,1,70,0,0
83357,-100,4,2,1,80,0,1
88524,-100,4,2,1,70,0,0
88690,-100,4,2,1,80,0,1
91190,-100,4,2,1,70,0,0
91357,-100,4,2,1,80,0,1
93857,-100,4,2,1,70,0,0
94024,-100,4,2,1,80,0,1
96524,-100,4,2,1,70,0,0
96690,-100,4,1,2,80,0,1
96857,-100,4,1,2,70,0,0

[Colours]
Combo1 : 128,64,64
Combo2 : 0,128,255
Combo3 : 192,192,192

[HitObjects]
36,36,691,5,4,0:0:0:0:
120,68,1024,2,0,P|128:96|132:128,1,50
135,162,1357,2,0,P|183:170|255:161,1,100,2|0,0:0|0:0,0:0:0:0:
319,136,2024,2,0,P|368:132|417:140,1,100,0|0,0:0|0:0,0:0:0:0:
450,171,2524,2,0,L|442:279,1,100,2|2,0:0|0:0,0:0:0:0:
340,356,3357,5,0,0:0:0:0:
268,304,3691,2,0,P|236:300|196:300,1,50,0|0,0:0|0:0,0:0:0:0:
179,322,4024,2,0,P|128:317|72:326,1,100,2|0,0:0|0:0,0:0:0:0:
3,275,4691,2,0,L|10:164,1,100,2|0,0:0|0:0,0:0:0:0:
48,152,5191,2,0,P|97:158|147:153,1,100,2|2,0:0|0:0,0:0:0:0:
220,204,5857,6,0,P|235:141|217:97,1,100,0|0,0:0|0:0,0:0:0:0:
207,67,6357,1,0,0:0:0:0:
429,61,7191,2,0,L|435:176,1,100,2|2,0:0|0:0,0:0:0:0:
422,205,7691,2,0,L|426:265,1,50,0|0,0:0|0:0,0:0:0:0:
397,290,8024,2,0,P|363:290|329:303,1,50,2|0,0:0|0:0,0:0:0:0:
222,344,8691,5,0,0:0:0:0:
132,359,9024,2,0,L|139:310,1,50,0|0,0:0|0:0,0:0:0:0:
146,265,9357,2,0,P|191:248|259:249,1,100,2|0,0:0|0:0,0:0:0:0:
327,274,10024,2,0,P|330:232|328:219,1,50,0|0,0:0|0:0,0:0:0:0:
301,188,10357,1,0,0:0:0:0:
301,188,10524,2,0,L|296:72,1,100,2|2,0:0|0:0,0:0:0:0:
177,33,11357,5,0,0:0:0:0:
110,94,11691,2,0,L|108:153,1,50,0|0,0:0|0:0,0:0:0:0:
72,170,12024,2,0,L|76:289,1,100,2|0,0:0|0:0,0:0:0:0:
131,340,12691,2,0,P|180:328|238:342,1,100,2|0,0:0|0:0,0:0:0:0:
266,361,13191,2,0,P|315:373|373:359,1,100,2|2,0:0|0:0,0:0:0:0:
457,267,14024,5,0,0:0:0:0:
398,198,14357,2,0,L|403:141,1,50,0|0,0:0|0:0,0:0:0:0:
407,103,14691,2,0,P|352:104|308:87,1,100,2|0,0:0|0:0,0:0:0:0:
238,34,15357,2,0,P|183:33|139:50,1,100,2|0,0:0|0:0,0:0:0:0:
109,81,15857,2,0,P|108:130|124:177,1,100,2|2,0:0|0:0,0:0:0:0:
94,262,16524,6,0,P|146:265|199:229,1,100,2|0,0:0|0:0,0:0:0:0:
222,214,17024,1,0,0:0:0:0:
414,330,17857,2,0,L|418:227,1,100,2|0,0:0|0:0,0:0:0:0:
392,192,18357,2,0,L|393:123,1,50,0|0,0:0|0:0,0:0:0:0:
356,114,18691,2,0,L|357:45,1,50,2|2,0:0|0:0,0:0:0:0:
227,26,19357,5,0,0:0:0:0:
182,105,19691,2,0,L|117:100,1,50,0|0,0:0|0:0,0:0:0:0:
87,97,20024,2,0,P|92:156|81:196,1,100,2|0,0:0|0:0,0:0:0:0:
23,263,20691,2,0,P|68:282|135:264,1,100,0|0,0:0|0:0,0:0:0:0:
153,249,21191,2,0,B|222:221|222:221|264:250|264:250|320:208|390:237,1,250,2|4,0:0|0:0,0:0:0:0:
256,192,22191,12,0,24024,0:0:0:0:
383,195,24691,6,0,L|271:187,1,100,4|0,0:0|0:0,0:0:0:0:
238,184,25190,1,8,0:0:0:0:
238,184,25357,2,0,P|251:132|233:72,1,100,2|8,0:0|0:0,0:0:0:0:
113,42,26190,2,0,L|105:98,1,50,8|2,0:0|0:0,0:0:0:0:
39,152,26691,2,0,L|46:201,1,50,8|2,0:0|0:0,0:0:0:0:
61,290,27191,1,8,0:0:0:0:
61,290,27357,6,0,P|121:277|166:293,1,100,4|0,0:0|0:0,0:0:0:0:
188,320,27857,1,8,0:0:0:0:
188,320,28024,2,0,P|248:333|293:317,1,100,2|8,0:0|0:0,0:0:0:0:
393,243,28857,2,0,L|401:187,1,50,8|2,0:0|0:0,0:0:0:0:
467,133,29357,2,0,L|459:83,1,50,8|2,0:0|0:0,0:0:0:0:
341,16,30024,6,0,P|278:8|221:20,1,100,4|0,0:0|0:0,0:0:0:0:
207,42,30524,1,8,0:0:0:0:
207,42,30691,2,0,P|157:36|108:44,1,100,2|8,0:0|0:0,0:0:0:0:
16,144,31524,2,0,L|22:209,1,50,8|2,0:0|0:0,0:0:0:0:
100,239,32024,2,0,L|106:174,1,50,8|2,0:0|0:0,0:0:0:0:
168,125,32524,1,8,0:0:0:0:
168,125,32691,6,0,L|280:136,1,100,4|0,0:0|0:0,0:0:0:0:
301,164,33191,1,8,0:0:0:0:
333,194,33357,2,0,L|323:250,2,50,8|8|4,0:0|0:0|0:0,0:0:0:0:
440,112,34191,1,8,0:0:0:0:
440,112,34357,2,0,L|448:161,1,50,2|2,0:0|0:0,0:0:0:0:
441,206,34690,1,2,0:0:0:0:
433,250,34857,2,8,P|461:242|489:246,2,50,8|8|8,0:0|0:0|0:0,0:0:0:0:
404,284,35357,6,0,L|292:273,1,100,4|0,0:0|0:0,0:0:0:0:
263,255,35857,1,8,0:0:0:0:
263,255,36024,2,0,L|163:264,1,100,2|8,0:0|0:0,0:0:0:0:
74,163,36857,2,0,L|123:157,1,50,8|2,0:0|0:0,0:0:0:0:
186,93,37357,2,0,L|235:98,1,50,8|2,0:0|0:0,0:0:0:0:
304,156,37857,1,8,0:0:0:0:
304,156,38024,6,0,P|352:148|414:162,1,100,4|0,0:0|0:0,0:0:0:0:
439,181,38524,1,8,0:0:0:0:
439,181,38691,2,0,P|447:133|433:71,1,100,2|8,0:0|0:0,0:0:0:0:
321,15,39524,2,0,L|315:64,1,50,8|2,0:0|0:0,0:0:0:0:
257,133,40024,2,0,L|262:182,1,50,8|2,0:0|0:0,0:0:0:0:
319,306,40691,6,0,P|262:317|212:304,1,100,4|0,0:0|0:0,0:0:0:0:
183,285,41191,1,8,0:0:0:0:
183,285,41357,2,0,P|126:274|76:287,1,100,2|8,0:0|0:0,0:0:0:0:
16,166,42191,2,0,L|28:106,1,50,8|2,0:0|0:0,0:0:0:0:
106,76,42690,2,0,L|115:125,1,50,8|2,0:0|0:0,0:0:0:0:
184,183,43191,1,8,0:0:0:0:
184,183,43357,6,0,L|193:232,1,50,4|8,0:0|0:0,0:0:0:0:
273,274,43857,2,8,L|282:224,2,50,0|8|2,0:0|0:0|0:0,0:0:0:0:
307,302,44357,2,0,L|316:351,1,50,4|8,0:0|0:0,0:0:0:0:
404,334,44857,1,0,0:0:0:0:
404,334,45024,2,0,L|414:226,1,100,8|8,0:0|0:0,0:0:0:0:
422,145,45691,2,8,P|395:134|369:129,1,50,8|8,0:0|0:0,0:0:0:0:
329,125,46024,6,0,L|215:129,1,100,4|0,0:0|0:0,0:0:0:0:
196,212,46691,2,0,L|82:208,1,100,8|0,0:0|0:0,0:0:0:0:
25,152,47357,2,0,L|11:105,1,50,0|2,0:0|0:0,0:0:0:0:
96,74,47857,2,0,L|82:27,2,50,2|8|0,0:0|0:0|0:0,0:0:0:0:
178,111,48524,1,8,0:0:0:0:
178,111,48691,6,0,P|234:102|287:113,1,100,0|0,0:0|0:0,0:0:0:0:
342,169,49357,2,0,P|332:217|340:267,1,100,8|0,0:0|0:0,0:0:0:0:
398,336,50024,2,0,L|468:336,1,50,0|0,0:0|0:0,0:0:0:0:
500,262,50524,2,0,P|505:227|501:194,2,50,0|8|0,0:0|0:0|0:0,0:0:0:0:
415,231,51191,1,8,0:0:0:0:
415,231,51357,2,0,L|421:114,1,100,0|2,0:0|0:0,0:0:0:0:
335,100,52024,2,0,L|329:199,1,100,8|0,0:0|0:0,0:0:0:0:
295,228,52524,6,0,P|231:219|189:234,1,100,8|8,0:0|0:0,0:0:0:0:
162,257,53024,1,2,0:0:0:0:
75,230,53357,2,0,L|71:173,1,50,8|8,0:0|0:0,0:0:0:0:
123,106,53857,1,8,0:0:0:0:
123,106,54024,6,0,P|197:93|223:99,1,100,0|2,0:0|0:0,0:0:0:0:
273,170,54691,2,0,P|347:183|373:177,1,100,8|0,0:0|0:0,0:0:0:0:
411,159,55190,1,2,0:0:0:0:
471,92,55524,2,0,L|466:43,2,50,2|0|2,0:0|0:0|0:0,0:0:0:0:
498,127,56024,2,0,L|493:176,1,50,8|0,0:0|0:0,0:0:0:0:
511,217,56357,2,0,L|506:266,1,50,8|8,0:0|0:0,0:0:0:0:
501,311,56691,6,0,P|450:301|384:316,1,100,4|2,0:0|0:0,0:0:0:0:
330,361,57357,2,0,P|279:371|213:356,1,100,8|0,0:0|0:0,0:0:0:0:
169,298,58024,2,0,L|175:243,2,50,0|2|2,0:0|0:0|0:0,0:0:0:0:
85,331,58691,2,0,L|79:276,1,50,8|0,0:0|0:0,0:0:0:0:
17,158,59357,6,0,L|27:58,1,100,0|2,0:0|0:0,0:0:0:0:
113,30,60024,2,0,L|123:129,1,100,8|0,0:0|0:0,0:0:0:0:
204,169,60691,2,0,L|199:218,2,50,0|2|0,0:0|0:0|0:0,0:0:0:0:
256,95,61357,2,0,P|302:87|372:102,1,100,8|0,0:0|0:0,0:0:0:0:
396,112,61857,1,8,0:0:0:0:
396,112,62024,6,0,L|388:222,1,100,4|2,0:0|0:0,0:0:0:0:
350,293,62690,2,0,P|300:284|251:292,1,100,8|0,0:0|0:0,0:0:0:0:
211,312,63191,2,0,P|161:320|112:312,1,100,8|8,0:0|0:0,0:0:0:0:
71,294,63691,1,2,0:0:0:0:
26,216,64024,2,0,L|31:147,1,50,8|2,0:0|0:0,0:0:0:0:
79,90,64524,1,8,0:0:0:0:
79,90,64691,6,0,P|128:81|177:89,1,100,0|2,0:0|0:0,0:0:0:0:
248,144,65357,2,0,P|297:152|346:144,1,100,8|0,0:0|0:0,0:0:0:0:
389,129,65857,2,0,P|396:178|388:227,1,100,8|2,0:0|0:0,0:0:0:0:
365,265,66357,2,0,P|362:292|365:321,1,50,8|0,0:0|0:0,0:0:0:0:
331,346,66691,2,0,P|256:331|168:353,1,150,8|2,0:0|0:0,0:0:0:0:
145,367,67357,5,4,0:0:0:0:
256,192,72691,12,10,75357,0:0:0:0:
35,310,77191,6,2,L|29:370,2,50,2|2|0,0:0|0:0|0:0,0:0:0:0:
76,292,77691,2,2,L|71:242,1,50,2|0,0:0|0:0,0:0:0:0:
47,203,78024,6,0,L|58:102,1,100,4|2,0:0|0:0,0:0:0:0:
110,30,78691,2,0,P|161:20|224:38,1,100,8|0,0:0|0:0,0:0:0:0:
241,59,79191,2,0,P|292:69|355:51,1,100,8|8,0:0|0:0,0:0:0:0:
379,40,79691,1,8,0:0:0:0:
456,88,80024,2,0,L|452:148,1,50,8|2,0:0|0:0,0:0:0:0:
497,215,80524,1,8,0:0:0:0:
497,215,80690,6,0,L|489:336,1,100,4|0,0:0|0:0,0:0:0:0:
405,345,81357,2,0,P|353:337|294:343,1,100,8|0,0:0|0:0,0:0:0:0:
268,364,81857,2,0,P|218:367|168:359,1,100,8|8,0:0|0:0,0:0:0:0:
126,344,82357,1,8,0:0:0:0:
55,288,82690,2,0,L|54:225,1,50,8|2,0:0|0:0,0:0:0:0:
23,204,83024,2,8,L|22:141,1,50,8|8,0:0|0:0,0:0:0:0:
21,108,83357,6,0,P|73:98|135:103,1,100,4|2,0:0|0:0,0:0:0:0:
188,158,84024,2,0,L|315:153,1,100,8|0,0:0|0:0,0:0:0:0:
323,125,84524,2,0,L|422:128,1,100,8|2,0:0|0:0,0:0:0:0:
467,133,85024,1,8,0:0:0:0:
438,218,85357,2,0,L|388:220,1,50,8|8,0:0|0:0,0:0:0:0:
330,289,85857,1,8,0:0:0:0:
330,289,86024,6,0,L|223:294,1,100,4|0,0:0|0:0,0:0:0:0:
187,372,86690,2,0,P|142:306|143:272,1,100,8|8,0:0|0:0,0:0:0:0:
145,244,87190,1,4,0:0:0:0:
120,157,87524,2,0,P|149:153|177:154,1,50,2|8,0:0|0:0,0:0:0:0:
212,164,87857,1,0,0:0:0:0:
212,164,88024,2,0,P|264:158|330:169,1,100,8|8,0:0|0:0,0:0:0:0:
356,172,88524,1,8,0:0:0:0:
356,172,88690,6,0,P|355:122|370:74,1,100,4|2,0:0|0:0,0:0:0:0:
460,76,89357,2,0,P|475:123|474:173,1,100,8|0,0:0|0:0,0:0:0:0:
446,208,89857,2,0,L|453:317,1,100,8|8,0:0|0:0,0:0:0:0:
456,352,90357,1,2,0:0:0:0:
374,319,90690,2,0,L|306:322,1,50,8|0,0:0|0:0,0:0:0:0:
244,363,91190,1,8,0:0:0:0:
244,363,91357,6,0,L|125:351,1,100,4|2,0:0|0:0,0:0:0:0:
55,339,92024,2,0,P|67:282|54:221,1,100,8|0,0:0|0:0,0:0:0:0:
28,209,92524,2,8,P|16:152|29:91,1,100,8|2,0:0|0:0,0:0:0:0:
47,74,93024,1,8,0:0:0:0:
119,21,93357,2,0,L|179:22,1,50,8|0,0:0|0:0,0:0:0:0:
205,48,93690,2,0,L|254:47,1,50,8|8,0:0|0:0,0:0:0:0:
300,46,94024,6,0,P|314:94|292:159,1,100,4|2,0:0|0:0,0:0:0:0:
252,215,94690,2,0,P|195:205|137:214,1,100,8|0,0:0|0:0,0:0:0:0:
111,226,95190,2,0,P|120:276|110:331,1,100,8|8,0:0|0:0,0:0:0:0:
98,366,95690,1,2,0:0:0:0:
15,328,96024,2,0,L|11:274,1,50,8|0,0:0|0:0,0:0:0:0:
7,188,96524,1,8,0:0:0:0:
7,188,96690,5,4,0:0:0:0:
256,192,96857,12,4,99357,0:0:0:0:
