osu file format v14

[General]
AudioFilename: audio.mp3
AudioLeadIn: 0
PreviewTime: 77608
Countdown: 0
SampleSet: Soft
StackLeniency: 0.7
Mode: 0
LetterboxInBreaks: 0
WidescreenStoryboard: 0

[Editor]
Bookmarks: 46510,78510,142510,163010,185176,217176
DistanceSpacing: 0.9
BeatDivisor: 8
GridSize: 4
TimelineZoom: 2

[Metadata]
Title:Vanity
TitleUnicode:Vanity
Artist:Powerless feat. kakichoco
ArtistUnicode:Powerless feat. kakichoco
Creator:Bellicose
Version:Normal
Source:
Tags:mappers' guild mpg featured artist fa dored kakiless 柿チョコ 無力P MuryokuP Comiket Odyssey Utaite japanese rock jrock full version
BeatmapID:2915287
BeatmapSetID:1411404

[Difficulty]
HPDrainRate:3
CircleSize:3
OverallDifficulty:4
ApproachRate:5.5
SliderMultiplier:2.2
SliderTickRate:1

[Events]
//Background and Video events
0,0,"bg.jpg",0,0
//Break Periods
2,68058,72067
2,142724,162733
//Storyboard Layer 0 (Background)
//Storyboard Layer 1 (Fail)
//Storyboard Layer 2 (Pass)
//Storyboard Layer 3 (Foreground)
//Storyboard Layer 4 (Overlay)
//Storyboard Sound Samples

[TimingPoints]
1192,666.666666666667,4,2,3,50,1,0
1192,-111.111111111111,4,2,3,50,0,0
1525,-111.111111111111,4,2,1,40,0,0
21691,-111.111111111111,4,2,1,50,0,0
22525,-111.111111111111,4,2,3,50,0,0
24858,-111.111111111111,4,2,2,60,0,0
25191,-100,4,2,1,70,0,0
46525,-105.263157894737,4,2,1,60,0,0
68191,-100,4,2,1,40,0,0
73191,-111.111111111111,4,2,1,50,0,0
74525,-111.111111111111,4,2,1,60,0,0
75858,-100,4,2,1,70,0,0
78525,-95.2380952380952,4,2,1,75,0,1
89191,-95.2380952380952,4,2,1,75,0,1
97192,-100,4,2,3,70,0,0
97525,-111.111111111111,4,2,1,60,0,0
99191,-100,4,2,1,70,0,0
99858,-100,4,2,1,70,0,0
118525,-100,4,2,1,75,0,0
120941,-100,4,2,2,75,0,0
121191,-105.263157894737,4,2,1,70,0,0
137191,-100,4,2,1,75,0,0
139025,-100,4,2,1,75,0,0
142525,-100,4,2,3,60,0,0
163025,-100,4,2,1,40,0,0
163858,-117.647058823529,4,2,3,40,0,0
183358,-100,4,2,3,45,0,0
183525,-100,4,2,3,50,0,0
183691,-100,4,2,3,55,0,0
183858,-100,4,2,3,60,0,0
184025,-100,4,2,3,65,0,0
184191,-100,4,2,3,70,0,0
184358,-100,4,2,3,70,0,0
185191,-105.263157894737,4,2,1,70,0,0
193191,-100,4,2,1,75,0,0
195191,-100,4,2,1,75,0,0
195858,-95.2380952380952,4,2,1,75,0,1
206525,-95.2380952380952,4,2,1,75,0,1
214525,-100,4,2,3,70,0,0
214858,-100,4,2,1,60,0,0

[Colours]
Combo1 : 182,136,242
Combo2 : 140,219,253
Combo3 : 137,174,235
Combo4 : 243,184,250

[HitObjects]
71,90,1192,5,4,0:0:0:0:
146,42,1525,2,0,L|267:58,2,98.9999969787599,2|2|2,0:0|0:0|0:0,0:0:0:0:
71,90,2525,2,0,P|35:122|28:184,1,98.9999969787599,2|0,0:0|0:0,0:0:0:0:
29,214,3025,1,2,0:0:0:0:
12,301,3358,2,0,B|97:314|72:253|154:268,1,148.49999546814,2|0,0:0|0:0,0:0:0:0:
206,339,4192,5,2,0:0:0:0:
289,306,4525,2,0,L|302:192,1,98.9999969787599,2|0,0:0|0:0,0:0:0:0:
342,129,5192,2,0,P|387:161|443:144,1,98.9999969787599,2|0,0:0|0:0,0:0:0:0:
467,174,5692,2,0,L|478:272,2,98.9999969787599,2|2|2,0:0|0:0|0:0,0:0:0:0:
496,92,6692,1,2,0:0:0:0:
496,92,6858,2,0,P|451:60|395:77,1,98.9999969787599,2|0,0:0|0:0,0:0:0:0:
291,5,7692,5,2,0:0:0:0:
222,60,8025,1,0,0:0:0:0:
222,60,8192,2,0,L|236:167,1,98.9999969787599,2|0,0:0|0:0,0:0:0:0:
222,201,8692,2,0,P|294:177|360:218,1,148.49999546814,2|0,0:0|0:0,0:0:0:0:
383,294,9525,5,2,0:0:0:0:
322,359,9858,2,0,L|221:341,1,98.9999969787599,2|0,0:0|0:0,0:0:0:0:
135,333,10525,2,0,L|37:350,1,98.9999969787599,2|0,0:0|0:0,0:0:0:0:
10,314,11025,1,2,0:0:0:0:
45,232,11358,2,0,B|33:144|107:180|81:74,1,148.49999546814,2|0,0:0|0:0,0:0:0:0:
139,24,12192,6,0,P|198:20|228:65,2,98.9999969787599,2|2|2,0:0|0:0|0:0,0:0:0:0:
85,95,13192,2,0,L|103:199,1,98.9999969787599,2|0,0:0|0:0,0:0:0:0:
140,214,13692,1,2,0:0:0:0:
204,152,14025,2,0,L|358:132,1,148.49999546814,2|0,0:0|0:0,0:0:0:0:
427,86,14858,5,2,0:0:0:0:
494,144,15192,2,0,P|511:197|491:248,1,98.9999969787599,2|0,0:0|0:0,0:0:0:0:
483,324,15858,2,0,L|369:344,1,98.9999969787599,2|0,0:0|0:0,0:0:0:0:
345,321,16358,2,0,L|247:303,2,98.9999969787599,2|2|2,0:0|0:0|0:0,0:0:0:0:
387,244,17358,1,2,0:0:0:0:
387,244,17525,2,0,L|369:146,1,98.9999969787599,2|0,0:0|0:0,0:0:0:0:
245,195,18358,5,2,0:0:0:0:
172,154,18692,1,0,0:0:0:0:
172,154,18858,2,0,P|148:100|174:55,1,98.9999969787599,2|0,0:0|0:0,0:0:0:0:
162,21,19358,2,0,P|217:38|301:2,1,148.49999546814,2|0,0:0|0:0,0:0:0:0:
361,67,20192,5,2,0:0:0:0:
316,144,20525,2,0,L|300:265,1,98.9999969787599,2|2,0:0|0:0,0:0:0:0:
244,308,21192,2,0,L|251:363,1,49.4999984893799,0|2,0:0|0:0,0:0:0:0:
164,380,21692,2,0,P|82:341|135:211,1,247.4999924469,2|4,0:0|0:0,0:0:0:0:
256,192,22692,12,0,24525,0:0:0:0:
406,54,25192,6,0,L|238:33,1,165,6|0,1:2|1:0,0:0:0:0:
202,62,25858,1,8,0:0:0:0:
233,155,26192,2,0,P|213:195|94:194,1,165,2|8,1:2|0:0,0:0:0:0:
63,174,26858,1,0,1:0:0:0:
5,255,27192,1,8,0:0:0:0:
5,255,27358,1,0,1:0:0:0:
36,354,27692,1,8,0:0:0:0:
36,354,27858,6,0,B|129:370|94:299|196:320,1,165,6|0,1:2|1:0,0:0:0:0:
225,353,28525,1,8,0:0:0:0:
295,283,28858,2,0,B|282:224|282:224|311:187|311:187|296:119,1,165,2|8,1:2|0:0,0:0:0:0:
283,83,29525,1,0,1:0:0:0:
354,15,29858,1,8,0:0:0:0:
354,15,30025,2,0,B|396:49|396:49|467:20,1,110,0|0,1:0|0:0,0:0:0:0:
497,27,30525,6,0,L|477:211,1,165,6|0,1:2|1:0,0:0:0:0:
498,236,31192,1,8,0:0:0:0:
491,334,31525,2,0,B|465:344|443:363|443:363|391:362|342:323,1,165,2|8,1:2|0:0,0:0:0:0:
326,277,32192,1,0,1:0:0:0:
380,195,32525,1,8,0:0:0:0:
380,195,32692,1,0,1:0:0:0:
319,124,33025,1,8,0:0:0:0:
319,124,33192,6,0,P|249:107|177:180,1,165,6|0,1:2|1:0,0:0:0:0:
167,209,33858,2,0,L|226:217,1,55,8|8,0:0|0:0,0:0:0:0:
270,210,34192,2,0,B|218:297|309:276|257:372,1,165,6|0,1:2|1:0,0:0:0:0:
212,380,34858,1,8,0:0:0:0:
137,324,35192,1,0,1:0:0:0:
137,324,35358,2,0,L|57:313,1,55,8|8,0:0|0:0,0:0:0:0:
37,337,35692,1,8,0:0:0:0:
37,337,35858,6,0,P|-3:265|32:179,1,165,6|0,1:2|1:0,0:0:0:0:
59,159,36525,1,8,0:0:0:0:
150,196,36858,2,0,L|318:179,1,165,2|8,1:2|0:0,0:0:0:0:
357,203,37525,1,0,1:0:0:0:
433,140,37858,1,8,0:0:0:0:
433,140,38025,1,0,1:0:0:0:
412,48,38358,1,8,0:0:0:0:
412,48,38525,6,0,B|310:26|359:90|250:69,1,165,6|0,1:2|1:0,0:0:0:0:
211,46,39192,1,8,0:0:0:0:
151,125,39525,2,0,P|186:155|179:264,1,165,2|8,1:2|0:0,0:0:0:0:
145,301,40192,1,0,1:0:0:0:
53,330,40525,1,8,0:0:0:0:
53,330,40692,2,0,L|35:202,1,110,0|0,1:0|0:0,0:0:0:0:
0,188,41192,6,0,B|14:124|14:124|53:102|53:102|71:24,1,165,6|0,1:2|1:0,0:0:0:0:
106,21,41858,1,8,0:0:0:0:
179,87,42192,2,0,B|209:103|228:128|228:128|290:129|326:84,1,165,2|8,1:2|0:0,0:0:0:0:
349,53,42858,1,0,1:0:0:0:
426,123,43192,1,10,0:0:0:0:
426,123,43358,2,0,L|409:245,1,110,0|8,1:0|0:0,0:0:0:0:
439,272,43858,5,6,1:2:0:0:
439,272,44025,1,8,0:0:0:0:
376,348,44358,1,0,1:0:0:0:
376,348,44525,2,0,L|300:362,1,55,8|8,0:0|0:0,0:0:0:0:
278,376,44858,1,6,1:2:0:0:
278,376,45025,2,0,P|243:319|268:267,1,110,8|0,0:0|1:0,0:0:0:0:
290,247,45525,1,8,0:0:0:0:
268,155,45858,1,0,1:0:0:0:
268,155,46025,2,0,L|342:144,2,55,8|8|8,0:0|0:0|0:0,0:0:0:0:
232,134,46525,5,4,1:2:0:0:
232,134,46692,2,0,L|250:18,1,104.499997209549,0|0,1:0|1:0,0:0:0:0:
211,1,47192,1,10,0:0:0:0:
119,22,47525,1,2,0:0:0:0:
27,42,47858,2,0,P|-1:98|15:158,1,104.499997209549,2|2,0:0|0:0,0:0:0:0:
26,179,48358,1,2,1:2:0:0:
115,150,48692,2,0,B|215:135|161:204|269:181,1,156.749995814324,2|0,1:2|1:0,0:0:0:0:
344,140,49525,5,2,0:0:0:0:
421,193,49858,2,0,P|445:243|422:306,1,104.499997209549,10|0,0:0|0:0,0:0:0:0:
374,361,50525,1,2,0:0:0:0:
294,311,50858,1,2,0:0:0:0:
294,311,51025,2,0,L|169:331,2,104.499997209549,2|2|10,1:2|1:2|0:0,0:0:0:0:
356,240,52025,1,2,0:0:0:0:
356,240,52192,2,0,P|340:188|369:136,1,104.499997209549,2|8,1:2|0:0,0:0:0:0:
493,153,53025,6,0,L|477:30,1,104.499997209549,10|8,0:0|0:0,0:0:0:0:
441,21,53525,2,0,L|325:3,1,104.499997209549,2|10,1:2|0:0,0:0:0:0:
297,30,54025,1,2,1:2:0:0:
246,108,54358,1,8,0:0:0:0:
246,108,54525,6,0,P|169:107|145:75,2,104.499997209549,0|2|10,1:0|1:2|0:0,0:0:0:0:
338,125,55525,1,2,0:0:0:0:
316,216,55858,2,0,L|328:324,1,104.499997209549,2|2,0:0|0:0,0:0:0:0:
312,364,56358,1,2,1:2:0:0:
222,380,56692,1,2,1:2:0:0:
222,380,56858,2,0,L|213:311,1,52.2499986047745,8|8,0:0|0:0,0:0:0:0:
182,294,57192,6,0,P|134:291|81:341,2,104.499997209549,6|0|10,1:2|1:0|0:0,0:0:0:0:
245,224,58192,1,2,0:0:0:0:
186,150,58525,2,0,L|206:34,1,104.499997209549,2|2,0:0|1:2,0:0:0:0:
174,10,59025,1,2,0:0:0:0:
80,13,59358,2,0,B|34:91|123:79|58:176,1,156.749995814324,2|0,0:0|1:0,0:0:0:0:
8,234,60192,5,2,1:2:0:0:
7,328,60525,2,0,P|42:361|106:350,1,104.499997209549,8|2,0:0|0:0,0:0:0:0:
159,288,61192,1,2,0:0:0:0:
241,344,61525,1,0,1:0:0:0:
241,344,61692,2,0,L|359:327,1,104.499997209549,2|2,0:0|0:0,0:0:0:0:
433,373,62358,1,10,0:0:0:0:
433,373,62525,6,0,B|453:319|453:319|424:277,2,104.499997209549,4|0|8,1:2|1:0|0:0,0:0:0:0:
295,342,63692,2,0,L|312:217,1,104.499997209549,10|8,0:0|0:0,0:0:0:0:
299,192,64192,2,0,P|249:220|187:199,1,104.499997209549,2|10,1:2|0:0,0:0:0:0:
164,186,64692,1,2,1:2:0:0:
105,119,65025,1,8,0:0:0:0:
105,119,65192,6,0,L|122:-6,2,104.499997209549,0|2|10,1:0|1:2|0:0,0:0:0:0:
197,100,66192,1,2,1:2:0:0:
293,86,66525,1,2,0:0:0:0:
293,86,66692,2,0,L|284:159,1,52.2499986047745,2|8,1:2|0:0,0:0:0:0:
285,189,67025,1,2,1:2:0:0:
285,189,67192,2,0,P|324:220|378:208,2,104.499997209549,8|8|4,0:0|0:3|1:0,0:0:0:0:
114,38,73192,6,0,L|95:151,1,98.9999969787599,0|0,1:0|1:0,0:0:0:0:
28,191,73858,2,0,L|47:304,1,98.9999969787599,2|2,1:2|1:2,0:0:0:0:
99,358,74525,1,2,1:2:0:0:
176,315,74858,1,2,1:2:0:0:
258,349,75192,2,0,P|306:371|364:350,1,98.9999969787599,2|2,1:2|1:2,0:0:0:0:
416,288,75858,1,10,1:2:0:0:
416,288,76025,1,8,1:2:0:0:
439,58,78525,6,0,L|303:78,1,115.49999647522,6|0,1:2|1:2,0:0:0:0:
228,36,79192,2,0,P|187:89|200:154,1,115.49999647522,8|0,0:0|0:0,0:0:0:0:
213,180,79692,1,10,0:0:0:0:
320,175,80025,1,10,0:0:0:0:
320,175,80192,2,0,L|302:306,1,115.49999647522,2|10,1:2|0:0,0:0:0:0:
323,337,80692,1,2,1:2:0:0:
226,376,81025,1,10,0:0:0:0:
226,376,81192,6,0,P|187:335|116:346,1,115.49999647522,6|0,1:2|1:2,0:0:0:0:
31,367,81858,2,0,L|15:246,1,115.49999647522,8|0,0:0|0:0,0:0:0:0:
30,202,82358,1,10,0:0:0:0:
131,225,82692,1,10,0:0:0:0:
131,225,82858,2,0,L|193:211,1,57.7499982376099,2|2,1:2|0:0,0:0:0:0:
237,225,83192,2,0,B|223:163|269:174|246:106,1,115.49999647522,10|10,0:0|0:0,0:0:0:0:
241,66,83692,1,6,0:3:0:0:
241,66,83858,6,0,P|188:26|124:46,1,115.49999647522,6|0,1:2|1:2,0:0:0:0:
38,26,84525,2,0,L|56:149,1,115.49999647522,8|0,0:0|0:0,0:0:0:0:
30,186,85025,1,10,0:0:0:0:
0,288,85358,1,10,0:0:0:0:
0,288,85525,1,2,1:2:0:0:
65,375,85858,1,10,0:0:0:0:
65,375,86025,2,0,B|119:346|119:346|184:361,1,115.49999647522,2|10,1:2|0:0,0:0:0:0:
222,369,86525,6,0,P|248:320|219:252,1,115.49999647522,6|2,1:2|1:2,0:0:0:0:
191,232,87025,1,2,0:0:0:0:
242,141,87358,2,0,L|312:150,1,57.7499982376099,2|2,0:0|1:2,0:0:0:0:
339,114,87692,2,0,L|359:234,1,115.49999647522,10|8,0:0|0:0,0:0:0:0:
336,275,88192,1,8,0:3:0:0:
388,365,88525,2,0,P|468:361|497:264,1,173.24999471283,10|6,0:0|0:3,0:0:0:0:
509,232,89192,6,0,L|490:118,1,115.49999647522,6|0,1:2|1:2,0:0:0:0:
457,19,89858,2,0,B|385:6|419:62|323:37,1,115.49999647522,8|0,0:0|0:0,0:0:0:0:
302,16,90358,1,10,0:0:0:0:
239,99,90692,1,10,0:0:0:0:
239,99,90858,2,0,P|279:143|270:208,1,115.49999647522,2|10,1:2|0:0,0:0:0:0:
245,238,91358,1,2,1:2:0:0:
174,313,91692,1,10,0:0:0:0:
174,313,91858,6,0,L|45:301,1,115.49999647522,6|0,1:2|1:2,0:0:0:0:
1,222,92525,2,0,B|11:177|11:177|34:161|34:161|46:101,1,115.49999647522,8|0,0:0|1:0,0:0:0:0:
54,69,93025,1,10,0:0:0:0:
148,25,93358,1,10,0:0:0:0:
148,25,93525,2,0,L|211:33,1,57.7499982376099,2|2,1:2|0:0,0:0:0:0:
249,60,93858,2,0,P|252:110|198:153,1,115.49999647522,10|10,0:0|0:0,0:0:0:0:
158,152,94358,1,6,0:3:0:0:
158,152,94525,6,0,L|174:276,1,115.49999647522,6|0,1:2|1:2,0:0:0:0:
135,363,95192,2,0,L|258:378,1,115.49999647522,8|0,0:0|0:0,0:0:0:0:
301,382,95692,1,10,0:0:0:0:
287,283,96025,1,10,0:0:0:0:
287,283,96192,1,2,1:2:0:0:
368,217,96525,2,0,L|431:226,1,57.7499982376099,10|2,0:0|1:2,0:0:0:0:
476,235,96858,2,0,L|467:177,1,57.7499982376099,10|10,0:0|0:3,0:0:0:0:
490,134,97192,5,6,0:2:0:0:
505,46,97525,2,0,B|145:-4|392:203|47:146,1,494.999984893799,2|8,0:0|1:2,0:0:0:0:
5,130,99358,1,8,1:2:0:0:
107,22,99858,6,0,P|175:13|237:88,1,165,6|0,1:2|1:0,0:0:0:0:
234,129,100525,1,8,0:0:0:0:
146,174,100858,2,0,B|104:271|104:271|131:331,1,165,2|8,1:2|0:0,0:0:0:0:
147,370,101525,1,0,1:0:0:0:
233,319,101858,1,8,0:0:0:0:
233,319,102025,1,0,1:0:0:0:
318,367,102358,1,8,0:0:0:0:
318,367,102525,6,0,P|376:324|350:235,1,165,6|0,1:2|1:0,0:0:0:0:
323,207,103192,1,8,0:0:0:0:
224,221,103525,2,0,B|197:128|282:163|253:62,1,165,2|8,1:2|0:0,0:0:0:0:
270,21,104192,1,0,1:0:0:0:
371,8,104525,1,8,0:0:0:0:
371,8,104692,2,0,P|410:43|464:34,1,110,0|0,1:0|0:0,0:0:0:0:
509,52,105192,6,0,L|488:215,1,165,6|0,1:2|1:0,0:0:0:0:
500,263,105858,1,8,0:0:0:0:
464,355,106192,2,0,B|440:316|384:321|384:321|371:360|310:362,1,165,2|8,1:2|0:0,0:0:0:0:
278,352,106858,1,0,1:0:0:0:
223,269,107192,1,8,0:0:0:0:
223,269,107358,1,0,1:0:0:0:
310,220,107692,1,8,0:0:0:0:
310,220,107858,6,0,P|352:149|320:53,1,165,6|0,1:2|1:0,0:0:0:0:
306,31,108525,1,8,0:0:0:0:
221,81,108858,2,0,B|195:87|164:101|164:101|105:92|64:51,1,165,2|8,1:2|0:0,0:0:0:0:
23,71,109525,1,0,1:0:0:0:
6,171,109858,1,8,0:0:0:0:
6,171,110025,2,0,L|24:288,1,110,0|0,1:0|0:0,0:0:0:0:
17,329,110525,6,0,P|75:278|161:286,1,165,6|0,1:2|1:0,0:0:0:0:
185,325,111192,1,8,0:0:0:0:
275,366,111525,2,0,B|320:339|316:291|316:291|272:278|270:218,1,165,2|8,1:2|0:0,0:0:0:0:
285,189,112192,1,0,1:0:0:0:
197,154,112525,1,8,0:0:0:0:
197,154,112692,1,0,1:0:0:0:
228,60,113025,1,8,0:0:0:0:
228,60,113192,6,0,B|284:46|284:46|331:64|331:64|385:49,1,165,6|0,1:2|1:0,0:0:0:0:
432,31,113858,1,8,0:0:0:0:
496,106,114192,2,0,B|445:186|542:166|473:276,1,165,2|8,1:2|0:0,0:0:0:0:
467,308,114858,1,0,1:0:0:0:
373,299,115192,1,8,0:0:0:0:
373,299,115358,2,0,L|361:221,2,55,0|8|4,1:0|0:3|0:3,0:0:0:0:
364,347,115858,6,0,L|295:359,1,55,14|0,0:2|1:0,0:0:0:0:
211,372,116358,2,0,P|185:308|216:259,1,110,8|4,0:3|0:3,0:0:0:0:
228,235,116858,1,14,0:0:0:0:
228,235,117025,1,0,1:0:0:0:
283,153,117358,2,0,L|357:165,2,55,8|0|4,0:3|1:0|0:3,0:0:0:0:
274,104,117858,1,14,0:0:0:0:
274,104,118025,2,0,P|246:53|197:54,1,110,8|0,0:0|1:0,0:0:0:0:
156,78,118525,6,0,L|23:104,1,110,14|8,0:0|0:0,0:0:0:0:
5,188,119192,2,0,L|11:252,1,55,8|8,0:0|0:0,0:0:0:0:
13,292,119525,2,0,P|60:308|114:276,1,110,2|8,1:2|0:0,0:0:0:0:
151,191,120192,1,8,0:0:0:0:
247,214,120525,2,0,L|229:341,1,110,8|8,0:0|0:0,0:0:0:0:
263,361,121025,1,2,0:3:0:0:
263,361,121192,6,0,B|392:362|319:278|462:297,1,208.999994419098,6|0,1:2|1:0,0:0:0:0:
490,210,122192,1,0,1:0:0:0:
488,115,122525,2,0,P|436:88|394:97,1,104.499997209549,2|2,1:2|1:2,0:0:0:0:
369,138,123025,2,0,L|259:154,1,104.499997209549,2|2,0:0|0:0,0:0:0:0:
189,98,123692,1,2,0:0:0:0:
189,98,123858,6,0,P|189:27|230:5,1,104.499997209549,6|0,1:2|1:0,0:0:0:0:
257,3,124358,2,0,L|371:16,1,104.499997209549,2|2,0:2|0:0,0:0:0:0:
407,13,124858,1,2,1:2:0:0:
407,13,125025,2,0,B|393:85|393:85|465:129|465:129|424:235,1,261.249993023873,2|0,0:0|1:0,0:0:0:0:
479,304,126192,1,0,1:0:0:0:
417,375,126525,6,0,B|375:323|304:336|304:336|339:278|327:237,1,208.999994419098,6|0,1:2|1:0,0:0:0:0:
268,187,127525,1,0,1:0:0:0:
329,115,127858,2,0,P|349:59|315:16,1,104.499997209549,2|2,1:2|1:2,0:0:0:0:
282,10,128358,2,0,L|159:32,1,104.499997209549,2|2,0:0|0:0,0:0:0:0:
101,82,129025,1,2,0:0:0:0:
101,82,129192,6,0,B|84:129|84:129|111:175,1,104.499997209549,4|0,1:2|1:0,0:0:0:0:
202,152,129858,2,0,L|304:133,1,104.499997209549,2|0,1:2|1:0,0:0:0:0:
376,194,130525,1,2,1:2:0:0:
312,262,130858,1,6,0:3:0:0:
312,262,131025,2,0,L|293:364,1,104.499997209549,2|10,1:2|0:3,0:0:0:0:
204,378,131692,1,6,0:3:0:0:
204,378,131858,6,0,B|157:298|251:305|192:221,1,156.749995814324,6|0,1:2|1:0,0:0:0:0:
171,192,132525,1,8,0:0:0:0:
101,253,132858,1,2,0:0:0:0:
101,253,133025,2,0,P|50:262|8:222,1,104.499997209549,10|8,0:0|0:0,0:0:0:0:
2,184,133525,2,0,L|25:61,1,104.499997209549,0|10,1:0|0:0,0:0:0:0:
48,43,134025,1,2,1:2:0:0:
139,22,134358,1,10,0:0:0:0:
139,22,134525,6,0,B|180:54|180:54|232:35,1,104.499997209549,4|0,1:2|0:0,0:0:0:0:
274,23,135025,1,2,1:2:0:0:
314,107,135358,2,0,L|303:178,1,52.2499986047745,2|0,0:0|1:2,0:0:0:0:
293,203,135692,2,0,P|249:175|193:185,1,104.499997209549,10|8,0:0|0:0,0:0:0:0:
161,210,136192,1,8,0:0:0:0:
150,303,136525,2,0,B|174:330|190:354|190:354|251:363|283:319,1,156.749995814324,10|4,0:0|0:3,0:0:0:0:
323,336,137192,6,0,L|336:273,1,55,6|8,1:2|0:0,0:0:0:0:
368,246,137525,2,0,P|441:250|467:296,1,110,0|8,1:0|0:0,0:0:0:0:
503,185,138192,1,0,1:0:0:0:
503,185,138358,2,0,L|489:69,1,110,8|0,0:0|1:0,0:0:0:0:
484,31,138858,1,10,0:0:0:0:
484,31,139025,1,2,1:2:0:0:
398,80,139358,1,2,1:2:0:0:
320,18,139692,1,6,0:3:0:0:
320,18,139858,6,0,P|253:31|240:72,1,110,14|0,1:2|1:0,0:0:0:0:
253,111,140358,2,0,L|133:133,1,110,8|8,0:0|0:0,0:0:0:0:
47,149,141025,2,0,B|88:221|88:221|50:310,1,165,8|8,0:0|0:3,0:0:0:0:
92,337,141692,1,0,1:0:0:0:
92,337,141858,2,0,B|174:318|174:318|218:352|218:352|308:338,1,220,8|4,0:0|0:0,0:0:0:0:
418,99,163858,6,0,P|383:57|246:44,1,187.000003566742,6|0,0:0|1:0,0:0:0:0:
131,45,165025,2,0,B|99:184|227:100|178:274,1,233.750004458428,2|2,1:2|0:0,0:0:0:0:
157,336,166192,1,2,1:2:0:0:
79,370,166525,2,0,P|30:311|51:193,1,187.000003566742,2|0,1:2|1:0,0:0:0:0:
137,125,167692,2,0,L|385:152,1,233.750004458428,2|2,1:2|0:0,0:0:0:0:
447,117,168858,1,6,0:3:0:0:
502,180,169192,6,0,B|475:237|475:237|498:284|498:284|460:367,1,187.000003566742,2|0,1:2|1:0,0:0:0:0:
344,375,170358,2,0,B|278:339|294:270|294:270|368:256|368:180,1,233.750004458428,2|2,1:2|0:0,0:0:0:0:
334,123,171525,1,2,1:2:0:0:
304,44,171858,2,0,P|233:29|177:76,2,140.250002675057,2|2|2,1:2|0:0|1:2,0:0:0:0:
334,123,173192,2,0,L|306:275,1,140.250002675057,4|4,0:3|0:3,0:0:0:0:
241,367,174192,1,6,0:3:0:0:
173,316,174525,6,0,B|125:312|100:349|100:349|41:363|-3:306,1,187.000003566742,6|0,0:3|1:0,0:0:0:0:
1,192,175692,2,0,B|4:111|84:99|84:99|136:133|192:88,1,233.750004458428,2|2,1:2|0:0,0:0:0:0:
241,48,176858,1,2,1:2:0:0:
324,60,177192,2,0,P|332:118|223:182,1,187.000003566742,6|0,0:3|1:0,0:0:0:0:
115,218,178358,2,0,B|126:366|126:366|165:325|210:320,1,233.750004458428,2|2,1:2|0:0,0:0:0:0:
277,294,179525,1,6,0:3:0:0:
343,345,179858,6,0,B|410:375|457:324|457:324|438:292|455:243,1,187.000003566742,2|4,1:2|0:3,0:0:0:0:
492,145,181025,2,0,L|244:186,1,233.750004458428,2|2,1:2|0:0,0:0:0:0:
202,122,182192,1,2,1:2:0:0:
256,192,182525,12,2,184358,1:2:0:0:
48,42,185192,6,0,P|86:89|238:84,1,208.999994419098,6|0,1:2|0:0,0:0:0:0:
397,17,186525,2,0,L|372:235,1,208.999994419098,6|0,1:2|0:0,0:0:0:0:
259,374,187858,2,0,B|284:243|174:319|211:175,1,208.999994419098,6|0,1:2|0:0,0:0:0:0:
297,76,189025,1,2,0:0:0:0:
297,76,189192,2,0,P|339:109|400:90,1,104.499997209549,4|0,1:2|0:0,0:0:0:0:
427,77,189692,1,10,0:3:0:0:
427,77,189858,2,0,L|414:196,1,104.499997209549,10|10,0:0|0:3,0:0:0:0:
462,262,190525,5,6,1:2:0:0:
302,362,191192,1,4,1:0:0:0:
157,240,191858,1,4,1:2:0:0:
228,64,192525,1,4,1:0:0:0:
366,92,193025,1,10,0:3:0:0:
366,92,193192,6,0,B|391:140|391:140|351:209,1,110,14|10,0:0|0:0,0:0:0:0:
320,214,193692,2,0,L|206:198,1,110,2|10,1:2|0:0,0:0:0:0:
173,165,194192,1,2,1:2:0:0:
173,165,194358,2,0,P|94:182|66:270,1,165,10|8,0:0|0:0,0:0:0:0:
43,299,195025,2,0,L|56:372,1,55,2|10,1:2|0:0,0:0:0:0:
258,381,195858,6,0,B|252:336|252:336|269:315|269:315|259:255,1,115.49999647522,6|0,1:2|1:2,0:0:0:0:
210,182,196525,2,0,L|343:160,1,115.49999647522,8|0,0:0|0:0,0:0:0:0:
372,181,197025,1,10,0:0:0:0:
441,103,197358,1,10,0:0:0:0:
441,103,197525,2,0,P|427:40|375:24,1,115.49999647522,2|10,1:2|0:0,0:0:0:0:
334,39,198025,1,2,1:2:0:0:
239,9,198358,1,10,0:0:0:0:
239,9,198525,6,0,L|256:134,1,115.49999647522,6|0,1:2|1:2,0:0:0:0:
208,216,199192,2,0,B|149:231|149:231|107:196,1,115.49999647522,8|0,0:0|0:0,0:0:0:0:
58,213,199692,1,10,0:0:0:0:
6,122,200025,1,10,0:0:0:0:
6,122,200192,2,0,L|20:43,1,57.7499982376099,2|2,1:2|0:0,0:0:0:0:
34,16,200525,2,0,B|100:1|82:60|161:36,1,115.49999647522,10|10,0:0|0:0,0:0:0:0:
191,22,201025,1,6,0:3:0:0:
191,22,201192,6,0,L|171:138,1,115.49999647522,6|0,1:2|1:2,0:0:0:0:
255,197,201858,2,0,P|273:255|231:308,1,115.49999647522,8|0,0:0|0:0,0:0:0:0:
204,329,202358,2,0,L|76:346,1,115.49999647522,10|10,0:0|0:0,0:0:0:0:
37,351,202858,1,2,1:2:0:0:
6,257,203192,1,10,0:0:0:0:
6,257,203358,1,2,1:2:0:0:
80,184,203692,1,10,0:0:0:0:
80,184,203858,6,0,B|120:175|120:175|148:192|148:192|200:180,1,115.49999647522,6|2,1:2|1:2,0:0:0:0:
240,181,204358,1,2,0:0:0:0:
257,78,204692,2,0,L|267:-1,1,57.7499982376099,2|2,0:0|1:2,0:0:0:0:
314,7,205025,2,0,P|379:1|419:41,1,115.49999647522,10|8,0:0|0:0,0:0:0:0:
446,72,205525,1,8,0:3:0:0:
490,166,205858,2,0,B|468:211|420:208|420:208|381:170|324:193,1,173.24999471283,10|6,0:0|0:3,0:0:0:0:
289,179,206525,6,0,L|306:309,1,115.49999647522,6|0,1:2|1:2,0:0:0:0:
361,379,207192,2,0,B|412:352|412:352|467:370,1,115.49999647522,8|0,0:0|0:0,0:0:0:0:
510,341,207692,1,10,0:0:0:0:
500,237,208025,1,10,0:0:0:0:
500,237,208192,2,0,L|485:122,1,115.49999647522,2|10,1:2|0:0,0:0:0:0:
497,71,208692,1,2,1:2:0:0:
406,18,209025,1,10,0:0:0:0:
406,18,209192,6,0,P|347:58|287:33,1,115.49999647522,6|0,1:2|1:2,0:0:0:0:
219,105,209858,2,0,L|81:86,1,115.49999647522,8|0,0:0|1:0,0:0:0:0:
62,58,210358,1,10,0:0:0:0:
8,148,210692,1,10,0:0:0:0:
8,148,210858,2,0,L|20:229,1,57.7499982376099,2|2,1:2|0:0,0:0:0:0:
8,256,211192,2,0,B|71:223|60:283|130:244,1,115.49999647522,10|10,0:0|0:0,0:0:0:0:
165,227,211692,1,6,0:3:0:0:
165,227,211858,6,0,L|185:359,1,115.49999647522,6|0,1:2|1:2,0:0:0:0:
280,374,212525,2,0,P|326:343|315:265,1,115.49999647522,8|0,0:0|0:0,0:0:0:0:
306,240,213025,1,10,0:0:0:0:
249,160,213358,1,10,0:0:0:0:
249,160,213525,1,2,1:2:0:0:
314,80,213858,1,10,0:0:0:0:
314,80,214025,2,0,L|436:96,1,115.49999647522,2|10,1:2|0:3,0:0:0:0:
467,125,214525,5,6,0:2:0:0:
256,192,214858,12,4,217192,0:0:0:0:
