osu file format v14

[General]
AudioFilename: audio.mp3
AudioLeadIn: 0
PreviewTime: 77608
Countdown: 0
SampleSet: Soft
StackLeniency: 0.7
Mode: 0
LetterboxInBreaks: 0
WidescreenStoryboard: 0

[Editor]
Bookmarks: 46510,78510,142510,163010,185176,217176
DistanceSpacing: 1.3
BeatDivisor: 8
GridSize: 4
TimelineZoom: 2

[Metadata]
Title:Vanity
TitleUnicode:Vanity
Artist:Powerless feat. kakichoco
ArtistUnicode:Powerless feat. kakichoco
Creator:Bellicose
Version:Hard
Source:
Tags:mappers' guild mpg featured artist fa dored kakiless 柿チョコ 無力P MuryokuP Comiket Odyssey Utaite japanese rock jrock full version
BeatmapID:2917451
BeatmapSetID:1411404

[Difficulty]
HPDrainRate:4.5
CircleSize:3.6
OverallDifficulty:6
ApproachRate:8
SliderMultiplier:2.8
SliderTickRate:1

[Events]
//Background and Video events
0,0,"bg.jpg",0,0
//Break Periods
2,68058,72442
2,142725,163108
//Storyboard Layer 0 (Background)
//Storyboard Layer 1 (Fail)
//Storyboard Layer 2 (Pass)
//Storyboard Layer 3 (Foreground)
//Storyboard Layer 4 (Overlay)
//Storyboard Sound Samples

[TimingPoints]
1192,666.666666666667,4,2,3,50,1,0
1192,-111.111111111111,4,2,3,50,0,0
1525,-111.111111111111,4,2,1,40,0,0
21691,-111.111111111111,4,2,1,50,0,0
22525,-111.111111111111,4,2,3,50,0,0
24858,-111.111111111111,4,2,2,60,0,0
25191,-100,4,2,1,70,0,0
46525,-105.263157894737,4,2,1,60,0,0
68191,-100,4,2,1,40,0,0
73191,-111.111111111111,4,2,1,50,0,0
74525,-111.111111111111,4,2,1,60,0,0
75858,-100,4,2,1,70,0,0
77691,-125,4,2,1,70,0,0
78525,-95.2380952380952,4,2,1,75,0,1
89191,-95.2380952380952,4,2,1,75,0,1
97192,-100,4,2,3,70,0,0
97525,-111.111111111111,4,2,1,60,0,0
99191,-100,4,2,1,70,0,0
99858,-100,4,2,1,70,0,0
118525,-95.2380952380952,4,2,1,75,0,0
120941,-100,4,2,2,75,0,0
121191,-105.263157894737,4,2,1,70,0,0
137191,-95.2380952380952,4,2,1,75,0,0
139025,-95.2380952380952,4,2,1,75,0,0
142525,-100,4,2,3,60,0,0
163025,-100,4,2,1,40,0,0
163858,-117.647058823529,4,2,3,40,0,0
183358,-105.263157894737,4,2,3,45,0,0
183525,-105.263157894737,4,2,3,50,0,0
183691,-105.263157894737,4,2,3,55,0,0
183858,-105.263157894737,4,2,3,60,0,0
184025,-105.263157894737,4,2,3,65,0,0
184191,-105.263157894737,4,2,3,70,0,0
184358,-100,4,2,3,70,0,0
185191,-105.263157894737,4,2,1,70,0,0
193191,-95.2380952380952,4,2,1,75,0,0
195191,-111.111111111111,4,2,1,75,0,0
195858,-95.2380952380952,4,2,1,75,0,1
206525,-95.2380952380952,4,2,1,75,0,1
214525,-100,4,2,3,70,0,0
214858,-100,4,2,1,60,0,0

[Colours]
Combo1 : 182,136,242
Combo2 : 140,219,253
Combo3 : 137,174,235
Combo4 : 243,184,250

[HitObjects]
97,276,1192,5,4,0:0:0:0:
4,140,1525,2,0,P|33:104|112:103,1,125.999996154785,2|2,0:0|0:0,0:0:0:0:
215,40,2108,1,0,0:0:0:0:
215,40,2192,2,0,L|199:186,1,125.999996154785,2|2,0:0|0:0,0:0:0:0:
236,239,2692,1,0,0:0:0:0:
308,196,2858,1,0,0:0:0:0:
308,196,3025,2,0,L|380:185,1,62.9999980773926,2|0,0:0|0:0,0:0:0:0:
422,123,3358,2,0,B|376:229|494:186|420:324,1,188.999994232178,2|0,0:0|0:0,0:0:0:0:
286,374,4192,6,0,L|275:284,1,62.9999980773926,2|0,0:0|0:0,0:0:0:0:
204,273,4525,2,0,P|183:213|226:159,1,125.999996154785,2|0,0:0|0:0,0:0:0:0:
297,143,5025,1,0,0:0:0:0:
297,143,5192,2,0,L|440:123,1,125.999996154785,2|0,0:0|0:0,0:0:0:0:
407,43,5692,2,0,L|264:63,2,125.999996154785,2|2|2,0:0|0:0|0:0,0:0:0:0:
495,180,6692,1,2,0:0:0:0:
495,180,6858,2,0,P|468:217|382:209,1,125.999996154785,2|0,0:0|0:0,0:0:0:0:
191,358,7692,6,0,L|212:216,1,125.999996154785,2|0,0:0|0:0,0:0:0:0:
266,174,8192,2,0,L|259:88,1,62.9999980773926,2|0,0:0|0:0,0:0:0:0:
218,40,8525,1,0,0:0:0:0:
218,40,8692,2,0,B|106:22|166:109|29:79,1,188.999994232178,2|0,0:0|0:0,0:0:0:0:
11,243,9525,6,0,P|52:203|146:204,1,125.999996154785,2|2,0:0|0:0,0:0:0:0:
197,228,10025,1,0,0:0:0:0:
197,228,10192,2,0,L|183:310,1,62.9999980773926,2|0,0:0|0:0,0:0:0:0:
117,336,10525,2,0,P|160:373|238:352,1,125.999996154785,2|0,0:0|0:0,0:0:0:0:
272,296,11025,1,2,0:0:0:0:
418,368,11358,2,0,B|379:261|482:296|425:166,1,188.999994232178,2|0,0:0|0:0,0:0:0:0:
428,25,12192,6,0,B|370:51|370:51|305:-5,2,125.999996154785,2|2|2,0:0|0:0|0:0,0:0:0:0:
500,75,13025,1,0,0:0:0:0:
500,75,13192,2,0,L|489:153,1,62.9999980773926,2|0,0:0|0:0,0:0:0:0:
484,223,13525,1,0,0:0:0:0:
484,223,13692,2,0,L|404:239,1,62.9999980773926,2|0,0:0|0:0,0:0:0:0:
383,162,14025,2,0,P|363:246|259:258,1,188.999994232178,2|0,0:0|0:0,0:0:0:0:
315,106,14858,6,0,L|231:122,1,62.9999980773926,2|0,0:0|0:0,0:0:0:0:
195,175,15192,2,0,L|213:35,1,125.999996154785,2|2,0:0|0:0,0:0:0:0:
148,5,15692,1,0,0:0:0:0:
148,5,15858,2,0,P|93:10|62:91,1,125.999996154785,2|0,0:0|0:0,0:0:0:0:
2,126,16358,2,0,L|128:103,2,125.999996154785,2|2|2,0:0|0:0|0:0,0:0:0:0:
86,272,17358,1,2,0:0:0:0:
86,272,17525,2,0,B|53:325|53:325|81:384,1,125.999996154785,2|0,0:0|0:0,0:0:0:0:
324,358,18358,6,0,L|183:382,1,125.999996154785,2|0,0:0|0:0,0:0:0:0:
173,301,18858,2,0,L|189:224,1,62.9999980773926,2|0,0:0|0:0,0:0:0:0:
229,171,19192,1,0,0:0:0:0:
229,171,19358,2,0,P|302:168|344:272,1,188.999994232178,2|0,0:0|0:0,0:0:0:0:
494,333,20192,6,0,L|480:191,1,125.999996154785,2|2,0:0|0:0,0:0:0:0:
502,128,20692,1,0,0:0:0:0:
502,128,20858,2,0,L|418:110,1,62.9999980773926,2|0,0:0|0:0,0:0:0:0:
369,155,21192,1,0,0:0:0:0:
321,88,21358,1,2,0:0:0:0:
178,6,21692,6,0,B|114:197|295:90|213:311,1,314.999990386963,2|4,0:0|0:0,0:0:0:0:
256,192,22692,12,0,24858,0:0:0:0:
418,76,25192,6,0,P|387:25|299:27,1,140,6|0,1:2|0:0,0:0:0:0:
253,88,25692,1,0,1:0:0:0:
171,47,25858,2,0,L|77:67,1,70,8|0,0:0|0:0,0:0:0:0:
22,152,26192,2,0,B|110:138|54:207|172:183,1,140,2|0,1:2|0:0,0:0:0:0:
243,173,26692,1,8,0:0:0:0:
243,173,26858,2,0,L|225:270,1,70,0|0,1:0|0:0,0:0:0:0:
169,309,27192,1,8,0:0:0:0:
169,309,27358,2,0,B|211:345|211:345|268:340|304:311,1,140,0|8,1:0|0:0,0:0:0:0:
383,372,27858,6,0,P|396:314|489:282,1,140,6|0,1:2|0:0,0:0:0:0:
506,197,28358,1,0,1:0:0:0:
447,127,28525,2,0,L|456:46,1,70,8|0,0:0|0:0,0:0:0:0:
382,191,28858,2,0,P|313:203|276:132,1,140,2|0,1:2|0:0,0:0:0:0:
318,74,29358,1,8,0:0:0:0:
318,74,29525,2,0,P|318:27|295:0,1,70,0|0,1:0|0:0,0:0:0:0:
214,5,29858,1,8,0:0:0:0:
214,5,30025,2,0,B|153:44|153:44|185:79|187:130,1,140,0|0,1:0|0:0,0:0:0:0:
256,186,30525,6,0,L|89:214,1,140,6|0,1:2|0:0,0:0:0:0:
36,167,31025,1,0,1:0:0:0:
1,250,31192,2,0,L|20:343,1,70,8|0,0:0|0:0,0:0:0:0:
95,384,31525,2,0,B|118:340|173:345|173:345|188:378|228:376,1,140,2|0,1:2|0:0,0:0:0:0:
296,357,32025,1,8,0:0:0:0:
296,357,32192,2,0,L|282:275,1,70,0|0,1:0|0:0,0:0:0:0:
205,240,32525,1,8,0:0:0:0:
205,240,32692,2,0,B|167:184|167:184|214:115,1,140,0|8,1:0|0:0,0:0:0:0:
272,38,33192,6,0,P|309:81|394:71,1,140,6|0,1:2|0:0,0:0:0:0:
468,35,33692,1,0,1:0:0:0:
512,120,33858,1,8,0:0:0:0:
512,120,34025,1,8,0:0:0:0:
431,160,34192,2,0,B|395:240|476:211|419:317,1,140,6|0,1:2|0:0,0:0:0:0:
381,370,34692,1,0,1:0:0:0:
299,330,34858,2,0,L|212:346,1,70,8|4,0:0|0:3,0:0:0:0:
148,383,35192,1,0,1:0:0:0:
92,310,35358,2,0,L|114:218,1,70,8|8,0:0|0:0,0:0:0:0:
171,176,35692,1,8,0:0:0:0:
254,244,35858,6,0,P|298:230|303:127,1,140,6|0,1:2|0:0,0:0:0:0:
392,95,36358,1,0,1:0:0:0:
349,14,36525,2,0,L|268:2,1,70,8|0,0:0|0:0,0:0:0:0:
191,83,36858,2,0,B|105:68|138:133|37:117,1,140,2|0,1:2|0:0,0:0:0:0:
7,193,37358,1,8,0:0:0:0:
7,193,37525,2,0,L|19:279,1,70,0|0,1:0|0:3,0:0:0:0:
8,353,37858,1,8,0:0:0:0:
8,353,38025,2,0,P|51:300|131:299,1,140,0|8,1:0|0:0,0:0:0:0:
198,364,38525,6,0,L|221:203,1,140,6|0,1:2|0:0,0:0:0:0:
166,150,39025,1,0,1:0:0:0:
202,67,39192,2,0,P|240:47|275:53,1,70,8|0,0:0|0:0,0:0:0:0:
366,112,39525,2,0,B|319:127|324:174|324:174|357:197|347:254,1,140,2|0,1:2|0:0,0:0:0:0:
309,307,40025,1,8,0:0:0:0:
309,307,40192,2,0,L|393:324,1,70,0|0,1:0|0:3,0:0:0:0:
460,371,40525,1,8,0:0:0:0:
460,371,40692,2,0,P|511:318|481:232,1,140,0|0,1:0|0:0,0:0:0:0:
508,150,41192,6,0,L|358:174,1,140,6|0,1:2|0:0,0:0:0:0:
307,239,41692,1,0,1:0:0:0:
227,193,41858,2,0,L|240:114,1,70,8|0,0:0|0:0,0:0:0:0:
298,31,42192,2,0,P|248:74|156:53,1,140,2|0,1:2|0:0,0:0:0:0:
97,14,42692,1,8,0:0:0:0:
97,14,42858,2,0,L|85:83,1,70,0|0,1:0|0:3,0:0:0:0:
4,176,43192,1,10,0:0:0:0:
4,176,43358,2,0,P|71:170|124:213,1,140,0|8,1:0|0:0,0:0:0:0:
206,150,43858,5,6,1:2:0:0:
284,197,44025,2,0,L|263:349,1,140,8|0,0:0|1:0,0:0:0:0:
179,366,44525,2,0,L|98:383,1,70,8|8,0:0|0:0,0:0:0:0:
28,341,44858,1,6,1:2:0:0:
58,254,45025,2,0,B|84:222|128:231|128:231|144:265|183:266,1,140,8|0,0:0|1:0,0:0:0:0:
252,203,45525,2,0,L|353:216,1,70,8|4,0:0|0:3,0:0:0:0:
392,290,45858,1,0,1:0:0:0:
482,238,46025,2,0,L|503:137,1,70,8|8,0:0|0:0,0:0:0:0:
452,81,46358,1,8,0:0:0:0:
362,128,46525,5,4,1:2:0:0:
362,128,46692,2,0,P|400:63|381:9,1,132.999996448517,0|0,1:0|1:0,0:0:0:0:
297,2,47192,2,0,L|180:21,1,99.7499973363877,10|0,0:0|0:0,0:0:0:0:
162,41,47525,2,0,L|147:118,1,66.4999982242585,2|0,0:0|0:0,0:0:0:0:
224,158,47858,1,2,0:0:0:0:
224,158,48025,2,0,B|213:208|260:239|260:239|238:247|222:270,1,132.999996448517,0|2,1:2|1:2,0:0:0:0:
189,337,48525,1,8,0:0:0:0:
122,282,48692,2,0,B|56:268|76:327|-3:313,1,132.999996448517,2|8,1:2|0:0,0:0:0:0:
11,224,49192,5,0,1:0:0:0:
11,224,49358,2,0,L|34:78,1,132.999996448517,0|0,1:0|1:0,0:0:0:0:
91,30,49858,2,0,P|134:71|209:54,1,132.999996448517,10|0,0:0|0:0,0:0:0:0:
266,1,50358,1,2,0:0:0:0:
346,31,50525,1,2,0:0:0:0:
244,171,50858,1,2,0:0:0:0:
244,171,51025,2,0,L|167:185,1,66.4999982242585,2|8,1:2|0:0,0:0:0:0:
106,230,51358,2,0,P|73:288|123:358,1,132.999996448517,2|10,1:2|0:0,0:0:0:0:
181,375,51858,6,0,B|229:362|229:362|260:378|260:378|323:364,2,132.999996448517,0|0|8,1:0|1:0|0:0,0:0:0:0:
277,232,52858,1,0,0:0:0:0:
277,232,53025,2,0,B|325:277|325:277|395:255,1,132.999996448517,10|8,0:0|0:0,0:0:0:0:
460,305,53525,2,0,P|510:265|489:180,1,132.999996448517,2|10,1:2|0:0,0:0:0:0:
424,173,54025,2,0,L|444:36,1,132.999996448517,2|8,1:2|0:0,0:0:0:0:
364,5,54525,6,0,B|283:-8|328:50|226:27,2,132.999996448517,0|0|8,1:0|1:2|0:0,0:0:0:0:
424,173,55525,1,2,0:0:0:0:
424,173,55692,1,0,1:2:0:0:
364,110,55858,2,0,L|287:125,1,66.4999982242585,2|0,0:0|1:2,0:0:0:0:
227,171,56192,1,2,0:0:0:0:
227,171,56358,2,0,L|212:260,1,66.4999982242585,2|8,1:2|0:0,0:0:0:0:
288,283,56692,1,2,1:2:0:0:
255,363,56858,2,0,L|178:378,1,66.4999982242585,8|8,0:0|0:0,0:0:0:0:
110,310,57192,6,0,P|88:355|-7:357,1,132.999996448517,6|0,1:2|1:0,0:0:0:0:
3,195,57858,2,0,L|22:81,1,99.7499973363877,10|0,0:0|0:0,0:0:0:0:
27,54,58192,2,0,L|109:38,1,66.4999982242585,2|0,0:0|0:0,0:0:0:0:
180,24,58525,1,2,0:0:0:0:
180,24,58692,2,0,B|237:64|237:64|195:54|157:77,1,132.999996448517,0|2,1:0|0:0,0:0:0:0:
114,130,59192,1,8,0:0:0:0:
160,202,59358,2,0,B|282:216|225:124|354:143,1,199.499994672775,2|0,0:0|1:0,0:0:0:0:
479,39,60192,6,0,L|396:25,2,66.4999982242585,2|0|8,1:2|0:0|0:0,0:0:0:0:
507,209,60858,2,0,L|493:126,1,66.4999982242585,2|2,0:0|0:0,0:0:0:0:
412,118,61192,2,0,P|356:155|377:234,1,132.999996448517,2|0,0:0|1:0,0:0:0:0:
424,272,61692,2,0,L|410:355,1,66.4999982242585,2|8,0:0|0:0,0:0:0:0:
339,383,62025,1,2,0:0:0:0:
170,344,62358,1,10,0:0:0:0:
170,344,62525,6,0,L|152:202,2,132.999996448517,4|0|8,1:2|1:0|0:0,0:0:0:0:
302,232,63525,1,0,0:0:0:0:
302,232,63692,2,0,L|284:90,1,132.999996448517,10|8,0:0|0:0,0:0:0:0:
250,20,64192,2,0,B|169:2|169:2|113:28,1,132.999996448517,2|10,1:2|0:0,0:0:0:0:
43,57,64692,2,0,P|55:120|124:136,1,132.999996448517,2|8,1:2|0:0,0:0:0:0:
193,102,65192,5,0,1:0:0:0:
289,245,65525,2,0,L|148:270,1,132.999996448517,2|10,1:2|0:0,0:0:0:0:
85,220,66025,1,0,0:0:0:0:
12,266,66192,2,0,L|-3:348,1,66.4999982242585,2|8,1:2|0:0,0:0:0:0:
70,382,66525,1,2,0:0:0:0:
146,333,66692,2,0,L|161:251,1,66.4999982242585,2|8,1:2|0:0,0:0:0:0:
226,213,67025,1,2,1:2:0:0:
308,263,67192,1,8,0:0:0:0:
308,263,67275,1,8,0:0:0:0:
308,263,67358,2,0,L|361:252,1,33.2499991121292,0|0,1:0|1:0,0:0:0:0:
383,261,67525,2,0,L|376:293,3,33.2499991121292,8|8|4|4,0:3|0:3|0:3|0:3,0:0:0:0:
369,336,67858,5,4,1:0:0:0:
450,361,73192,6,0,P|476:299|437:232,1,125.999996154785,0|0,1:0|1:0,0:0:0:0:
486,86,73858,2,0,L|336:113,1,125.999996154785,2|2,1:2|1:2,0:0:0:0:
231,8,74525,2,0,L|216:95,1,62.9999980773926,2|2,1:2|0:0,0:0:0:0:
282,123,74858,2,0,L|267:210,1,62.9999980773926,2|2,1:2|0:0,0:0:0:0:
256,265,75192,2,0,L|193:275,1,62.9999980773926,2|2,1:2|0:0,0:0:0:0:
120,238,75525,2,0,L|57:248,1,62.9999980773926,2|2,1:2|0:0,0:0:0:0:
0,164,75858,1,10,1:2:0:0:
51,79,76025,1,8,1:2:0:0:
256,5,77692,6,0,B|205:120|339:77|276:219,1,224,2|2,0:0|0:0,0:0:0:0:
191,250,78525,6,0,P|181:212|200:170,1,73.4999977569581,6|0,1:2|0:0,0:0:0:0:
270,302,78858,2,0,L|258:387,1,73.4999977569581,2|0,1:2|0:0,0:0:0:0:
353,263,79192,2,0,B|437:238|405:317|523:275,1,146.999995513916,8|0,0:0|0:0,0:0:0:0:
508,189,79692,2,0,L|489:37,1,146.999995513916,10|10,0:0|0:0,0:0:0:0:
403,2,80192,1,2,1:2:0:0:
331,65,80358,1,2,0:0:0:0:
252,10,80525,2,0,L|153:30,1,73.4999977569581,10|0,0:0|1:2,0:0:0:0:
121,100,80858,1,2,0:0:0:0:
215,113,81025,1,10,0:0:0:0:
155,187,81192,6,0,L|139:282,1,73.4999977569581,6|0,1:2|0:0,0:0:0:0:
125,354,81525,2,0,L|26:374,1,73.4999977569581,2|0,1:2|0:0,0:0:0:0:
5,285,81858,2,0,B|-14:239|-14:239|-9:188|41:133,1,146.999995513916,8|0,0:0|0:0,0:0:0:0:
110,232,82358,2,0,L|283:252,1,146.999995513916,10|10,0:0|0:0,0:0:0:0:
347,219,82858,1,2,1:2:0:0:
323,311,83025,1,2,0:0:0:0:
256,248,83192,2,0,L|239:156,1,73.4999977569581,10|0,0:0|1:0,0:0:0:0:
300,98,83525,1,10,0:0:0:0:
206,81,83692,1,6,0:3:0:0:
270,10,83858,6,0,L|362:-1,1,73.4999977569581,6|0,1:2|0:0,0:0:0:0:
438,8,84192,2,0,P|459:52|446:94,1,73.4999977569581,2|0,1:2|0:0,0:0:0:0:
366,183,84525,2,0,B|417:161|417:161|468:171|508:219,1,146.999995513916,8|0,0:0|0:0,0:0:0:0:
511,307,85025,2,0,P|478:350|382:335,1,146.999995513916,10|10,0:0|0:0,0:0:0:0:
330,271,85525,2,0,L|239:288,1,73.4999977569581,2|0,1:2|0:0,0:0:0:0:
191,353,85858,1,10,0:0:0:0:
99,323,86025,1,2,1:2:0:0:
165,254,86192,2,0,L|178:181,1,73.4999977569581,2|8,0:0|0:0,0:0:0:0:
158,79,86525,6,0,B|71:60|101:130|-6:105,1,146.999995513916,6|2,1:2|1:2,0:0:0:0:
5,204,87025,2,0,L|18:276,1,73.4999977569581,2|8,0:0|0:0,0:0:0:0:
8,371,87358,1,2,0:0:0:0:
96,334,87525,1,2,1:2:0:0:
181,375,87692,2,0,B|205:362|221:337|221:337|269:332|307:366,1,146.999995513916,10|8,0:0|0:0,0:0:0:0:
367,280,88192,1,8,0:3:0:0:
286,224,88358,1,2,1:2:0:0:
372,176,88525,2,0,L|380:125,3,36.749998878479,10|8|2|0,0:0|0:0|1:2|1:0,0:0:0:0:
386,92,88858,2,0,L|349:97,3,36.749998878479,10|8|6|4,0:3|0:3|0:3|0:3,0:0:0:0:
301,91,89192,6,0,L|315:-6,1,73.4999977569581,6|0,1:2|0:0,0:0:0:0:
207,103,89525,2,0,P|187:136|199:191,1,73.4999977569581,2|0,1:2|0:0,0:0:0:0:
218,281,89858,2,0,B|243:238|299:243|299:243|317:281|361:279,1,146.999995513916,10|0,0:0|0:0,0:0:0:0:
425,368,90358,2,0,L|447:188,1,146.999995513916,10|10,0:0|0:0,0:0:0:0:
509,152,90858,1,2,1:2:0:0:
462,69,91025,1,2,0:0:0:0:
392,133,91192,2,0,L|311:148,1,73.4999977569581,10|0,0:0|1:2,0:0:0:0:
225,165,91525,1,2,0:0:0:0:
257,75,91692,1,10,0:0:0:0:
162,88,91858,6,0,P|165:38|191:8,1,73.4999977569581,6|0,1:2|0:0,0:0:0:0:
225,165,92192,2,0,L|210:246,1,73.4999977569581,2|0,1:2|0:0,0:0:0:0:
187,341,92525,2,0,P|97:367|47:330,1,146.999995513916,8|0,0:0|1:0,0:0:0:0:
0,251,93025,2,0,B|10:198|10:198|45:179|45:179|58:118,1,146.999995513916,10|10,0:0|0:0,0:0:0:0:
74,32,93525,1,2,1:2:0:0:
165,6,93692,1,2,0:0:0:0:
240,64,93858,2,0,L|224:158,1,73.4999977569581,10|0,0:0|1:0,0:0:0:0:
161,205,94192,1,10,0:0:0:0:
254,223,94358,1,6,0:3:0:0:
189,293,94525,6,0,P|176:336|194:378,1,73.4999977569581,6|0,1:2|0:0,0:0:0:0:
277,377,94858,2,0,L|349:364,1,73.4999977569581,2|0,1:2|0:0,0:0:0:0:
426,268,95192,2,0,B|474:287|475:349|475:349|447:384,1,146.999995513916,8|0,0:0|0:0,0:0:0:0:
328,272,95692,2,0,L|349:108,1,146.999995513916,10|10,0:0|0:0,0:0:0:0:
379,36,96192,2,0,L|466:23,1,73.4999977569581,2|0,1:2|0:0,0:0:0:0:
506,104,96525,1,10,0:0:0:0:
438,172,96692,1,2,1:2:0:0:
346,126,96858,2,0,L|273:136,1,73.4999977569581,10|8,0:0|0:3,0:0:0:0:
208,207,97192,5,6,0:2:0:0:
256,192,97525,12,0,98858,0:0:0:0:
142,29,99192,5,8,1:2:0:0:
142,29,99358,1,8,1:2:0:0:
2,263,99858,6,0,P|42:311|127:290,1,140,6|0,1:2|0:0,0:0:0:0:
182,243,100358,1,0,1:0:0:0:
249,304,100525,2,0,L|233:388,1,70,8|0,0:0|0:0,0:0:0:0:
345,313,100858,2,0,B|369:236|300:260|327:179,1,140,2|0,1:2|0:0,0:0:0:0:
395,122,101358,1,8,0:0:0:0:
395,122,101525,2,0,L|377:38,1,70,0|0,1:0|0:0,0:0:0:0:
301,7,101858,1,8,0:0:0:0:
301,7,102025,2,0,B|214:35|214:35|238:36|260:65,1,140,0|8,1:0|0:0,0:0:0:0:
234,158,102525,6,0,B|194:188|194:188|139:193|96:159,1,140,6|0,1:2|0:0,0:0:0:0:
39,107,103025,1,0,1:0:0:0:
87,30,103192,2,0,L|176:11,1,70,8|0,0:0|0:0,0:0:0:0:
254,58,103525,2,0,B|306:45|306:45|343:62|343:62|399:48,1,140,2|0,1:2|0:0,0:0:0:0:
473,15,104025,1,8,0:0:0:0:
473,15,104192,2,0,P|480:65|456:101,1,70,0|0,1:0|0:0,0:0:0:0:
408,146,104525,1,8,0:0:0:0:
408,146,104692,2,0,L|435:300,1,140,0|0,1:0|0:0,0:0:0:0:
476,381,105192,6,0,P|433:335|338:344,1,140,6|0,1:2|0:0,0:0:0:0:
283,382,105692,1,0,1:0:0:0:
202,339,105858,2,0,L|214:254,1,70,8|0,0:0|0:0,0:0:0:0:
304,219,106192,2,0,B|340:178|314:142|314:142|283:142|267:109,1,140,2|0,1:2|0:0,0:0:0:0:
306,27,106692,1,8,0:0:0:0:
306,27,106858,2,0,L|213:10,1,70,0|0,1:0|0:0,0:0:0:0:
162,65,107192,1,8,0:0:0:0:
162,65,107358,2,0,P|76:61|29:103,1,140,0|8,1:0|0:0,0:0:0:0:
2,200,107858,6,0,B|24:201|49:211|49:211|100:208|117:158,1,140,6|0,1:2|0:0,0:0:0:0:
207,150,108358,1,0,1:0:0:0:
263,221,108525,2,0,L|250:307,1,70,8|0,0:0|0:0,0:0:0:0:
194,375,108858,2,0,B|117:336|136:405|46:365,1,140,2|0,1:2|0:0,0:0:0:0:
7,302,109358,1,8,0:0:0:0:
7,302,109525,2,0,P|5:258|27:229,1,70,0|0,1:0|0:0,0:0:0:0:
88,179,109858,1,8,0:0:0:0:
88,179,110025,2,0,L|235:197,1,140,0|0,1:0|0:0,0:0:0:0:
323,263,110525,6,0,L|305:116,1,140,6|0,1:2|0:0,0:0:0:0:
254,48,111025,1,0,1:0:0:0:
334,5,111192,2,0,L|413:17,1,70,8|0,0:0|0:0,0:0:0:0:
502,83,111525,2,0,P|456:110|448:203,1,140,2|0,1:2|0:0,0:0:0:0:
497,269,112025,1,8,0:0:0:0:
497,269,112192,2,0,P|458:291|416:281,1,70,0|0,1:0|0:3,0:0:0:0:
354,236,112525,1,8,0:0:0:0:
354,236,112692,2,0,L|336:374,1,140,0|8,1:0|0:0,0:0:0:0:
231,384,113192,6,0,B|204:301|276:333|241:232,1,140,6|0,1:2|0:0,0:0:0:0:
185,183,113692,1,0,1:0:0:0:
110,236,113858,2,0,L|26:253,1,70,8|0,0:0|0:0,0:0:0:0:
0,151,114192,2,0,B|28:136|40:103|40:103|90:97|130:131,1,140,2|0,1:2|0:0,0:0:0:0:
185,183,114692,1,8,0:0:0:0:
185,183,114858,2,0,L|269:166,1,70,0|0,1:0|0:3,0:0:0:0:
318,105,115192,1,8,0:0:0:0:
318,105,115358,2,0,L|335:21,2,70,0|8|4,1:0|0:3|0:3,0:0:0:0:
375,185,115858,5,14,0:2:0:0:
375,185,116025,2,0,P|436:159|503:204,2,140,0|8|4,1:0|0:3|0:3,0:0:0:0:
436,284,116858,1,14,0:0:0:0:
436,284,117025,2,0,B|350:281|401:339|296:332,1,140,0|8,1:0|0:3,0:0:0:0:
229,373,117525,2,0,L|144:361,1,70,0|4,1:0|0:3,0:0:0:0:
89,305,117858,1,14,0:0:0:0:
175,276,118025,1,8,0:0:0:0:
109,213,118192,2,0,L|119:161,3,35,4|4|0|0,0:3|0:3|1:0|1:0,0:0:0:0:
129,137,118525,5,14,0:0:0:0:
129,137,118608,1,8,0:0:0:0:
129,137,118692,2,0,L|169:128,1,36.749998878479,0|0,1:0|1:0,0:0:0:0:
210,145,118858,2,0,L|311:123,1,73.4999977569581,8|0,0:0|1:0,0:0:0:0:
378,176,119192,5,8,0:0:0:0:
378,176,119275,1,8,0:0:0:0:
378,176,119358,2,0,P|389:125|376:95,1,73.4999977569581,8|2,0:0|1:2,0:0:0:0:
314,26,119692,5,8,0:0:0:0:
314,26,119775,1,8,0:0:0:0:
314,26,119858,2,0,L|213:4,1,73.4999977569581,8|0,0:0|1:0,0:0:0:0:
148,54,120192,5,8,0:0:0:0:
148,54,120275,1,8,0:0:0:0:
148,54,120358,2,0,L|134:104,1,36.749998878479,0|0,1:0|1:0,0:0:0:0:
119,133,120525,2,0,L|18:111,1,73.4999977569581,8|0,0:0|1:0,0:0:0:0:
0,211,120858,2,0,L|14:261,3,36.749998878479,8|2|2|2,0:0|0:3|0:3|0:3,0:0:0:0:
8,289,121192,6,0,P|55:248|130:259,1,132.999996448517,6|0,1:2|1:0,0:0:0:0:
242,378,121858,2,0,L|260:241,1,132.999996448517,0|0,1:0|1:0,0:0:0:0:
151,110,122525,2,0,B|178:122|194:133|194:133|249:130|274:82,1,132.999996448517,2|2,1:2|1:2,0:0:0:0:
317,26,123025,2,0,L|400:41,1,66.4999982242585,2|0,0:0|1:0,0:0:0:0:
474,134,123358,2,0,L|408:122,1,66.4999982242585,2|0,0:0|1:0,0:0:0:0:
330,160,123692,1,2,0:0:0:0:
318,255,123858,6,0,B|400:276|360:207|468:246,1,132.999996448517,6|0,1:2|1:0,0:0:0:0:
505,299,124358,2,0,P|484:363|418:373,1,132.999996448517,2|2,0:2|0:0,0:0:0:0:
343,346,124858,2,0,L|261:362,1,66.4999982242585,2|2,1:2|0:0,0:0:0:0:
189,384,125192,2,0,L|209:249,1,132.999996448517,0|0,1:0|1:0,0:0:0:0:
343,143,125858,2,0,P|366:69|333:20,1,132.999996448517,0|0,1:0|1:0,0:0:0:0:
168,1,126525,6,0,B|119:11|119:11|106:42|106:42|51:58,1,132.999996448517,6|0,1:2|1:0,0:0:0:0:
6,220,127192,2,0,P|65:215|98:139,1,132.999996448517,0|0,1:0|1:0,0:0:0:0:
250,70,127858,2,0,L|234:211,1,132.999996448517,2|2,1:2|1:2,0:0:0:0:
287,270,128358,2,0,P|294:313|279:344,1,66.4999982242585,2|0,0:0|1:0,0:0:0:0:
210,375,128692,2,0,L|138:362,1,66.4999982242585,2|0,0:0|1:0,0:0:0:0:
59,383,129025,1,2,0:0:0:0:
0,313,129192,6,0,B|-17:262|-17:262|-1:213|49:205,1,132.999996448517,4|0,1:2|1:0,0:0:0:0:
144,363,129858,2,0,L|162:222,1,132.999996448517,2|0,1:2|1:0,0:0:0:0:
75,80,130525,2,0,L|162:63,1,66.4999982242585,2|8,1:2|0:0,0:0:0:0:
204,8,130858,1,6,0:3:0:0:
280,49,131025,1,2,1:2:0:0:
219,110,131192,2,0,L|226:170,3,33.2499991121292,8|8|10|8,0:3|0:3|0:3|0:3,0:0:0:0:
230,185,131525,2,0,L|263:188,3,33.2499991121292,0|0|6|4,1:0|1:0|0:3|0:3,0:0:0:0:
304,201,131858,6,0,B|356:208|381:166|381:166|443:163|465:227,1,199.499994672775,6|0,1:2|1:0,0:0:0:0:
487,307,132525,2,0,P|449:366|380:358,1,132.999996448517,8|0,0:0|0:0,0:0:0:0:
306,377,133025,2,0,L|328:229,1,132.999996448517,10|8,0:0|0:0,0:0:0:0:
291,165,133525,1,0,1:0:0:0:
384,19,133858,2,0,L|467:33,1,66.4999982242585,10|2,0:0|1:2,0:0:0:0:
512,96,134192,1,8,0:0:0:0:
512,96,134358,1,10,0:0:0:0:
470,172,134525,5,4,1:2:0:0:
398,122,134692,2,0,P|354:170|271:148,1,132.999996448517,8|2,0:0|1:2,0:0:0:0:
227,105,135192,2,0,L|132:126,1,66.4999982242585,8|0,0:0|0:0,0:0:0:0:
104,54,135525,1,2,1:2:0:0:
34,105,135692,2,0,P|-6:155|8:233,1,132.999996448517,10|8,0:0|0:0,0:0:0:0:
73,266,136192,2,0,L|52:361,1,66.4999982242585,8|4,0:0|0:3,0:0:0:0:
128,383,136525,1,10,0:0:0:0:
196,330,136692,1,0,1:0:0:0:
270,374,136858,2,0,L|284:309,1,66.4999982242585,8|4,0:0|0:3,0:0:0:0:
367,246,137192,5,6,1:2:0:0:
311,165,137358,1,8,0:0:0:0:
231,221,137525,2,0,P|163:239|102:188,1,146.999995513916,0|8,1:0|0:0,0:0:0:0:
23,29,138192,1,0,1:0:0:0:
23,29,138358,2,0,P|91:11|149:57,1,146.999995513916,8|0,0:0|1:0,0:0:0:0:
231,7,138858,1,10,0:0:0:0:
300,87,139025,1,2,1:2:0:0:
300,87,139108,1,0,1:0:0:0:
300,87,139192,2,0,L|286:155,3,36.749998878479,8|8|2|0,0:3|0:3|1:2|1:0,0:0:0:0:
256,150,139525,2,0,L|270:217,3,36.749998878479,8|8|6|4,0:3|0:3|0:3|0:3,0:0:0:0:
276,232,139858,6,0,P|231:274|250:370,1,146.999995513916,14|0,1:2|1:0,0:0:0:0:
324,315,140358,1,8,0:0:0:0:
395,378,140525,2,0,L|487:360,1,73.4999977569581,0|8,1:0|0:0,0:0:0:0:
511,279,140858,1,0,1:0:0:0:
438,226,141025,1,8,0:0:0:0:
438,226,141108,1,8,0:0:0:0:
438,226,141192,6,0,L|446:157,1,36.749998878479,8|8,0:0|0:0,0:0:0:0:
479,159,141358,2,0,P|492:126|464:67,1,73.4999977569581,8|8,0:3|0:3,0:0:0:0:
414,24,141692,1,0,1:0:0:0:
328,52,141858,1,8,0:0:0:0:
328,52,141942,1,8,0:0:0:0:
328,52,142025,2,0,L|323:88,1,36.749998878479,0|0,1:0|1:0,0:0:0:0:
319,135,142192,2,0,L|282:139,3,36.749998878479,8|8|4|4,0:3|0:3|0:3|0:3,0:0:0:0:
236,144,142525,5,4,0:0:0:0:
431,69,163858,6,0,P|388:36|312:55,2,119.000002269745,6|0|0,0:0|0:0|1:0,0:0:0:0:
480,221,164858,1,0,1:0:0:0:
480,221,165025,2,0,L|353:242,1,119.000002269745,2|4,1:2|0:3,0:0:0:0:
287,258,165525,2,0,L|266:385,1,119.000002269745,2|2,0:0|0:0,0:0:0:0:
138,290,166192,1,2,1:2:0:0:
138,290,166358,1,0,1:0:0:0:
138,290,166525,2,0,P|128:226|164:176,2,119.000002269745,2|4|0,1:2|0:3|1:0,0:0:0:0:
326,154,167692,6,0,P|354:103|343:46,1,119.000002269745,2|2,1:2|0:0,0:0:0:0:
278,3,168192,2,0,L|197:17,1,59.5000011348725,2|4,1:2|0:3,0:0:0:0:
164,68,168525,1,2,0:0:0:0:
20,124,168858,2,0,L|101:138,1,59.5000011348725,6|0,0:3|0:0,0:0:0:0:
155,146,169192,2,0,L|176:266,2,119.000002269745,2|4|0,1:2|0:3|1:0,0:0:0:0:
0,319,170358,6,0,P|46:362|105:351,1,119.000002269745,2|4,1:2|0:3,0:0:0:0:
174,342,170858,1,2,0:0:0:0:
323,382,171192,2,0,L|302:264,1,119.000002269745,2|2,0:0|1:2,0:0:0:0:
238,218,171692,1,0,1:0:0:0:
238,218,171858,6,0,P|283:184|346:197,1,119.000002269745,2|0,1:2|0:0,0:0:0:0:
405,237,172358,2,0,P|461:247|508:212,1,119.000002269745,2|4,0:0|0:3,0:0:0:0:
509,135,172858,2,0,L|495:66,2,59.5000011348725,2|0|4,1:2|0:0|0:3,0:0:0:0:
319,1,173692,2,0,B|250:-10|280:46|184:20,1,119.000002269745,4|2,0:3|0:0,0:0:0:0:
142,67,174192,2,0,L|155:126,1,59.5000011348725,6|0,0:3|0:0,0:0:0:0:
213,176,174525,6,0,P|268:160|281:93,2,119.000002269745,6|0|0,0:3|0:0|1:0,0:0:0:0:
65,213,175525,1,0,1:0:0:0:
65,213,175692,2,0,L|45:347,1,119.000002269745,2|4,1:2|0:3,0:0:0:0:
104,383,176192,2,0,L|238:363,1,119.000002269745,2|2,0:0|0:0,0:0:0:0:
310,241,176858,1,2,1:2:0:0:
310,241,177025,1,0,1:0:0:0:
310,241,177192,2,0,P|345:312|320:354,2,119.000002269745,6|4|0,0:3|0:3|1:0,0:0:0:0:
151,70,178358,6,0,L|285:50,1,119.000002269745,2|2,1:2|0:0,0:0:0:0:
328,3,178858,2,0,L|398:17,1,59.5000011348725,2|4,1:2|0:3,0:0:0:0:
460,36,179192,1,2,0:0:0:0:
508,183,179525,2,0,L|449:171,1,59.5000011348725,6|0,0:3|0:0,0:0:0:0:
372,165,179858,2,0,P|333:220|355:289,2,119.000002269745,2|4|4,1:2|0:3|0:3,0:0:0:0:
467,376,181025,6,0,L|486:232,1,119.000002269745,2|4,1:2|0:3,0:0:0:0:
508,183,181525,1,2,0:0:0:0:
466,34,181858,2,0,B|418:73|418:73|354:47,1,119.000002269745,2|2,0:0|1:2,0:0:0:0:
296,92,182358,1,0,1:0:0:0:
296,92,182525,2,0,P|248:63|173:79,2,119.000002269745,2|4|0,1:2|0:3|1:0,0:0:0:0:
349,160,183358,1,4,0:3:0:0:
349,160,183525,2,0,L|337:231,1,66.4999982242585,0|0,1:0|3:0,0:0:0:0:
292,299,183858,6,0,L|221:311,1,66.4999982242585,0|0,3:0|3:0,0:0:0:0:
167,373,184192,1,4,0:3:0:0:
78,352,184358,2,0,L|90:281,1,70,2|2,1:2|0:0,0:0:0:0:
171,241,184692,1,2,0:0:0:0:
185,151,184858,2,0,L|116:162,1,70,2|2,0:0|0:0,0:0:0:0:
28,211,185192,6,0,P|23:117|187:60,1,265.999992897034,6|0,1:2|0:0,0:0:0:0:
501,111,186525,2,0,B|355:52|404:185|220:107,1,265.999992897034,6|0,1:2|0:0,0:0:0:0:
394,384,187858,2,0,L|420:110,1,265.999992897034,6|0,1:2|0:0,0:0:0:0:
185,6,189025,1,2,0:0:0:0:
185,6,189192,5,4,1:2:0:0:
104,38,189358,2,0,P|89:62|104:117,1,66.4999982242585,10|2,0:0|0:0,0:0:0:0:
153,158,189692,1,10,0:3:0:0:
223,107,189858,1,10,0:0:0:0:
307,154,190025,1,0,1:0:0:0:
307,154,190108,1,0,1:0:0:0:
307,154,190192,2,0,L|296:206,3,33.2499991121292,10|8|6|4,0:3|0:3|0:3|0:3,0:0:0:0:
293,230,190525,5,6,1:2:0:0:
50,359,191192,1,4,1:0:0:0:
172,113,191858,1,4,1:2:0:0:
220,383,192525,1,4,1:0:0:0:
155,243,193025,1,10,0:3:0:0:
72,280,193192,5,14,0:0:0:0:
72,280,193275,1,8,0:0:0:0:
72,280,193358,2,0,L|22:271,1,36.749998878479,0|0,1:0|1:0,0:0:0:0:
3,237,193525,2,0,L|24:140,1,73.4999977569581,10|2,0:0|1:2,0:0:0:0:
36,69,193858,5,8,0:0:0:0:
36,69,193942,1,8,0:0:0:0:
36,69,194025,2,0,P|71:50|125:66,1,73.4999977569581,10|2,0:0|1:2,0:0:0:0:
178,128,194358,5,10,0:0:0:0:
178,128,194442,1,8,0:0:0:0:
178,128,194525,2,0,P|214:130|245:111,1,73.4999977569581,8|0,0:0|1:0,0:0:0:0:
348,56,194858,5,8,0:0:0:0:
348,56,194942,1,8,0:0:0:0:
348,56,195025,2,0,L|338:111,1,36.749998878479,2|0,1:2|1:0,0:0:0:0:
335,132,195192,2,0,B|465:107|465:107|429:163,1,188.999994232178,10|0,0:0|0:0,0:0:0:0:
381,234,195858,6,0,L|480:249,1,73.4999977569581,6|0,1:2|0:0,0:0:0:0:
310,305,196192,2,0,P|299:346|318:390,1,73.4999977569581,2|0,1:2|0:0,0:0:0:0:
271,212,196525,2,0,B|188:194|217:258|120:237,1,146.999995513916,8|0,0:0|0:0,0:0:0:0:
26,302,197025,2,0,L|57:140,1,146.999995513916,10|10,0:0|0:0,0:0:0:0:
147,140,197525,1,2,1:2:0:0:
84,68,197692,1,2,0:0:0:0:
177,49,197858,2,0,L|268:32,1,73.4999977569581,10|0,0:0|1:2,0:0:0:0:
342,14,198192,1,2,0:0:0:0:
312,105,198358,1,10,0:0:0:0:
405,83,198525,6,0,P|407:135|380:168,1,73.4999977569581,6|0,1:2|0:0,0:0:0:0:
312,197,198858,2,0,L|239:210,1,73.4999977569581,2|0,1:2|0:0,0:0:0:0:
175,319,199192,2,0,B|203:327|224:344|224:344|286:346|311:285,1,146.999995513916,8|0,0:0|0:0,0:0:0:0:
395,384,199692,2,0,P|395:329|480:282,1,146.999995513916,10|10,0:0|0:0,0:0:0:0:
511,196,200192,1,2,1:2:0:0:
458,116,200358,1,2,0:0:0:0:
406,196,200525,2,0,L|326:211,1,73.4999977569581,10|0,0:0|1:0,0:0:0:0:
264,143,200858,1,10,0:0:0:0:
178,186,201025,1,6,0:3:0:0:
113,116,201192,6,0,L|122:43,1,73.4999977569581,6|0,1:2|0:0,0:0:0:0:
210,3,201525,2,0,P|238:23|288:14,1,73.4999977569581,2|0,1:2|0:0,0:0:0:0:
368,93,201858,2,0,B|321:111|315:150|315:150|346:181|329:225,1,146.999995513916,8|0,0:0|0:0,0:0:0:0:
374,319,202358,2,0,L|207:292,1,146.999995513916,10|10,0:0|0:0,0:0:0:0:
134,312,202858,2,0,L|145:384,1,73.4999977569581,2|0,1:2|0:0,0:0:0:0:
228,295,203192,1,10,0:0:0:0:
171,217,203358,1,2,1:2:0:0:
266,205,203525,2,0,L|277:132,1,73.4999977569581,2|8,0:0|0:0,0:0:0:0:
250,13,203858,6,0,P|208:64|122:53,1,146.999995513916,6|2,1:2|1:2,0:0:0:0:
47,15,204358,2,0,L|35:87,1,73.4999977569581,2|8,0:0|0:0,0:0:0:0:
17,181,204692,1,2,0:0:0:0:
107,149,204858,1,2,1:2:0:0:
88,243,205025,2,0,B|172:264|137:196|229:220,1,146.999995513916,10|8,0:0|0:0,0:0:0:0:
325,184,205525,1,8,0:3:0:0:
357,280,205692,1,2,1:2:0:0:
259,319,205858,2,0,L|251:366,3,36.749998878479,10|8|2|0,0:0|0:0|1:2|1:0,0:0:0:0:
210,377,206192,2,0,L|163:385,3,36.749998878479,10|8|6|4,0:3|0:3|0:3|0:3,0:0:0:0:
125,377,206525,6,0,L|140:287,1,73.4999977569581,6|0,1:2|0:0,0:0:0:0:
75,230,206858,2,0,L|2:242,1,73.4999977569581,2|0,1:2|0:0,0:0:0:0:
124,131,207192,2,0,P|149:175|246:173,1,146.999995513916,10|0,0:0|0:0,0:0:0:0:
320,259,207692,2,0,L|342:95,1,146.999995513916,10|10,0:0|0:0,0:0:0:0:
424,68,208192,1,2,1:2:0:0:
355,1,208358,1,2,0:0:0:0:
271,48,208525,2,0,L|186:64,1,73.4999977569581,10|0,0:0|1:2,0:0:0:0:
105,41,208858,1,2,0:0:0:0:
84,134,209025,1,10,0:0:0:0:
175,160,209192,6,0,L|159:245,1,73.4999977569581,6|0,1:2|0:0,0:0:0:0:
49,318,209525,2,0,P|69:284|57:247,1,73.4999977569581,2|0,1:2|0:0,0:0:0:0:
152,356,209858,2,0,B|178:318|228:322|228:322|247:358|296:352,1,146.999995513916,8|0,0:0|1:0,0:0:0:0:
403,374,210358,2,0,P|360:326|382:248,1,146.999995513916,10|10,0:0|0:0,0:0:0:0:
472,268,210858,1,2,1:2:0:0:
489,173,211025,1,2,0:0:0:0:
396,151,211192,2,0,L|307:169,1,73.4999977569581,10|0,0:0|1:0,0:0:0:0:
269,86,211525,1,10,0:0:0:0:
317,12,211692,1,6,0:3:0:0:
412,2,211858,6,0,P|434:26|434:68,1,73.4999977569581,6|0,1:2|0:0,0:0:0:0:
396,151,212192,2,0,L|307:169,1,73.4999977569581,2|0,1:2|0:0,0:0:0:0:
235,243,212525,2,0,B|237:293|279:300|279:300|297:336|261:384,1,146.999995513916,8|0,0:0|0:0,0:0:0:0:
162,384,213025,2,0,P|121:333|40:338,1,146.999995513916,10|10,0:0|0:0,0:0:0:0:
0,250,213525,2,0,L|18:156,1,73.4999977569581,2|0,1:2|0:0,0:0:0:0:
84,113,213858,1,10,0:0:0:0:
153,178,214025,1,2,1:2:0:0:
232,125,214192,2,0,P|273:120|313:145,1,73.4999977569581,10|8,0:0|0:3,0:0:0:0:
357,205,214525,5,6,0:2:0:0:
256,192,214858,12,4,217192,0:0:0:0:
