osu file format v14

[General]
AudioFilename: audio.mp3
AudioLeadIn: 0
PreviewTime: 77608
Countdown: 0
SampleSet: Soft
StackLeniency: 0.7
Mode: 0
LetterboxInBreaks: 0
WidescreenStoryboard: 0

[Editor]
Bookmarks: 46510,78510,142510,163010,185176,217176
DistanceSpacing: 1.1
BeatDivisor: 8
GridSize: 4
TimelineZoom: 2

[Metadata]
Title:Vanity
TitleUnicode:Vanity
Artist:Powerless feat. kakichoco
ArtistUnicode:Powerless feat. kakichoco
Creator:Bellicose
Version:Easy
Source:
Tags:mappers' guild mpg featured artist fa dored kakiless 柿チョコ 無力P MuryokuP Comiket Odyssey Utaite japanese rock jrock full version
BeatmapID:2919370
BeatmapSetID:1411404

[Difficulty]
HPDrainRate:2.5
CircleSize:2.5
OverallDifficulty:3
ApproachRate:3.5
SliderMultiplier:1.8
SliderTickRate:1

[Events]
//Background and Video events
0,0,"bg.jpg",0,0
//Break Periods
2,68058,71812
2,142725,162478
//Storyboard Layer 0 (Background)
//Storyboard Layer 1 (Fail)
//Storyboard Layer 2 (Pass)
//Storyboard Layer 3 (Foreground)
//Storyboard Layer 4 (Overlay)
//Storyboard Sound Samples

[TimingPoints]
1192,666.666666666667,4,2,3,50,1,0
1192,-111.111111111111,4,2,3,50,0,0
1525,-111.111111111111,4,2,1,40,0,0
21691,-111.111111111111,4,2,1,50,0,0
22525,-111.111111111111,4,2,3,50,0,0
24858,-111.111111111111,4,2,2,60,0,0
25191,-100,4,2,1,70,0,0
46525,-105.263157894737,4,2,1,60,0,0
68191,-100,4,2,1,40,0,0
73191,-111.111111111111,4,2,1,50,0,0
74525,-111.111111111111,4,2,1,60,0,0
75858,-100,4,2,1,70,0,0
78525,-95.2380952380952,4,2,1,75,0,1
89191,-95.2380952380952,4,2,1,75,0,1
97192,-100,4,2,3,70,0,0
97525,-111.111111111111,4,2,1,60,0,0
99191,-100,4,2,1,70,0,0
99858,-100,4,2,1,70,0,0
118525,-100,4,2,1,75,0,0
120941,-100,4,2,2,75,0,0
121191,-105.263157894737,4,2,1,70,0,0
137191,-100,4,2,1,75,0,0
139025,-100,4,2,1,75,0,0
142525,-100,4,2,3,60,0,0
163025,-100,4,2,1,40,0,0
163858,-117.647058823529,4,2,3,40,0,0
183358,-100,4,2,3,45,0,0
183525,-100,4,2,3,50,0,0
183691,-100,4,2,3,55,0,0
183858,-100,4,2,3,60,0,0
184025,-100,4,2,3,65,0,0
184191,-100,4,2,3,70,0,0
184358,-100,4,2,3,70,0,0
185191,-105.263157894737,4,2,1,70,0,0
193191,-100,4,2,1,75,0,0
195191,-100,4,2,1,75,0,0
195858,-95.2380952380952,4,2,1,75,0,1
206525,-95.2380952380952,4,2,1,75,0,1
214525,-100,4,2,3,70,0,0
214858,-100,4,2,1,60,0,0

[Colours]
Combo1 : 182,136,242
Combo2 : 140,219,253
Combo3 : 137,174,235
Combo4 : 243,184,250

[HitObjects]
74,113,1192,5,4,0:0:0:0:
143,57,1525,2,0,L|318:78,1,161.999995056153,2|0,0:0|0:0,0:0:0:0:
379,28,2525,1,2,0:0:0:0:
497,90,3025,1,2,0:0:0:0:
493,178,3358,2,0,P|446:206|374:187,1,121.499996292114,2|0,0:0|0:0,0:0:0:0:
299,163,4192,6,0,L|278:335,1,161.999995056153,2|0,0:0|0:0,0:0:0:0:
207,376,5192,1,2,0:0:0:0:
77,342,5692,2,0,P|44:264|85:188,1,161.999995056153,2|2,0:0|0:0,0:0:0:0:
188,266,6858,1,2,0:0:0:0:
119,54,7692,2,0,B|45:43|78:98|-7:85,2,121.499996292114,2|0|2,0:0|0:0|0:0,0:0:0:0:
247,90,9192,5,0,0:0:0:0:
311,28,9525,2,0,L|292:194,1,161.999995056153,2|0,0:0|0:0,0:0:0:0:
339,264,10525,1,2,0:0:0:0:
248,362,11025,1,2,0:0:0:0:
167,324,11358,2,0,P|125:362|55:350,1,121.499996292114,2|0,0:0|0:0,0:0:0:0:
4,289,12192,6,0,L|25:121,1,161.999995056153,2|0,0:0|0:0,0:0:0:0:
72,53,13192,1,2,0:0:0:0:
189,116,13692,1,2,0:0:0:0:
245,46,14025,2,0,P|272:28|359:55,1,121.499996292114,2|0,0:0|0:0,0:0:0:0:
380,132,14858,6,0,B|369:185|369:185|401:218|401:218|387:285,1,161.999995056153,2|0,0:0|0:0,0:0:0:0:
371,366,15858,1,2,0:0:0:0:
237,371,16358,2,0,L|216:207,1,161.999995056153,2|2,0:0|0:0,0:0:0:0:
318,124,17525,1,2,0:0:0:0:
484,271,18358,2,0,B|513:320|513:320|477:389,2,121.499996292114,2|0|2,0:0|0:0|0:0,0:0:0:0:
411,158,19858,5,0,0:0:0:0:
470,91,20192,2,0,L|300:121,1,161.999995056153,2|2,0:0|0:0,0:0:0:0:
212,27,21358,1,2,0:0:0:0:
126,52,21692,2,0,B|87:151|199:112|143:248,1,202.499993820191,2|4,0:0|0:0,0:0:0:0:
296,61,25192,6,0,P|232:113|131:92,1,180,6|8,1:2|0:0,0:0:0:0:
58,44,26192,1,2,1:2:0:0:
3,182,26692,1,8,0:0:0:0:
84,306,27192,2,0,P|140:259|205:278,1,135,8|8,0:0|0:0,0:0:0:0:
232,304,27858,2,0,L|421:282,1,180,6|8,1:2|0:0,0:0:0:0:
496,232,28858,1,2,1:2:0:0:
449,90,29358,1,8,0:0:0:0:
312,147,29858,1,8,0:0:0:0:
160,19,30525,6,0,B|193:116|121:97|147:192,1,180,6|8,1:2|0:0,0:0:0:0:
176,287,31525,1,2,1:2:0:0:
316,239,32025,1,8,0:0:0:0:
428,336,32525,2,0,P|475:310|481:227,1,135,8|8,0:0|0:0,0:0:0:0:
456,194,33192,2,0,L|481:13,1,180,6|8,1:2|0:0,0:0:0:0:
385,42,34192,1,6,1:2:0:0:
241,80,34692,2,0,L|252:144,1,45,0|8,1:0|0:0,0:0:0:0:
264,222,35192,2,0,P|207:264|141:240,1,135,0|8,1:0|0:0,0:0:0:0:
104,227,35858,6,0,P|22:257|29:336,1,180,6|8,1:2|0:0,0:0:0:0:
119,384,36858,1,2,1:2:0:0:
257,331,37358,1,8,0:0:0:0:
215,188,37858,2,0,B|221:138|221:138|255:116|255:116|265:65,1,135,8|8,0:0|0:0,0:0:0:0:
262,22,38525,2,0,B|232:5|198:3|198:3|155:40|85:28,1,180,6|8,1:2|0:0,0:0:0:0:
9,84,39525,1,2,1:2:0:0:
96,203,40025,1,8,0:0:0:0:
40,340,40525,1,8,0:0:0:0:
234,374,41192,6,0,B|196:257|281:310|243:195,1,180,6|8,1:2|0:0,0:0:0:0:
212,109,42192,1,2,1:2:0:0:
327,15,42692,1,8,0:0:0:0:
463,73,43192,2,0,L|482:214,1,135,10|8,0:0|0:0,0:0:0:0:
492,255,43858,2,0,P|491:322|386:353,1,180,6|8,1:2|0:0,0:0:0:0:
315,301,44858,1,6,1:2:0:0:
180,362,45358,2,0,L|198:218,1,135,0|0,1:0|1:0,0:0:0:0:
270,162,46192,1,8,0:0:0:0:
338,97,46525,6,0,P|297:28|203:32,1,170.999995433807,4|10,1:2|0:0,0:0:0:0:
25,13,47858,2,0,L|40:155,1,128.249996575356,2|2,0:0|1:2,0:0:0:0:
0,226,48692,2,0,P|33:268|109:266,1,128.249996575356,2|0,1:2|1:0,0:0:0:0:
255,379,49858,1,10,0:0:0:0:
436,330,50525,2,0,L|456:191,1,128.249996575356,2|2,0:0|1:2,0:0:0:0:
410,119,51358,1,2,1:2:0:0:
318,141,51692,2,0,L|182:171,1,128.249996575356,10|2,0:0|1:2,0:0:0:0:
104,135,52525,2,0,P|96:72|136:22,1,128.249996575356,8|10,0:0|0:0,0:0:0:0:
278,0,53525,5,2,1:2:0:0:
347,62,53858,2,0,L|403:52,1,42.7499988584519,10|2,0:0|1:2,0:0:0:0:
506,133,54525,2,0,P|450:166|440:276,1,170.999995433807,0|10,1:0|0:0,0:0:0:0:
278,369,55858,2,0,B|245:340|245:340|194:341|158:368,1,128.249996575356,2|2,0:0|1:2,0:0:0:0:
72,347,56692,2,0,L|92:207,1,128.249996575356,2|6,1:2|1:2,0:0:0:0:
196,64,57858,5,10,0:0:0:0:
350,171,58525,2,0,P|398:202|472:176,1,128.249996575356,2|2,0:0|0:0,0:0:0:0:
472,91,59358,2,0,P|424:60|350:86,1,128.249996575356,2|0,0:0|1:0,0:0:0:0:
182,11,60525,1,8,0:0:0:0:
37,130,61192,2,0,L|55:261,1,128.249996575356,2|2,0:0|0:0,0:0:0:0:
30,348,62025,2,0,P|81:351|117:326,1,85.4999977169037,2|10,0:0|0:0,0:0:0:0:
143,301,62525,6,0,L|317:328,1,170.999995433807,4|8,1:2|0:0,0:0:0:0:
449,357,63692,1,10,0:0:0:0:
427,217,64192,1,2,1:2:0:0:
412,123,64525,2,0,L|355:136,1,42.7499988584519,10|2,0:0|1:2,0:0:0:0:
232,163,65192,2,0,P|195:63|244:17,1,170.999995433807,0|10,1:0|0:0,0:0:0:0:
319,51,66192,1,2,1:2:0:0:
406,15,66525,1,2,0:0:0:0:
504,115,67025,2,0,B|440:213|552:191|474:322,1,213.749994292259,2|4,1:2|1:0,0:0:0:0:
149,32,73192,6,0,P|57:41|24:105,1,161.999995056153,0|2,1:0|1:2,0:0:0:0:
157,215,74525,2,0,L|324:195,1,161.999995056153,2|2,1:2|1:2,0:0:0:0:
395,239,75525,1,2,1:2:0:0:
466,170,75858,2,0,L|474:109,1,45,10|8,1:2|1:2,0:0:0:0:
257,105,78525,6,0,L|273:1,2,94.499997116089,6|0|8,1:2|1:2|0:0,0:0:0:0:
350,229,79692,1,10,0:0:0:0:
298,319,80025,2,0,P|248:362|163:337,1,141.749995674133,10|10,0:0|0:0,0:0:0:0:
94,287,80858,1,2,0:0:0:0:
162,208,81192,2,0,L|267:190,2,94.499997116089,6|0|8,1:2|1:2|0:0,0:0:0:0:
21,140,82358,2,0,B|-8:96|-8:96|8:41|49:22,1,141.749995674133,10|2,0:0|1:2,0:0:0:0:
143,2,83192,1,10,0:0:0:0:
230,59,83525,1,10,0:0:0:0:
326,19,83858,6,0,L|437:4,2,94.499997116089,6|0|8,1:2|1:2|0:0,0:0:0:0:
250,155,85025,2,0,B|256:207|256:207|288:224|288:224|297:288,1,141.749995674133,10|2,0:0|1:2,0:0:0:0:
305,379,85858,1,10,0:0:0:0:
407,360,86192,1,2,0:0:0:0:
509,342,86525,2,0,L|488:193,1,141.749995674133,6|2,1:2|0:0,0:0:0:0:
501,98,87358,1,2,0:0:0:0:
426,25,87692,2,0,P|364:26|319:99,1,141.749995674133,10|8,0:0|0:3,0:0:0:0:
345,186,88525,2,0,B|319:227|274:217|274:217|254:191|221:184,1,141.749995674133,10|6,0:0|0:3,0:0:0:0:
182,212,89192,6,0,L|198:323,2,94.499997116089,6|0|8,1:2|1:2|0:0,0:0:0:0:
42,281,90358,1,10,0:0:0:0:
5,183,90692,2,0,B|7:95|63:139|59:41,1,141.749995674133,10|10,0:0|0:0,0:0:0:0:
150,7,91525,1,2,0:0:0:0:
234,67,91858,2,0,L|337:83,2,94.499997116089,6|0|8,1:2|1:2|0:0,0:0:0:0:
150,199,93025,2,0,L|121:342,1,141.749995674133,10|2,0:0|1:2,0:0:0:0:
215,384,93858,1,10,0:0:0:0:
304,331,94192,1,10,0:0:0:0:
307,226,94525,6,0,L|416:244,2,94.499997116089,6|0|8,1:2|1:2|0:0,0:0:0:0:
178,137,95692,2,0,P|180:45|234:19,1,141.749995674133,10|2,0:0|1:2,0:0:0:0:
317,2,96525,1,10,0:0:0:0:
398,66,96858,2,0,L|507:83,1,94.499997116089,10|6,0:0|0:2,0:0:0:0:
505,171,97525,6,0,B|304:146|433:280|204:228,1,323.999990112305,2|0,0:0|0:0,0:0:0:0:
147,308,99192,2,0,L|155:367,1,45,8|8,1:2|1:2,0:0:0:0:
303,374,99858,6,0,B|270:272|358:308|316:186,1,180,6|8,1:2|0:0,0:0:0:0:
366,114,100858,1,2,1:2:0:0:
255,14,101358,1,8,0:0:0:0:
139,107,101858,2,0,B|73:86|73:86|19:126,1,135,8|8,0:0|0:0,0:0:0:0:
0,171,102525,2,0,L|28:357,1,180,6|8,1:2|0:0,0:0:0:0:
117,309,103525,1,2,1:2:0:0:
246,381,104025,1,8,0:0:0:0:
381,320,104525,1,8,0:0:0:0:
235,186,105192,6,0,P|216:102|283:19,1,180,6|8,1:2|0:0,0:0:0:0:
361,2,106192,1,2,1:2:0:0:
501,50,106692,1,8,0:0:0:0:
451,190,107192,2,0,B|402:202|402:202|390:231|390:231|332:245,1,135,8|8,0:0|0:0,0:0:0:0:
291,225,107858,2,0,P|326:298|277:377,1,180,6|8,1:2|0:0,0:0:0:0:
194,323,108858,1,2,1:2:0:0:
58,381,109358,1,8,0:0:0:0:
18,237,109858,1,8,0:0:0:0:
211,194,110525,6,0,B|173:96|265:120|213:12,1,180,6|8,1:2|0:0,0:0:0:0:
120,1,111525,1,2,1:2:0:0:
7,97,112025,1,8,0:0:0:0:
89,220,112525,2,0,L|109:371,1,135,8|8,0:0|0:0,0:0:0:0:
152,372,113192,2,0,B|256:369|193:298|320:308,1,180,6|8,1:2|0:0,0:0:0:0:
404,339,114192,1,2,1:2:0:0:
500,226,114692,1,8,0:0:0:0:
414,104,115192,2,0,P|371:151|300:147,1,135,8|4,0:0|0:3,0:0:0:0:
255,159,115858,6,0,L|279:22,1,135,14|8,0:2|0:3,0:0:0:0:
424,0,116858,1,14,0:0:0:0:
505,124,117358,1,8,0:3:0:0:
396,225,117858,2,0,B|388:272|388:272|411:298|411:298|403:350,1,135,14|0,0:0|1:0,0:0:0:0:
359,374,118525,2,0,B|308:380|283:333|283:333|230:322|189:365,1,180,14|8,0:0|0:0,0:0:0:0:
102,354,119525,2,0,L|145:84,1,270,2|8,1:2|0:0,0:0:0:0:
312,3,121192,6,0,P|380:-6|488:141,1,256.499993150711,6|0,1:2|1:0,0:0:0:0:
469,217,122525,1,2,1:2:0:0:
329,196,123025,2,0,L|315:102,1,85.4999977169037,2|2,0:0|0:0,0:0:0:0:
195,39,123858,2,0,B|120:32|150:79|66:70,1,128.249996575356,6|2,1:2|0:2,0:0:0:0:
3,132,124692,1,2,0:0:0:0:
11,225,125025,2,0,B|26:360|26:360|43:321|88:306,1,213.749994292259,2|0,0:0|1:0,0:0:0:0:
255,380,126525,6,0,P|291:339|255:152,1,256.499993150711,6|0,1:2|1:0,0:0:0:0:
180,104,127858,1,2,1:2:0:0:
285,10,128358,1,2,0:0:0:0:
370,48,128692,2,0,L|471:34,1,85.4999977169037,2|2,0:0|0:0,0:0:0:0:
501,36,129192,2,0,B|460:129|543:116|488:210,1,170.999995433807,4|2,1:2|1:2,0:0:0:0:
416,371,130525,2,0,P|354:311|310:315,1,128.249996575356,2|2,1:2|1:2,0:0:0:0:
229,346,131358,1,10,0:3:0:0:
104,279,131858,6,0,B|67:209|118:139|118:139|221:156|236:58,1,299.249992009163,6|10,1:2|0:0,0:0:0:0:
457,2,133858,2,0,L|440:136,1,128.249996575356,10|10,0:0|0:0,0:0:0:0:
458,172,134525,2,0,P|406:217|339:203,1,128.249996575356,4|2,1:2|1:2,0:0:0:0:
271,158,135358,1,2,0:0:0:0:
206,226,135692,2,0,L|218:326,1,85.4999977169037,10|8,0:0|0:0,0:0:0:0:
82,356,136525,2,0,L|67:229,1,128.249996575356,10|4,0:0|0:3,0:0:0:0:
31,193,137192,6,0,B|258:114|178:309|425:213,1,405,6|0,1:2|1:0,0:0:0:0:
485,146,139025,1,2,1:2:0:0:
459,50,139358,1,2,1:2:0:0:
362,30,139692,1,6,0:3:0:0:
256,192,139858,12,4,142525,0:0:0:0:
169,229,163858,6,0,B|73:256|24:173|24:173|84:164|99:100,1,267.750005106926,6|2,0:0|0:0,0:0:0:0:
277,7,165858,1,2,0:0:0:0:
421,93,166525,2,0,P|415:165|242:212,1,267.750005106926,2|2,1:2|1:2,0:0:0:0:
137,41,168525,1,2,0:0:0:0:
6,146,169192,2,0,B|18:235|18:235|88:265|88:265|109:374,1,267.750005106926,2|2,1:2|1:2,0:0:0:0:
260,220,171192,1,2,0:0:0:0:
377,340,171858,2,0,B|454:315|527:341|527:341|470:273|488:225,1,267.750005106926,2|0,1:2|0:0,0:0:0:0:
495,69,173692,2,0,L|368:94,1,114.750002188683,4|6,0:3|0:3,0:0:0:0:
319,34,174525,6,0,P|246:76|255:245,1,267.750005106926,6|2,0:3|1:2,0:0:0:0:
91,377,176525,1,2,0:0:0:0:
3,233,177192,2,0,B|22:60|22:60|61:116|107:117,1,267.750005106926,6|2,0:3|1:2,0:0:0:0:
273,5,179192,1,2,0:0:0:0:
420,85,179858,2,0,B|388:150|434:206|434:206|421:293|327:281,1,267.750005106926,2|2,1:2|1:2,0:0:0:0:
131,241,181858,1,2,0:0:0:0:
256,192,182525,12,6,185192,1:2:0:0:
399,27,186525,6,0,L|220:60,1,170.999995433807,6|0,1:2|0:0,0:0:0:0:
45,24,187858,2,0,L|73:209,1,170.999995433807,6|0,1:2|0:0,0:0:0:0:
49,380,189192,2,0,B|119:332|119:332|215:360,1,170.999995433807,4|10,1:2|0:0,0:0:0:0:
288,319,190192,1,10,0:3:0:0:
359,380,190525,2,0,L|335:202,1,170.999995433807,6|4,1:2|1:0,0:0:0:0:
287,28,191858,2,0,P|350:77|442:69,1,170.999995433807,4|4,1:2|1:0,0:0:0:0:
500,258,193192,5,14,0:0:0:0:
403,370,193692,2,0,L|254:350,1,135,2|2,1:2|1:2,0:0:0:0:
222,368,194358,2,0,B|197:229|302:300|275:150,1,225,10|10,0:0|0:0,0:0:0:0:
114,32,195858,6,0,L|4:51,2,94.499997116089,6|0|8,1:2|1:2|0:0,0:0:0:0:
181,173,197025,1,10,0:0:0:0:
79,192,197358,2,0,P|40:239|50:324,1,141.749995674133,10|10,0:0|0:0,0:0:0:0:
126,381,198192,1,2,0:0:0:0:
220,337,198525,2,0,L|335:356,2,94.499997116089,6|0|8,1:2|1:2|0:0,0:0:0:0:
198,182,199692,2,0,B|277:157|254:220|344:197,1,141.749995674133,10|2,0:0|1:2,0:0:0:0:
430,161,200525,1,10,0:0:0:0:
424,57,200858,1,10,0:0:0:0:
327,18,201192,6,0,P|283:17|243:44,2,94.499997116089,6|0|8,1:2|1:2|0:0,0:0:0:0:
401,155,202358,2,0,L|418:301,1,141.749995674133,10|2,0:0|1:2,0:0:0:0:
343,369,203192,1,10,0:0:0:0:
254,314,203525,1,2,0:0:0:0:
162,362,203858,2,0,P|93:375|34:314,1,141.749995674133,6|2,1:2|0:0,0:0:0:0:
10,232,204692,1,2,0:0:0:0:
54,137,205025,2,0,L|215:161,1,141.749995674133,10|8,0:0|0:3,0:0:0:0:
272,226,205858,2,0,B|311:164|311:164|284:95,1,141.749995674133,10|6,0:0|0:3,0:0:0:0:
265,52,206525,6,0,P|328:51|355:27,2,94.499997116089,6|0|8,1:2|1:2|0:0,0:0:0:0:
117,0,207692,1,10,0:0:0:0:
30,57,208025,2,0,L|6:212,1,141.749995674133,10|10,0:0|0:0,0:0:0:0:
52,291,208858,1,2,0:0:0:0:
144,243,209192,2,0,L|163:132,2,94.499997116089,6|0|8,1:2|1:2|0:0,0:0:0:0:
253,354,210358,2,0,P|295:306|386:312,1,141.749995674133,10|2,0:0|1:2,0:0:0:0:
452,365,211192,1,10,0:0:0:0:
464,261,211525,1,10,0:0:0:0:
379,200,211858,6,0,L|393:92,2,94.499997116089,6|0|8,1:2|1:2|0:0,0:0:0:0:
250,288,213025,2,0,B|165:278|209:336|114:324,1,141.749995674133,10|2,0:0|1:2,0:0:0:0:
32,268,213858,1,10,0:0:0:0:
51,165,214192,1,2,0:0:0:0:
146,137,214525,1,6,0:2:0:0:
256,192,214858,12,4,217192,0:0:0:0:
