osu file format v14

[General]
AudioFilename: audio.mp3
AudioLeadIn: 0
PreviewTime: 162946
Countdown: 0
SampleSet: Soft
StackLeniency: 0.7
Mode: 0
LetterboxInBreaks: 0
WidescreenStoryboard: 1

[Editor]
Bookmarks: 1341,21551,39235,49341,74604,84709,94814,112498,122604,132709,152919,163025,170604,188288,198393
DistanceSpacing: 1
BeatDivisor: 4
GridSize: 16
TimelineZoom: 1.9

[Metadata]
Title:Aspirin
TitleUnicode:Aspirin
Artist:Powerless feat. kakichoco
ArtistUnicode:Powerless feat. kakichoco
Creator:Some Hero
Version:Normal
Source:
Tags:Agatsu Lasse NexusQI Odyssey kakiless 柿チョコ MuryokuP 無力P utaite vocaloid cover collaboration japanese rock j-rock jrock C90 Comiket
BeatmapID:3171937
BeatmapSetID:1550470

[Difficulty]
HPDrainRate:3
CircleSize:3.4
OverallDifficulty:4
ApproachRate:5
SliderMultiplier:1
SliderTickRate:1

[Events]
//Background and Video events
0,0,"ASPIRIN.jpg",0,0
//Break Periods
2,69751,73404
2,112856,120772
2,153119,161825
//Storyboard Layer 0 (Background)
//Storyboard Layer 1 (Fail)
//Storyboard Layer 2 (Pass)
//Storyboard Layer 3 (Foreground)
//Storyboard Layer 4 (Overlay)
//Storyboard Sound Samples

[TimingPoints]
1341,315.789473684211,4,2,1,90,1,0
1656,-100,4,2,2,50,0,0
3709,-100,4,2,4,50,0,0
3788,-100,4,2,2,50,0,0
4972,-100,4,2,4,50,0,0
5051,-100,4,2,2,50,0,0
6393,-100,4,2,4,50,0,0
6472,-100,4,2,2,50,0,0
8762,-100,4,2,4,50,0,0
8841,-100,4,2,2,50,0,0
10025,-100,4,2,4,50,0,0
10104,-100,4,2,2,50,0,0
11446,-100,4,2,1,90,0,0
11604,-100,4,2,2,50,0,0
13814,-100,4,2,4,50,0,0
13893,-100,4,2,2,50,0,0
15077,-100,4,2,4,50,0,0
15156,-100,4,2,2,50,0,0
16498,-100,4,2,4,50,0,0
16577,-100,4,2,2,50,0,0
18867,-100,4,2,4,50,0,0
18946,-100,4,2,2,50,0,0
20130,-100,4,2,4,50,0,0
20209,-100,4,2,2,50,0,0
21551,-111.111111111111,4,2,1,90,0,0
21867,-111.111111111111,4,2,2,50,0,0
39235,-100,4,2,3,70,0,0
49341,-100,4,2,4,70,0,0
49419,-100,4,2,3,70,0,0
59446,-100,4,2,4,70,0,0
59604,-100,4,2,3,70,0,0
69551,-100,4,2,1,90,0,0
74604,-111.111111111111,4,2,1,90,0,0
74762,-111.111111111111,4,2,1,70,0,0
74919,-111.111111111111,4,2,3,70,0,0
84709,-100,4,2,5,80,0,0
84788,-100,4,2,3,80,0,0
85025,-100,4,2,5,80,0,0
85104,-100,4,2,3,80,0,0
85341,-100,4,2,5,80,0,0
85420,-100,4,2,3,80,0,0
85656,-100,4,2,5,80,0,0
85735,-100,4,2,3,80,0,0
85972,-100,4,2,5,80,0,0
86051,-100,4,2,3,80,0,0
86288,-100,4,2,5,80,0,0
86367,-100,4,2,3,80,0,0
86604,-100,4,2,5,80,0,0
86683,-100,4,2,3,80,0,0
86919,-100,4,2,5,80,0,0
86998,-100,4,2,3,80,0,0
87235,-100,4,2,5,80,0,0
87314,-100,4,2,3,80,0,0
87551,-100,4,2,5,80,0,0
87630,-100,4,2,3,80,0,0
87867,-100,4,2,5,80,0,0
87946,-100,4,2,3,80,0,0
88183,-100,4,2,5,80,0,0
88262,-100,4,2,3,80,0,0
88498,-100,4,2,5,80,0,0
88577,-100,4,2,3,80,0,0
88814,-100,4,2,5,80,0,0
88893,-100,4,2,3,80,0,0
89762,-100,4,2,5,80,0,0
89841,-100,4,2,3,80,0,0
90077,-100,4,2,5,80,0,0
90156,-100,4,2,3,80,0,0
90393,-100,4,2,5,80,0,0
90472,-100,4,2,3,80,0,0
90709,-100,4,2,5,80,0,0
90788,-100,4,2,3,80,0,0
91025,-100,4,2,5,80,0,0
91104,-100,4,2,3,80,0,0
91341,-100,4,2,5,80,0,0
91420,-100,4,2,3,80,0,0
91656,-100,4,2,5,80,0,0
91735,-100,4,2,3,80,0,0
91972,-100,4,2,5,80,0,0
92051,-100,4,2,3,80,0,0
92288,-100,4,2,5,80,0,0
92367,-100,4,2,3,80,0,0
92604,-100,4,2,5,80,0,0
92683,-100,4,2,3,80,0,0
94814,-90.9090909090909,4,2,3,90,0,1
102393,-100,4,2,3,90,0,0
104919,-90.9090909090909,4,2,3,90,0,1
112498,-100,4,2,3,60,0,0
117709,-100,4,2,2,60,0,0
117867,-100,4,2,3,60,0,0
118656,-100,4,2,2,60,0,0
118814,-100,4,2,3,60,0,0
120077,-100,4,2,3,70,0,0
120235,-100,4,2,2,70,0,0
120393,-100,4,2,3,70,0,0
132709,-90.9090909090909,4,2,3,80,0,1
133972,-90.9090909090909,4,2,3,80,0,0
140288,-100,4,2,3,80,0,0
142814,-90.9090909090909,4,2,3,80,0,0
152919,-111.111111111111,4,2,1,90,0,0
153077,-111.111111111111,4,2,2,50,0,0
163025,-111.111111111111,4,2,1,50,0,0
163972,-111.111111111111,4,2,2,50,0,0
164130,-111.111111111111,4,2,1,50,0,0
164288,-111.111111111111,4,2,2,50,0,0
164604,-111.111111111111,4,2,1,50,0,0
164683,-111.111111111111,4,2,3,50,0,0
164919,-111.111111111111,4,2,1,50,0,0
165235,-111.111111111111,4,2,4,50,0,0
165314,-111.111111111111,4,2,1,50,0,0
167288,-111.111111111111,4,2,3,50,0,0
167446,-111.111111111111,4,2,1,50,0,0
167762,-111.111111111111,4,2,4,50,0,0
167841,-111.111111111111,4,2,1,50,0,0
169183,-111.111111111111,4,2,2,50,0,0
170604,-90.9090909090909,4,2,3,90,0,1
178183,-100,4,2,3,90,0,0
180709,-90.9090909090909,4,2,3,90,0,1
188288,-100,4,2,4,80,0,0
188446,-100,4,2,3,80,0,0
198393,-100,4,2,1,90,0,0

[Colours]
Combo1 : 247,140,140
Combo2 : 210,150,243
Combo3 : 192,249,151
Combo4 : 164,196,249

[HitObjects]
48,336,1341,5,4,3:3:0:0:
48,336,3709,1,2,0:2:0:0:
48,336,4972,1,2,0:2:0:0:
422,86,6393,5,2,0:2:0:0:
422,86,8762,1,2,0:2:0:0:
422,86,10025,1,2,0:2:0:0:
3,251,11446,5,4,3:3:0:0:
3,251,13814,1,2,0:2:0:0:
3,251,15077,1,2,0:2:0:0:
447,178,16498,5,2,0:2:0:0:
447,178,18867,1,2,0:2:0:0:
447,178,20130,1,2,0:2:0:0:
256,192,20288,12,4,21551,1:3:0:0:
76,71,22183,5,10,0:2:0:0:
76,71,22341,2,0,P|118:81|142:118,2,89.9999972534181,2|2|2,0:2|1:2|0:2,0:0:0:0:
12,134,23288,2,0,L|18:178,1,44.999998626709,2|8,0:2|0:2,0:0:0:0:
54,204,23604,1,2,0:2:0:0:
123,260,23919,2,0,P|191:253|255:234,1,134.999995880127,2|2,1:2|1:2,0:0:0:0:
293,152,24709,1,8,0:2:0:0:
393,240,25183,2,0,P|381:284|377:329,2,89.9999972534181,2|2|10,1:2|1:2|0:2,0:0:0:0:
461,182,26130,1,2,0:2:0:0:
427,98,26446,5,2,3:2:0:0:
427,98,26604,2,0,L|338:83,1,89.9999972534181,6|0,1:2|1:2,0:0:0:0:
275,19,27235,1,10,0:2:0:0:
275,19,27393,1,2,0:2:0:0:
183,18,27709,2,0,P|159:55|157:99,1,89.9999972534181,2|2,1:2|0:2,0:0:0:0:
102,171,28341,2,0,P|108:192|113:214,1,44.999998626709,2|8,3:2|0:2,0:0:0:0:
151,238,28656,2,0,B|219:231|223:257|284:247,2,134.999995880127,2|2|2,0:2|0:2|0:2,0:0:0:0:
55,333,30077,1,2,0:2:0:0:
477,177,31656,6,0,P|473:132|463:88,1,89.9999972534181,6|0,1:2|1:2,0:0:0:0:
376,62,32288,1,10,0:2:0:0:
376,62,32446,1,2,0:2:0:0:
285,74,32762,2,0,P|270:115|277:159,2,89.9999972534181,2|2|2,1:2|0:2|0:2,0:0:0:0:
222,9,33709,1,2,0:2:0:0:
134,30,34025,6,0,P|145:96|150:163,1,134.999995880127,2|2,1:2|1:2,0:0:0:0:
205,234,34814,1,8,0:2:0:0:
318,305,35288,2,0,P|360:288|393:258,2,89.9999972534181,2|2|10,1:2|1:2|0:2,0:0:0:0:
260,373,36235,1,2,0:2:0:0:
177,337,36551,1,2,3:2:0:0:
177,337,36709,2,0,L|93:302,1,89.9999972534181,6|0,1:2|1:2,0:0:0:0:
81,217,37341,1,10,0:2:0:0:
81,217,37498,1,2,0:2:0:0:
256,192,37814,12,4,39235,3:2:0:0:
140,96,39867,6,0,P|189:100|237:88,1,100,2|2,1:2|0:2,0:0:0:0:
276,120,40341,2,0,L|271:219,1,100,2|2,3:2|3:2,0:0:0:0:
344,284,40972,1,2,3:2:0:0:
344,284,41130,2,0,L|393:278,2,50,2|2|2,1:2|3:2|0:2,0:0:0:0:
308,321,41604,5,6,3:2:0:0:
207,333,41919,2,0,P|158:324|114:301,1,100,2|2,3:2|3:2,0:0:0:0:
65,310,42393,1,2,1:2:0:0:
23,224,42709,1,2,0:2:0:0:
23,224,42867,2,0,P|24:174|19:124,1,100,2|2,3:2|3:2,0:0:0:0:
120,125,43498,2,0,L|128:174,2,50,2|2|2,3:2|1:2|3:2,0:0:0:0:
146,83,43972,5,2,1:2:0:0:
146,83,44130,1,6,3:2:0:0:
225,21,44446,2,0,P|274:27|324:29,1,100,2|2,3:2|3:2,0:0:0:0:
353,72,44919,1,2,1:2:0:0:
353,72,45077,1,2,3:2:0:0:
421,149,45393,2,0,L|424:248,1,100,2|2,3:2|3:2,0:0:0:0:
330,273,46025,1,2,3:2:0:0:
330,273,46183,2,0,L|326:223,2,50,2|2|2,1:2|3:2|0:2,0:0:0:0:
304,315,46656,5,6,3:2:0:0:
393,358,46972,2,0,P|436:335|463:294,1,100,2|2,3:2|3:2,0:0:0:0:
456,249,47446,1,6,1:2:0:0:
456,249,47604,1,2,3:2:0:0:
505,161,47919,2,0,P|495:113|481:64,1,100,2|2,3:2|3:2,0:0:0:0:
400,14,48551,1,2,3:2:0:0:
400,14,48709,2,0,L|351:24,1,50,2|2,1:3|3:3,0:0:0:0:
325,67,49025,1,2,1:3:0:0:
238,28,49341,5,6,3:2:0:0:
238,28,49498,1,2,3:2:0:0:
166,94,49814,1,2,3:2:0:0:
166,94,49972,2,0,P|118:106|91:147,1,100,2|2,1:2|3:2,0:0:0:0:
121,188,50446,5,2,1:2:0:0:
202,254,50762,1,2,3:2:0:0:
202,254,50919,1,2,1:2:0:0:
163,350,51235,1,2,3:2:0:0:
163,350,51393,2,0,P|115:339|65:332,1,100,2|2,3:2|1:2,0:0:0:0:
36,297,51867,5,4,3:2:0:0:
36,297,52025,1,2,3:2:0:0:
69,196,52341,2,0,P|92:205|115:212,2,50,2|2|2,3:2|1:2|0:2,0:0:0:0:
16,205,52814,1,2,3:2:0:0:
16,205,52972,1,2,3:2:0:0:
12,104,53288,1,2,3:2:0:0:
12,104,53446,2,0,P|60:93|109:80,1,100,2|2,3:2|1:2,0:0:0:0:
176,8,54077,5,2,1:2:0:0:
176,8,54235,2,0,L|225:14,2,50,2|4|2,3:2|3:2|3:2,0:0:0:0:
109,79,54867,1,0,3:2:0:0:
109,79,55025,2,0,P|122:127|131:176,1,100,2|0,1:2|3:2,0:0:0:0:
176,198,55498,5,2,3:2:0:0:
276,226,55814,1,2,3:2:0:0:
276,226,55972,1,2,1:2:0:0:
340,149,56288,2,0,P|336:124|330:99,2,50,2|2|2,3:2|3:2|1:2,0:0:0:0:
391,168,56762,5,2,3:2:0:0:
391,168,56919,2,0,P|395:192|398:217,1,50,4|2,3:2|3:2,0:0:0:0:
366,311,57393,1,2,3:2:0:0:
366,311,57551,2,0,P|341:309|316:307,2,50,0|2|2,1:2|3:2|0:2,0:0:0:0:
402,346,58025,1,2,3:2:0:0:
479,282,58341,1,2,3:2:0:0:
479,282,58498,2,0,P|469:232|454:185,1,100,2|6,1:2|0:3,0:0:0:0:
473,86,59130,1,2,1:3:0:0:
385,38,59446,5,6,3:2:0:0:
385,38,59604,1,2,3:2:0:0:
291,72,59919,1,2,3:2:0:0:
291,72,60077,2,0,P|241:71|192:59,1,100,2|2,1:2|3:2,0:0:0:0:
154,92,60551,2,0,P|125:131|133:180,1,100,2|2,1:2|3:2,0:0:0:0:
178,202,61025,1,2,1:2:0:0:
232,292,61341,1,2,3:2:0:0:
232,292,61498,1,2,3:2:0:0:
162,363,61814,6,0,P|138:355|115:344,2,50,2|6|2,1:2|3:2|3:2,0:0:0:0:
261,378,62446,1,2,3:2:0:0:
261,378,62604,2,0,L|359:362,1,100,2|2,1:2|3:2,0:0:0:0:
388,321,63077,1,2,3:2:0:0:
435,232,63393,1,2,3:2:0:0:
435,232,63551,1,2,3:2:0:0:
382,146,63867,2,0,P|333:134|285:120,1,100,2|2,1:2|1:2,0:0:0:0:
241,146,64341,5,2,3:2:0:0:
241,146,64498,1,2,3:3:0:0:
123,307,65130,1,6,1:2:0:0:
123,307,65288,2,0,P|74:297|28:276,2,100,2|2|2,3:2|3:2|3:2,0:0:0:0:
143,352,66077,1,2,1:2:0:0:
242,359,66393,2,0,P|266:354|291:350,1,50,2|2,1:2|3:2,0:0:0:0:
326,315,66709,2,0,P|350:320|375:324,1,50,2|10,1:2|0:3,0:0:0:0:
417,360,67025,5,4,3:2:0:0:
417,360,67183,1,2,3:2:0:0:
256,192,67341,12,4,69551,3:2:0:0:
435,134,74604,6,0,P|435:89|409:53,1,89.9999972534181,4|10,3:3|0:2,0:0:0:0:
323,77,75235,1,2,3:2:0:0:
323,77,75393,2,0,L|321:128,2,44.999998626709,2|8|2,3:2|0:2|3:2,0:0:0:0:
236,51,76025,2,0,L|234:0,2,44.999998626709,2|10|2,3:2|0:2|3:2,0:0:0:0:
165,106,76656,2,0,L|163:157,1,44.999998626709,2|8,3:2|0:2,0:0:0:0:
134,185,76972,5,2,3:2:0:0:
51,212,77288,1,2,3:2:0:0:
51,212,77446,2,0,P|20:242|22:286,1,89.9999972534181,10|2,0:2|3:2,0:0:0:0:
40,326,77919,2,0,P|62:332|84:339,1,44.999998626709,2|8,3:2|0:2,0:0:0:0:
120,366,78235,1,2,3:2:0:0:
178,297,78551,2,0,P|199:291|221:284,1,44.999998626709,2|8,3:2|0:2,0:0:0:0:
262,304,78867,1,2,3:2:0:0:
350,312,79183,2,0,L|352:363,2,44.999998626709,2|0|8,3:2|3:2|0:2,0:0:0:0:
380,278,79656,5,6,3:2:0:0:
422,199,79972,2,0,P|417:154|405:110,1,89.9999972534181,10|2,0:2|3:2,0:0:0:0:
361,95,80446,2,0,P|353:75|349:53,1,44.999998626709,2|8,3:2|0:2,0:0:0:0:
309,30,80762,1,2,3:2:0:0:
223,57,81077,1,0,3:2:0:0:
223,57,81235,2,0,L|178:50,1,44.999998626709,10|2,0:2|0:2,0:0:0:0:
140,75,81551,1,2,3:2:0:0:
140,75,81709,2,0,L|95:81,1,44.999998626709,2|8,3:2|0:2,0:0:0:0:
63,113,82025,5,2,3:2:0:0:
85,245,82498,2,0,P|104:255|124:267,1,44.999998626709,10|2,0:2|0:2,0:0:0:0:
152,305,82814,1,2,3:2:0:0:
152,305,82972,2,0,P|174:303|196:301,1,44.999998626709,2|8,3:2|0:2,0:0:0:0:
235,330,83288,5,2,3:2:0:0:
285,255,83604,2,0,L|277:210,1,44.999998626709,2|8,3:2|0:2,0:0:0:0:
302,173,83919,1,2,3:2:0:0:
302,173,84077,1,2,1:3:0:0:
364,107,84393,2,0,P|405:126|448:141,2,89.9999972534181,2|6|10,1:3|3:2|0:2,0:0:0:0:
300,31,85341,5,2,3:2:0:0:
300,31,85498,2,0,L|250:40,1,50,2|8,3:2|0:2,0:0:0:0:
224,83,85814,2,0,L|124:78,1,100,2|2,3:2|3:2,0:0:0:0:
88,113,86288,1,10,0:2:0:0:
45,205,86604,1,2,3:2:0:0:
45,205,86762,2,0,L|57:253,1,50,2|8,3:2|0:2,0:0:0:0:
93,288,87077,5,2,3:2:0:0:
189,260,87393,2,0,P|190:236|194:211,2,50,2|10|2,3:2|0:2|0:2,0:0:0:0:
214,304,87867,1,2,3:2:0:0:
214,304,88025,2,0,L|223:353,1,50,2|8,3:2|0:2,0:0:0:0:
265,379,88341,5,2,3:2:0:0:
359,348,88656,1,2,3:2:0:0:
359,348,88814,1,12,0:2:0:0:
413,263,89130,2,0,B|426:164|350:180|367:74,1,200,0|6,1:2|3:2,0:0:0:0:
459,36,90077,6,0,P|470:59|484:80,1,50,10|2,0:2|0:2,0:0:0:0:
468,128,90393,1,2,3:2:0:0:
468,128,90551,1,2,3:2:0:0:
385,185,90867,2,0,P|335:187|285:193,1,100,2|2,3:2|3:2,0:0:0:0:
249,157,91341,1,10,0:2:0:0:
169,96,91656,1,10,0:2:0:0:
101,169,91972,5,8,0:2:0:0:
101,169,92130,2,0,B|84:238|130:247|128:313,1,150,2|8,3:2|0:2,0:0:0:0:
212,367,92919,1,14,0:2:0:0:
305,331,93235,1,4,1:2:0:0:
302,230,93551,1,4,1:2:0:0:
256,192,93709,12,4,94814,3:1:0:0:
409,45,95446,5,2,3:2:0:0:
409,45,95604,2,0,L|414:99,1,55.0000016784668,2|0,3:2|1:2,0:0:0:0:
454,137,95919,2,0,P|445:191|442:246,2,110.000003356934,6|2|2,3:2|3:2|0:2,0:0:0:0:
346,110,96867,2,0,P|321:122|294:130,1,55.0000016784668,2|0,3:2|1:2,0:0:0:0:
266,178,97183,5,6,3:2:0:0:
174,239,97498,1,2,3:2:0:0:
174,239,97656,1,2,1:2:0:0:
82,177,97972,2,0,P|78:149|72:122,2,55.0000016784668,2|2|2,1:2|3:2|1:2,0:0:0:0:
46,219,98446,5,6,3:2:0:0:
52,328,98762,2,0,P|93:364|155:373,2,110.000003356934,2|2|2,3:2|0:2|0:2,0:0:0:0:
142,263,99709,1,4,1:3:0:0:
142,263,99867,2,0,B|251:268|226:334|343:339,1,220.000006713867,6|2,3:2|3:2,0:0:0:0:
373,294,100656,2,0,P|375:266|380:239,1,55.0000016784668,2|0,3:2|1:2,0:0:0:0:
344,197,100972,5,6,3:2:0:0:
282,105,101288,1,2,3:2:0:0:
367,35,101604,1,2,0:2:0:0:
455,98,101919,2,0,P|467:152|463:207,1,110.000003356934,2|4,3:2|0:3,0:0:0:0:
475,260,102393,5,6,0:2:0:0:
475,260,102551,1,0,3:2:0:0:
440,353,102867,2,0,L|391:362,1,50,2|4,3:2|1:2,0:0:0:0:
353,328,103183,2,0,B|297:334|305:316|254:318,1,100,0|4,3:2|3:2,0:0:0:0:
172,373,103814,5,0,3:2:0:0:
172,373,103972,1,2,1:3:0:0:
72,382,104288,1,6,1:2:0:0:
59,282,104604,1,2,1:2:0:0:
168,269,104919,6,0,B|186:166|113:158|137:55,1,220.000006713867,6|2,3:2|3:2,0:0:0:0:
179,20,105709,2,0,P|203:31|229:40,1,55.0000016784668,2|0,3:2|1:2,0:0:0:0:
250,91,106025,1,6,3:2:0:0:
303,185,106341,2,0,P|331:190|357:197,1,55.0000016784668,2|0,3:2|1:2,0:0:0:0:
389,241,106656,1,2,0:2:0:0:
457,155,106972,2,0,L|458:100,1,55.0000016784668,2|0,3:2|1:2,0:0:0:0:
428,52,107288,6,0,P|387:18|335:30,1,110.000003356934,6|2,3:2|3:2,0:0:0:0:
282,12,107762,1,2,1:2:0:0:
175,36,108077,1,2,1:2:0:0:
157,147,108393,1,2,1:2:0:0:
157,147,108551,2,0,P|169:200|175:255,2,110.000003356934,6|2|2,3:2|3:2|0:2,0:0:0:0:
47,159,109498,2,0,P|50:104|58:49,1,110.000003356934,2|8,0:2|0:3,0:0:0:0:
103,17,109972,5,6,3:2:0:0:
103,17,110130,1,0,3:2:0:0:
247,107,110604,1,6,1:2:0:0:
247,107,110762,2,0,B|301:116|306:86|354:91,2,110.000003356934,2|6|2,3:2|3:2|3:2,0:0:0:0:
218,59,111551,1,0,1:2:0:0:
312,3,111867,1,4,1:2:0:0:
419,24,112183,1,2,1:3:0:0:
468,116,112498,5,6,3:2:0:0:
468,116,112656,1,2,0:2:0:0:
84,320,121972,6,0,P|78:248|133:201,1,150,0|2,3:2|1:3,0:0:0:0:
179,223,122604,1,6,3:2:0:0:
179,223,122762,1,2,3:2:0:0:
255,287,123077,1,0,3:2:0:0:
255,287,123235,2,0,L|304:277,2,50,2|2|2,1:2|3:2|0:2,0:0:0:0:
232,332,123709,5,2,3:1:0:0:
327,362,124025,1,2,3:2:0:0:
327,362,124183,2,0,L|376:369,1,50,2|2,0:2|3:2,0:0:0:0:
418,341,124498,1,2,1:2:0:0:
476,259,124814,2,0,P|471:234|468:209,1,50,8|8,0:3|0:3,0:0:0:0:
435,172,125130,5,6,3:2:0:0:
435,172,125288,1,2,3:2:0:0:
362,103,125604,1,2,3:2:0:0:
362,103,125762,2,0,L|312:112,2,50,2|2|2,1:2|3:2|0:2,0:0:0:0:
373,54,126235,6,2,P|350:11|303:1,1,100,2|2,3:1|3:2,0:1:0:0:
267,37,126709,1,2,0:2:0:0:
167,28,127025,1,2,1:2:0:0:
122,117,127341,1,6,1:2:0:0:
191,188,127656,5,6,3:2:0:0:
191,188,127814,2,0,P|191:237|182:286,1,100,2|2,3:2|3:2,0:0:0:0:
143,319,128288,2,0,P|142:343|145:368,2,50,2|2|2,1:2|3:2|0:2,0:0:0:0:
99,293,128762,1,2,3:1:0:0:
26,224,129077,5,2,3:2:0:0:
26,224,129235,2,0,L|30:174,1,50,2|2,0:2|3:2,0:0:0:0:
67,140,129551,1,2,1:2:0:0:
152,87,129867,2,0,P|176:97|200:102,1,50,8|8,0:3|0:3,0:0:0:0:
230,143,130183,5,10,0:3:0:0:
407,51,130814,2,0,P|418:72|426:96,1,50,6|2,1:2|3:2,0:0:0:0:
461,132,131130,1,2,1:2:0:0:
461,132,131288,2,0,P|451:181|446:230,1,100,2|8,3:2|0:3,0:0:0:0:
256,192,131762,12,4,132709,3:1:0:0:
256,192,132867,12,6,133814,3:2:0:0:
359,99,134919,5,2,1:2:0:0:
359,99,135077,1,6,3:2:0:0:
271,165,135393,2,0,P|244:156|220:143,2,55.0000016784668,2|2|0,3:2|1:2|3:2,0:0:0:0:
321,263,136025,2,0,P|347:254|371:241,2,55.0000016784668,0|0|6,3:2|1:2|3:2,0:0:0:0:
281,301,136498,5,2,0:2:0:0:
175,316,136814,1,0,1:2:0:0:
175,316,136972,2,0,P|152:266|120:221,2,110.000003356934,2|2|8,0:2|0:2|0:3,0:0:0:0:
137,356,137762,1,4,3:2:0:0:
29,334,138077,1,2,1:2:0:0:
0,227,138393,2,0,P|0:199|2:172,1,55.0000016784668,0|2,3:2|3:2,0:0:0:0:
37,130,138709,5,2,1:2:0:0:
37,130,138867,1,6,3:2:0:0:
121,58,139183,1,0,3:2:0:0:
121,58,139341,2,0,P|175:46|227:27,2,110.000003356934,0|2|0,1:2|0:2|3:2,0:0:0:0:
161,161,140288,1,6,3:2:0:0:
161,161,140446,1,2,3:2:0:0:
256,192,140762,2,0,L|354:172,2,100,2|2|6,3:2|3:2|3:2,0:0:0:0:
256,192,141551,12,6,142814,3:2:0:0:
37,209,143446,6,0,P|33:181|27:154,1,55.0000016784668,0|0,3:2|3:2,0:0:0:0:
60,110,143762,1,2,1:2:0:0:
60,110,143919,1,4,3:2:0:0:
155,55,144235,2,0,P|182:59|209:64,1,55.0000016784668,2|0,3:2|1:2,0:0:0:0:
285,144,144709,2,0,P|312:139|339:134,1,55.0000016784668,2|2,0:2|3:2,0:0:0:0:
364,241,145183,6,0,P|350:295|342:349,1,110.000003356934,6|0,3:2|3:2,0:0:0:0:
256,192,145656,12,4,147867,3:2:0:0:
388,104,148498,5,4,1:2:0:0:
388,104,148656,2,0,P|401:157|405:212,2,110.000003356934,2|4|2,3:2|3:2|3:2,0:0:0:0:
334,90,149446,1,0,1:2:0:0:
232,47,149762,2,0,P|205:55|178:60,1,55.0000016784668,6|2,1:2|1:2,0:0:0:0:
146,105,150077,1,0,1:2:0:0:
99,204,150393,6,0,B|94:260|75:253|70:309,1,110.000003356934,6|0,3:2|1:2,0:0:0:0:
159,374,151025,1,0,1:2:0:0:
252,316,151341,1,0,1:2:0:0:
252,316,151498,1,4,3:2:0:0:
256,192,151656,12,4,152919,3:3:0:0:
422,318,163025,5,4,3:3:0:0:
445,230,163341,1,4,3:3:0:0:
468,143,163656,1,8,3:2:0:0:
358,63,164130,1,4,3:3:0:0:
242,133,164604,1,4,3:3:0:0:
156,105,164919,2,0,P|149:60|137:17,1,89.9999972534181,8|2,0:2|0:3,0:0:0:0:
47,10,165551,5,4,3:3:0:0:
17,94,165867,2,0,P|20:117|24:139,1,44.999998626709,0|2,3:2|0:3,0:0:0:0:
62,164,166183,1,8,0:2:0:0:
62,298,166656,1,0,3:2:0:0:
62,298,166814,2,0,L|106:304,1,44.999998626709,2|2,0:3|0:3,0:0:0:0:
133,340,167130,2,0,P|177:340|221:330,1,89.9999972534181,0|8,3:2|0:2,0:0:0:0:
265,251,167762,1,2,0:3:0:0:
353,284,168077,5,4,3:3:0:0:
353,284,168235,2,0,L|358:328,2,44.999998626709,0|4|0,0:0|3:3|3:2,0:0:0:0:
380,247,168709,2,0,P|381:203|378:158,1,89.9999972534181,8|0,0:2|0:0,0:0:0:0:
343,129,169183,1,2,3:2:0:0:
29,335,170604,6,0,B|6:230|84:229|72:125,1,220.000006713867,4|2,3:1|3:2,0:0:0:0:
118,96,171393,2,0,P|143:109|162:128,1,55.0000016784668,2|0,3:2|1:2,0:0:0:0:
168,183,171709,1,6,3:2:0:0:
225,275,172025,2,0,P|253:277|280:272,1,55.0000016784668,2|0,3:2|1:2,0:0:0:0:
309,225,172341,1,2,0:2:0:0:
389,149,172656,2,0,P|387:121|388:94,2,55.0000016784668,2|0|6,3:2|1:2|3:2,0:0:0:0:
449,241,173288,5,2,3:2:0:0:
449,241,173446,1,2,1:2:0:0:
401,340,173762,1,2,1:2:0:0:
295,340,174077,1,2,1:2:0:0:
295,340,174235,2,0,P|241:350|186:353,2,110.000003356934,6|2|2,3:2|3:2|0:2,0:0:0:0:
248,239,175183,2,0,P|221:190|190:145,1,110.000003356934,2|4,0:2|1:3,0:0:0:0:
205,92,175656,5,6,3:2:0:0:
205,92,175814,2,0,P|231:85|257:77,1,55.0000016784668,0|0,0:0|1:2,0:0:0:0:
358,28,176288,1,2,3:2:0:0:
358,28,176446,2,0,P|384:34|410:42,1,55.0000016784668,2|0,3:2|1:2,0:0:0:0:
440,89,176762,1,6,3:2:0:0:
391,186,177077,2,0,P|392:214|396:241,1,55.0000016784668,2|0,3:2|1:2,0:0:0:0:
437,278,177393,1,2,0:2:0:0:
357,353,177709,2,0,P|281:332|260:256,1,165.000005035401,2|6,3:2|0:2,0:0:0:0:
296,221,178341,5,0,3:2:0:0:
287,121,178656,2,0,L|281:71,1,50,2|4,3:2|1:2,0:0:0:0:
238,45,178972,2,0,P|189:47|161:87,1,100,0|4,3:2|3:2,0:0:0:0:
71,124,179604,1,0,3:2:0:0:
71,124,179762,1,2,1:3:0:0:
47,221,180077,1,6,1:2:0:0:
27,319,180393,1,2,1:2:0:0:
136,314,180709,6,0,P|175:352|219:384,2,110.000003356934,6|0|2,3:2|1:2|3:2,0:0:0:0:
149,260,181498,2,0,P|157:233|168:208,1,55.0000016784668,2|0,3:2|1:2,0:0:0:0:
222,197,181814,1,6,3:2:0:0:
284,106,182130,2,0,P|337:119|384:147,2,110.000003356934,2|2|2,3:2|0:2|3:2,0:0:0:0:
256,57,182919,5,0,1:2:0:0:
256,57,183077,2,0,B|179:55|175:95|98:99,1,165.000005035401,6|2,3:2|1:2,0:0:0:0:
28,184,183867,2,0,P|29:212|30:239,1,55.0000016784668,2|2,1:2|3:2,0:0:0:0:
79,268,184183,1,2,1:2:0:0:
79,268,184341,2,0,P|131:255|157:209,1,110.000003356934,6|2,3:2|3:2,0:0:0:0:
215,205,184814,5,0,1:2:0:0:
215,205,184972,1,2,0:2:0:0:
297,132,185288,1,2,0:2:0:0:
354,226,185604,2,0,P|349:254|345:281,2,55.0000016784668,8|6|0,0:3|3:2|3:2,0:0:0:0:
450,91,186393,5,6,1:2:0:0:
450,91,186551,1,2,3:2:0:0:
485,194,186867,2,0,P|495:248|501:302,2,110.000003356934,6|2|2,3:2|3:2|3:2,0:0:0:0:
376,177,187814,2,0,P|324:194|274:175,1,110.000003356934,2|2,3:3|1:3,0:0:0:0:
225,187,188288,5,6,3:2:0:0:
225,187,188446,1,2,3:2:0:0:
137,138,188762,1,2,3:2:0:0:
137,138,188919,2,0,L|87:145,2,50,2|2|2,1:2|3:2|0:2,0:0:0:0:
159,93,189393,5,2,3:2:0:0:
229,21,189709,2,0,P|278:30|324:49,1,100,2|2,3:2|3:2,0:0:0:0:
350,91,190183,1,2,1:2:0:0:
350,91,190341,1,2,3:2:0:0:
428,152,190656,6,0,P|419:202|415:251,1,100,6|2,3:2|3:2,0:0:0:0:
345,324,191288,1,2,3:2:0:0:
345,324,191446,2,0,P|320:319|296:314,2,50,2|2|2,1:2|3:2|0:2,0:0:0:0:
377,360,191919,2,0,P|427:357|471:333,1,100,2|2,3:2|3:2,0:0:0:0:
463,233,192551,1,2,3:2:0:0:
463,233,192709,1,2,1:3:0:0:
392,162,193025,5,2,1:3:0:0:
392,162,193183,2,0,P|343:175|294:181,1,100,6|2,3:2|3:2,0:0:0:0:
214,120,193814,1,2,3:2:0:0:
214,120,193972,2,0,L|164:116,2,50,2|2|2,1:2|3:2|0:2,0:0:0:0:
251,85,194446,5,2,3:2:0:0:
335,31,194762,1,2,3:2:0:0:
396,109,195077,1,2,3:2:0:0:
396,109,195235,2,0,P|396:133|394:158,2,50,2|2|2,1:2|3:2|0:2,0:0:0:0:
439,83,195709,6,0,P|480:108|488:155,1,100,6|2,3:2|3:2,0:0:0:0:
443,245,196341,1,2,3:2:0:0:
443,245,196498,2,0,P|418:243|393:243,2,50,6|2|2,1:2|3:2|0:2,0:0:0:0:
463,291,196972,1,2,3:2:0:0:
392,361,197288,1,2,3:2:0:0:
315,305,197604,1,2,3:2:0:0:
315,305,197762,2,0,P|290:304|265:307,1,50,4|2,1:2|3:3,0:0:0:0:
221,283,198077,2,0,P|196:283|171:280,1,50,2|2,1:3|3:3,0:0:0:0:
126,301,198393,5,6,3:3:0:0:
