osu file format v14

[General]
AudioFilename: audio.mp3
AudioLeadIn: 0
PreviewTime: 162946
Countdown: 0
SampleSet: Soft
StackLeniency: 0.4
Mode: 0
LetterboxInBreaks: 0
WidescreenStoryboard: 1

[Editor]
Bookmarks: 1341,21551,39235,49341,74604,84709,94814,112498,122604,132709,152919,163025,170604,188288,198393
DistanceSpacing: 0.4
BeatDivisor: 4
GridSize: 16
TimelineZoom: 1.9

[Metadata]
Title:Aspirin
TitleUnicode:Aspirin
Artist:Powerless feat. kakichoco
ArtistUnicode:Powerless feat. kakichoco
Creator:Some Hero
Version:Nexus' Hard
Source:
Tags:Agatsu Lasse NexusQI Odyssey kakiless 柿チョコ MuryokuP 無力P utaite vocaloid cover collaboration japanese rock j-rock jrock C90 Comiket
BeatmapID:3175799
BeatmapSetID:1550470

[Difficulty]
HPDrainRate:4
CircleSize:3.8
OverallDifficulty:6
ApproachRate:8
SliderMultiplier:1.4
SliderTickRate:1

[Events]
//Background and Video events
0,0,"ASPIRIN.jpg",0,0
//Break Periods
2,69751,73854
2,112698,121854
2,153119,162275
//Storyboard Layer 0 (Background)
//Storyboard Layer 1 (Fail)
//Storyboard Layer 2 (Pass)
//Storyboard Layer 3 (Foreground)
//Storyboard Layer 4 (Overlay)
//Storyboard Sound Samples

[TimingPoints]
1341,315.789473684211,4,2,1,90,1,0
1656,-100,4,2,2,50,0,0
3709,-100,4,2,4,50,0,0
3788,-100,4,2,2,50,0,0
4972,-100,4,2,4,50,0,0
5051,-100,4,2,2,50,0,0
6393,-100,4,2,4,50,0,0
6472,-100,4,2,2,50,0,0
8762,-100,4,2,4,50,0,0
8841,-100,4,2,2,50,0,0
10025,-100,4,2,4,50,0,0
10104,-100,4,2,2,50,0,0
11446,-100,4,2,1,90,0,0
11604,-100,4,2,2,50,0,0
13814,-100,4,2,4,50,0,0
13893,-100,4,2,2,50,0,0
15077,-100,4,2,4,50,0,0
15156,-100,4,2,2,50,0,0
16498,-100,4,2,4,50,0,0
16577,-100,4,2,2,50,0,0
18867,-100,4,2,4,50,0,0
18946,-100,4,2,2,50,0,0
20130,-100,4,2,4,50,0,0
20209,-100,4,2,2,50,0,0
21551,-125,4,2,1,90,0,0
21867,-125,4,2,2,50,0,0
39235,-105.263157894737,4,2,3,70,0,0
49341,-95.2380952380952,4,2,4,70,0,0
49419,-95.2380952380952,4,2,3,70,0,0
59446,-95.2380952380952,4,2,4,70,0,0
59604,-95.2380952380952,4,2,3,70,0,0
69551,-95.2380952380952,4,2,1,90,0,0
74604,-125,4,2,1,90,0,0
74762,-125,4,2,1,70,0,0
74919,-125,4,2,3,70,0,0
84709,-111.111111111111,4,2,5,80,0,0
84788,-111.111111111111,4,2,3,80,0,0
85025,-111.111111111111,4,2,5,80,0,0
85104,-111.111111111111,4,2,3,80,0,0
85341,-111.111111111111,4,2,5,80,0,0
85420,-111.111111111111,4,2,3,80,0,0
85656,-111.111111111111,4,2,5,80,0,0
85735,-111.111111111111,4,2,3,80,0,0
85972,-111.111111111111,4,2,5,80,0,0
86051,-111.111111111111,4,2,3,80,0,0
86288,-111.111111111111,4,2,5,80,0,0
86367,-111.111111111111,4,2,3,80,0,0
86604,-111.111111111111,4,2,5,80,0,0
86683,-111.111111111111,4,2,3,80,0,0
86919,-111.111111111111,4,2,5,80,0,0
86998,-111.111111111111,4,2,3,80,0,0
87235,-111.111111111111,4,2,5,80,0,0
87314,-111.111111111111,4,2,3,80,0,0
87551,-111.111111111111,4,2,5,80,0,0
87630,-111.111111111111,4,2,3,80,0,0
87867,-111.111111111111,4,2,5,80,0,0
87946,-111.111111111111,4,2,3,80,0,0
88183,-111.111111111111,4,2,5,80,0,0
88262,-111.111111111111,4,2,3,80,0,0
88498,-111.111111111111,4,2,5,80,0,0
88577,-111.111111111111,4,2,3,80,0,0
88814,-111.111111111111,4,2,5,80,0,0
88893,-111.111111111111,4,2,3,80,0,0
89762,-111.111111111111,4,2,5,80,0,0
89841,-111.111111111111,4,2,3,80,0,0
90077,-111.111111111111,4,2,5,80,0,0
90156,-111.111111111111,4,2,3,80,0,0
90393,-111.111111111111,4,2,5,80,0,0
90472,-111.111111111111,4,2,3,80,0,0
90709,-111.111111111111,4,2,5,80,0,0
90788,-111.111111111111,4,2,3,80,0,0
91025,-111.111111111111,4,2,5,80,0,0
91104,-111.111111111111,4,2,3,80,0,0
91341,-111.111111111111,4,2,5,80,0,0
91420,-111.111111111111,4,2,3,80,0,0
91656,-111.111111111111,4,2,5,80,0,0
91735,-111.111111111111,4,2,3,80,0,0
91972,-111.111111111111,4,2,5,80,0,0
92051,-111.111111111111,4,2,3,80,0,0
92288,-111.111111111111,4,2,5,80,0,0
92367,-111.111111111111,4,2,3,80,0,0
92604,-111.111111111111,4,2,5,80,0,0
92683,-111.111111111111,4,2,3,80,0,0
94814,-90.9090909090908,4,2,3,90,0,0
112498,-133.333333333333,4,2,3,60,0,0
117709,-133.333333333333,4,2,2,60,0,0
117867,-133.333333333333,4,2,3,60,0,0
118656,-133.333333333333,4,2,2,60,0,0
118814,-133.333333333333,4,2,3,60,0,0
120077,-133.333333333333,4,2,3,70,0,0
120235,-133.333333333333,4,2,2,70,0,0
120393,-133.333333333333,4,2,3,70,0,0
122604,-111.111111111111,4,2,3,70,0,0
132709,-95.2380952380952,4,2,3,80,0,0
140288,-105.263157894737,4,2,3,80,0,0
142814,-95.2380952380954,4,2,3,80,0,0
152919,-95.2380952380954,4,2,1,90,0,0
153077,-95.2380952380954,4,2,2,50,0,0
163025,-125,4,2,1,50,0,0
163972,-125,4,2,2,50,0,0
164130,-125,4,2,1,50,0,0
164288,-125,4,2,2,50,0,0
164604,-125,4,2,1,50,0,0
164683,-125,4,2,3,50,0,0
164919,-125,4,2,1,50,0,0
165235,-125,4,2,4,50,0,0
165314,-125,4,2,1,50,0,0
167288,-125,4,2,3,50,0,0
167446,-125,4,2,1,50,0,0
167762,-125,4,2,4,50,0,0
167841,-125,4,2,1,50,0,0
169183,-125,4,2,2,50,0,0
170288,-125,4,2,2,70,0,0
170604,-90.9090909090909,4,2,3,90,0,0
188288,-100,4,2,4,80,0,0
188446,-100,4,2,3,80,0,0
198393,-100,4,2,1,90,0,0

[Colours]
Combo1 : 247,140,140
Combo2 : 210,150,243
Combo3 : 192,249,151
Combo4 : 164,196,249

[HitObjects]
101,76,21551,6,0,P|52:44|3:65,2,112,4|0|10,1:3|1:2|0:2,0:0:0:0:
134,151,22341,1,2,0:2:0:0:
134,151,22656,6,0,P|177:182|229:165,1,112,2|2,1:2|0:2,0:0:0:0:
270,97,23130,1,0,1:2:0:0:
270,97,23288,2,0,P|251:59|255:36,1,56,2|8,0:2|0:2,0:0:0:0:
329,44,23604,2,0,P|360:16|383:14,1,56,2|0,0:2|0:0,0:0:0:0:
426,89,23919,6,0,P|417:142|394:215,1,112,2|0,1:2|0:0,0:0:0:0:
488,218,24393,2,0,P|497:162|513:109,1,112,2|8,1:2|0:2,0:0:0:0:
329,27,25183,6,0,P|294:29|274:57,1,56,2|0,1:2|0:0,0:0:0:0:
202,37,25498,2,0,P|181:79|216:141,1,112,2|10,1:2|0:2,0:0:0:0:
214,142,25893,1,8,0:2:0:0:
223,148,25972,1,8,0:2:0:0:
295,119,26130,1,2,0:2:0:0:
349,178,26288,2,0,L|342:205,3,28,0|0|2|0,3:2|3:2|3:2|3:2,0:0:0:0:
352,227,26604,6,0,P|412:241|470:261,2,112,6|0|10,1:2|1:2|0:2,0:0:0:0:
301,289,27393,1,2,0:2:0:0:
301,289,27709,6,0,P|241:275|183:255,1,112,2|2,1:2|0:2,0:0:0:0:
148,199,28183,2,0,P|141:185|141:169,3,28,0|0|2|0,3:2|3:2|3:2|3:2,0:0:0:0:
133,160,28498,2,0,P|142:124|177:109,1,56,8|0,0:2|0:0,0:0:0:0:
227,55,28814,5,8,0:2:0:0:
227,55,28972,2,0,P|237:105|249:180,1,112,0|0,1:2|0:0,0:0:0:0:
318,202,29446,1,0,1:2:0:0:
377,148,29604,2,0,P|440:146|474:196,1,112,2|0,0:2|0:0,0:0:0:0:
512,246,30077,1,2,0:2:0:0:
437,294,30235,6,0,P|442:322|449:358,1,56,0|2,1:2|0:3,0:0:0:0:
369,366,30551,1,0,3:2:0:0:
369,366,30630,1,0,3:2:0:0:
369,366,30709,2,0,P|364:338|357:302,1,56,0|0,3:2|1:2,0:0:0:0:
290,272,31025,1,8,0:2:0:0:
290,272,31341,2,0,L|281:230,3,28,8|0|8|0,0:2|0:0|0:2|0:0,0:0:0:0:
267,218,31656,6,0,L|157:243,2,112,6|0|10,1:2|1:2|0:2,0:0:0:0:
325,159,32446,1,2,0:2:0:0:
325,159,32761,6,0,P|332:96|296:61,1,112,2|2,1:2|0:2,0:0:0:0:
217,51,33235,1,0,1:2:0:0:
217,51,33393,2,0,L|236:130,1,56,2|8,0:2|0:2,0:0:0:0:
177,164,33709,2,0,L|122:178,1,56,2|0,0:2|0:0,0:0:0:0:
43,145,34025,6,0,P|15:193|52:251,1,112,2|0,1:2|0:0,0:0:0:0:
17,337,34498,2,0,P|74:312|135:300,1,112,2|8,1:2|0:2,0:0:0:0:
295,353,35288,6,0,L|301:287,1,56,2|0,1:2|0:0,0:0:0:0:
243,237,35603,2,0,B|248:169|214:198|231:119,1,112,2|10,1:2|0:2,0:0:0:0:
239,122,35998,1,8,0:2:0:0:
249,118,36077,1,8,0:2:0:0:
319,81,36235,1,0,0:0:0:0:
379,134,36393,2,0,L|370:182,3,28,0|0|2|0,3:2|3:2|3:2|3:2,0:0:0:0:
381,187,36709,6,0,P|441:201|490:215,2,112,6|0|10,1:2|1:2|0:2,0:0:0:0:
315,233,37498,1,0,0:0:0:0:
315,233,37814,2,0,P|173:259|151:321,1,224,0|2,0:0|0:2,0:0:0:0:
377,98,39235,5,4,3:2:0:0:
377,98,39393,1,0,3:2:0:0:
298,120,39551,2,0,P|270:140|273:197,1,66.4999982242585,0|2,0:0|3:2,0:0:0:0:
261,183,39788,1,0,3:2:0:0:
266,194,39867,2,0,P|290:226|333:230,2,66.4999982242585,2|2|2,1:2|3:2|0:2,0:0:0:0:
184,144,40341,6,0,P|123:147|90:213,1,132.999996448517,2|2,3:2|3:2,0:0:0:0:
6,205,40814,2,0,B|2:238|2:238|30:277,1,66.4999982242585,2|2,0:2|3:2,0:0:0:0:
12,344,41130,2,0,B|45:348|45:348|84:320,1,66.4999982242585,2|2,1:2|3:2,0:0:0:0:
146,367,41446,1,2,0:2:0:0:
197,285,41604,5,6,3:2:0:0:
204,274,41683,2,0,P|256:265|294:307,1,99.7499973363877,0|2,3:2|3:2,0:0:0:0:
308,379,42077,2,0,P|343:366|363:333,1,66.4999982242585,2|2,0:2|3:2,0:0:0:0:
433,384,42393,2,0,P|448:350|439:312,1,66.4999982242585,2|2,1:2|3:2,0:0:0:0:
382,262,42709,1,2,0:2:0:0:
467,204,42867,6,0,P|484:129|444:94,1,132.999996448517,2|2,3:2|3:2,0:0:0:0:
373,132,43341,1,2,0:2:0:0:
323,65,43498,2,0,L|333:27,2,33.2499991121292,2|0|2,3:2|3:2|1:2,0:0:0:0:
257,119,43814,2,0,L|267:157,2,33.2499991121292,2|0|2,3:2|3:2|1:2,0:0:0:0:
182,51,44130,6,0,B|139:42|139:42|121:8|121:8|46:-3,1,132.999996448517,6|2,3:2|3:2,0:0:0:0:
66,81,44604,2,0,L|49:156,1,66.4999982242585,2|2,3:2|3:2,0:0:0:0:
59,156,44841,1,0,3:2:0:0:
66,166,44919,2,0,L|49:241,1,66.4999982242585,2|2,1:2|3:2,0:0:0:0:
0,298,45235,1,2,0:2:0:0:
100,335,45393,6,0,B|152:341|152:341|169:372|169:372|232:383,1,132.999996448517,2|2,3:2|3:2,0:0:0:0:
274,318,45867,2,0,L|259:240,1,66.4999982242585,2|2,0:2|3:2,0:0:0:0:
183,259,46183,2,0,L|170:193,1,66.4999982242585,2|2,1:2|3:2,0:0:0:0:
221,135,46498,1,2,0:2:0:0:
291,63,46656,5,6,3:2:0:0:
299,56,46735,2,0,P|355:54|388:94,1,99.7499973363877,0|0,3:2|0:0,0:0:0:0:
433,161,47130,2,0,L|352:173,1,66.4999982242585,2|2,0:2|3:2,0:0:0:0:
306,248,47446,2,0,L|371:257,1,66.4999982242585,6|2,1:2|3:2,0:0:0:0:
442,324,47762,1,2,0:2:0:0:
370,341,47919,1,2,3:2:0:0:
280,362,48077,1,4,0:2:0:0:
166,240,48393,5,2,0:2:0:0:
225,186,48551,2,0,L|211:140,2,33.2499991121292,2|0|2,3:2|3:2|1:3,0:0:0:0:
137,142,48867,1,2,3:3:0:0:
137,142,48946,1,0,3:2:0:0:
137,142,49025,2,0,L|146:110,3,33.2499991121292,2|2|2|2,1:3|0:3|3:3|0:3,0:0:0:0:
145,83,49341,5,6,3:2:0:0:
205,26,49498,2,0,B|260:-1|302:55|302:55|271:94,1,146.999995513916,2|2,3:2|3:2,0:0:0:0:
321,161,49972,2,0,P|362:149|412:138,1,73.4999977569581,2|2,1:2|0:2,0:0:0:0:
478,158,50288,1,2,3:2:0:0:
478,158,50446,1,2,1:2:0:0:
420,327,50762,5,2,3:2:0:0:
355,377,50919,2,0,P|335:346|346:303,1,73.4999977569581,2|2,1:2|0:2,0:0:0:0:
282,248,51235,1,2,3:2:0:0:
282,248,51393,1,2,3:2:0:0:
216,310,51551,2,0,P|178:320|137:333,1,73.4999977569581,2|2,0:2|1:2,0:0:0:0:
60,281,51867,5,4,3:2:0:0:
0,228,52025,2,0,P|-13:159|59:118,1,146.999995513916,2|2,3:2|3:2,0:0:0:0:
135,105,52498,2,0,P|125:143|107:198,1,73.4999977569581,2|2,1:2|0:2,0:0:0:0:
159,249,52814,1,2,3:2:0:0:
232,316,52972,6,0,B|329:303|272:254|371:249,1,146.999995513916,2|2,3:2|3:2,0:0:0:0:
378,169,53446,1,2,3:2:0:0:
457,212,53604,1,2,0:2:0:0:
512,147,53762,2,0,L|491:63,1,73.4999977569581,2|2,1:2|3:2,0:0:0:0:
451,4,54077,2,0,L|377:21,1,73.4999977569581,2|2,1:2|3:2,0:0:0:0:
366,14,54314,5,0,3:2:0:0:
353,22,54393,1,4,3:2:0:0:
289,84,54551,2,0,B|234:95|234:95|220:126|220:126|143:144,1,146.999995513916,2|0,3:2|3:2,0:0:0:0:
65,116,55025,2,0,L|89:206,1,73.4999977569581,2|2,1:2|0:2,0:0:0:0:
135,247,55341,1,0,3:2:0:0:
203,317,55498,6,0,P|278:306|313:230,1,146.999995513916,2|2,3:2|3:2,0:0:0:0:
395,251,55972,2,0,B|400:214|400:214|375:187,1,73.4999977569581,2|2,1:2|0:2,0:0:0:0:
382,102,56288,2,0,B|345:97|345:97|318:121,1,73.4999977569581,2|2,3:2|3:2,0:0:0:0:
309,133,56525,1,0,3:2:0:0:
300,145,56604,2,0,B|263:150|263:150|236:125,1,73.4999977569581,2|2,1:2|3:2,0:0:0:0:
166,61,56919,5,4,3:2:0:0:
115,0,57077,2,0,P|54:3|18:100,1,146.999995513916,2|2,3:2|3:2,0:0:0:0:
5,84,57472,1,0,3:2:0:0:
9,97,57551,2,0,P|26:131|73:145,1,73.4999977569581,0|2,1:2|3:2,0:0:0:0:
121,204,57867,1,0,0:0:0:0:
121,204,58025,1,2,3:2:0:0:
178,133,58183,6,0,L|166:61,2,73.4999977569581,0|2|2,0:0|3:2|1:2,0:0:0:0:
263,142,58656,1,8,0:3:0:0:
263,142,58735,1,8,0:3:0:0:
263,142,58814,2,0,L|250:87,3,36.749998878479,6|6|10|10,0:3|0:3|0:3|0:3,0:0:0:0:
253,91,59130,2,0,L|343:71,1,73.4999977569581,2|10,1:3|0:3,0:0:0:0:
335,65,59367,5,10,0:3:0:0:
344,53,59446,1,6,3:2:0:0:
416,90,59603,2,0,B|454:150|454:150|450:205|392:200,1,146.999995513916,2|2,3:2|3:2,0:0:0:0:
411,283,60077,2,0,B|374:285|374:285|335:254,1,73.4999977569581,2|2,1:2|0:2,0:0:0:0:
273,222,60393,1,2,3:2:0:0:
217,299,60551,6,0,B|167:310|167:310|149:345|149:345|71:361,1,146.999995513916,2|2,1:2|3:2,0:0:0:0:
15,326,61025,2,0,L|34:234,1,73.4999977569581,2|2,1:2|0:2,0:0:0:0:
0,175,61340,1,2,3:2:0:0:
0,175,61498,1,2,3:2:0:0:
65,118,61656,2,0,L|138:136,1,73.4999977569581,2|2,0:2|1:2,0:0:0:0:
204,210,61972,5,6,3:2:0:0:
266,154,62130,2,0,B|272:61|229:103|243:7,1,146.999995513916,2|2,3:2|3:2,0:0:0:0:
327,35,62604,2,0,P|364:42|393:77,1,73.4999977569581,2|2,1:2|0:2,0:0:0:0:
468,104,62919,1,2,3:2:0:0:
388,170,63077,6,0,B|381:263|426:216|414:333,1,146.999995513916,2|2,3:2|3:2,0:0:0:0:
326,285,63551,1,2,3:2:0:0:
246,317,63709,1,2,0:2:0:0:
184,259,63867,2,0,L|199:181,1,73.4999977569581,2|2,1:2|3:2,0:0:0:0:
116,143,64183,2,0,L|102:215,1,73.4999977569581,2|2,1:2|3:2,0:0:0:0:
28,279,64498,6,0,P|28:297|36:317,3,36.749998878479,2|10|10|10,3:3|0:3|0:3|0:3,0:0:0:0:
38,330,64814,2,0,P|54:349|76:352,3,36.749998878479,10|10|10|10,0:3|0:3|0:3|0:3,0:0:0:0:
84,349,65130,1,6,1:2:0:0:
146,286,65288,6,0,L|116:143,2,146.999995513916,2|2|2,3:2|3:2|3:2,0:0:0:0:
218,348,66077,2,0,B|253:353|253:353|302:319,1,73.4999977569581,2|2,1:2|3:2,0:0:0:0:
369,343,66393,2,0,B|374:308|374:308|340:259,1,73.4999977569581,2|2,1:2|3:2,0:0:0:0:
340,267,66630,1,0,3:2:0:0:
330,256,66709,2,0,L|342:183,1,73.4999977569581,2|10,1:2|0:3,0:0:0:0:
286,110,67025,5,4,3:2:0:0:
286,110,67183,1,2,3:2:0:0:
221,162,67341,2,0,L|237:252,1,73.4999977569581,0|2,1:2|3:2,0:0:0:0:
155,249,67656,2,0,L|142:176,1,73.4999977569581,6|2,1:2|3:2,0:0:0:0:
87,118,67972,2,0,P|87:96|101:77,2,36.749998878479,2|0|2,1:2|0:0|3:2,0:0:0:0:
16,293,68446,5,2,3:2:0:0:
16,293,68604,2,0,P|18:341|38:368,1,73.4999977569581,2|2,1:2|3:2,0:0:0:0:
97,312,68919,2,0,P|139:334|172:330,1,73.4999977569581,6|2,1:2|3:2,0:0:0:0:
155,249,69235,5,2,1:2:0:0:
216,194,69393,1,2,1:2:0:0:
186,121,69551,1,4,3:2:0:0:
481,53,74604,6,0,P|433:44|396:111,1,112,4|10,3:3|0:2,0:0:0:0:
331,38,75077,1,2,0:2:0:0:
317,113,75235,1,2,3:2:0:0:
317,113,75393,2,0,P|325:133|368:158,1,56,2|8,3:2|0:2,0:0:0:0:
437,186,75709,6,0,L|413:310,1,112,2|2,3:2|3:2,0:0:0:0:
335,301,76183,2,0,L|350:360,2,56,10|2|2,0:2|3:2|0:2,0:0:0:0:
259,319,76656,2,0,L|274:378,1,56,2|8,3:2|0:2,0:0:0:0:
174,356,76972,6,0,B|111:358|134:312|68:319,1,112,2|2,3:2|3:2,0:0:0:0:
63,312,77367,1,0,3:2:0:0:
53,305,77446,2,0,P|54:265|78:243,1,56,10|2,0:2|0:2,0:0:0:0:
4,204,77762,1,2,3:2:0:0:
4,204,77919,2,0,P|32:176|65:177,1,56,2|8,3:2|0:2,0:0:0:0:
104,106,78235,6,0,P|143:144|207:141,1,112,2|2,3:2|3:2,0:0:0:0:
255,205,78709,1,8,0:2:0:0:
255,205,78867,2,0,P|294:167|358:170,1,112,2|2,3:2|3:2,0:0:0:0:
403,228,79341,2,0,L|331:255,1,56,0|8,3:2|0:2,0:0:0:0:
281,317,79656,6,0,L|397:342,1,112,6|10,3:2|0:2,0:0:0:0:
502,239,80288,1,2,3:2:0:0:
502,239,80446,2,0,L|489:178,1,56,2|8,3:2|0:2,0:0:0:0:
416,137,80762,6,0,B|396:74|438:95|417:22,1,112,2|0,3:2|3:2,0:0:0:0:
340,52,81235,2,0,P|291:50|253:2,1,112,10|2,0:2|3:2,0:0:0:0:
183,44,81709,2,0,L|194:118,1,56,2|8,3:2|0:2,0:0:0:0:
262,159,82025,6,0,P|276:214|237:260,1,112,2|2,3:2|3:2,0:0:0:0:
158,266,82498,2,0,L|176:202,1,56,10|2,0:2|0:2,0:0:0:0:
72,209,82814,1,2,3:2:0:0:
72,209,82972,2,0,L|79:267,1,56,2|8,3:2|0:2,0:0:0:0:
113,349,83288,6,0,P|165:361|232:373,1,112,2|2,3:2|3:2,0:0:0:0:
298,347,83762,1,8,0:2:0:0:
298,347,83919,1,2,3:2:0:0:
375,296,84077,2,0,L|369:261,3,28,2|2|2|2,1:3|0:3|0:3|0:3,0:0:0:0:
384,252,84393,2,0,L|380:221,3,28,2|2|2|2,1:3|1:3|1:3|1:3,0:0:0:0:
367,199,84709,6,0,P|298:207|267:272,1,125.999996154785,6|10,3:2|0:2,0:0:0:0:
231,330,85183,1,2,0:2:0:0:
162,369,85341,1,2,3:2:0:0:
162,369,85499,2,0,P|132:367|106:347,1,62.9999980773926,2|8,3:2|0:2,0:0:0:0:
47,274,85814,6,0,L|180:247,1,125.999996154785,2|2,3:2|3:2,0:0:0:0:
92,181,86288,2,0,P|98:121|168:101,1,125.999996154785,10|2,0:2|3:2,0:0:0:0:
235,80,86762,2,0,L|223:163,1,62.9999980773926,2|8,3:2|0:2,0:0:0:0:
257,230,87077,6,0,B|337:226|290:179|383:178,1,125.999996154785,2|2,3:2|3:2,0:0:0:0:
377,184,87472,1,0,3:2:0:0:
386,191,87551,2,0,P|379:231|375:257,1,62.9999980773926,10|2,0:2|0:2,0:0:0:0:
412,329,87866,1,2,3:2:0:0:
473,268,88025,2,0,P|477:236|483:205,1,62.9999980773926,2|8,3:2|0:2,0:0:0:0:
512,110,88341,6,0,P|479:39|437:35,1,125.999996154785,2|2,3:2|3:2,0:0:0:0:
366,74,88814,2,0,L|283:55,1,62.9999980773926,12|2,0:2|3:2,0:0:0:0:
317,146,89130,2,0,L|308:186,3,31.4999990386963,0|0|8|8,1:2|3:2|0:3|0:3,0:0:0:0:
317,203,89446,2,0,L|308:243,3,31.4999990386963,0|8|4|4,3:2|0:3|0:3|0:3,0:0:0:0:
322,264,89762,6,0,P|256:272|227:333,1,125.999996154785,6|10,3:2|0:2,0:0:0:0:
182,384,90235,1,0,0:0:0:0:
116,334,90393,1,2,3:2:0:0:
116,334,90551,2,0,L|94:264,1,62.9999980773926,2|8,3:2|0:2,0:0:0:0:
9,295,90867,6,0,P|2:241|58:190,1,125.999996154785,2|2,3:2|3:2,0:0:0:0:
48,113,91341,2,0,P|85:120|112:158,1,62.9999980773926,10|2,0:2|3:2,0:0:0:0:
165,191,91656,1,10,0:2:0:0:
224,251,91814,2,0,P|254:247|278:227,1,62.9999980773926,2|8,3:2|0:2,0:0:0:0:
284,215,92051,5,8,0:2:0:0:
292,205,92130,2,0,P|272:265|312:325,1,125.999996154785,2|0,3:2|3:2,0:0:0:0:
383,312,92604,2,0,L|369:378,2,62.9999980773926,8|0|14,0:2|3:2|0:2,0:0:0:0:
461,276,93077,1,2,3:2:0:0:
461,276,93235,1,4,1:2:0:0:
415,207,93393,1,2,3:2:0:0:
487,147,93551,5,4,1:2:0:0:
487,147,93630,1,0,1:2:0:0:
487,147,93709,2,0,P|505:117|496:75,1,62.9999980773926,2|0,3:2|1:2,0:0:0:0:
496,79,93946,1,0,1:2:0:0:
486,71,94025,1,2,3:2:0:0:
407,31,94183,2,0,P|396:49|400:72,3,31.4999990386963,10|10|6|6,0:3|0:3|0:3|0:3,0:0:0:0:
373,73,94498,2,0,P|371:94|384:112,3,31.4999990386963,6|6|2|2,0:3|0:3|3:3|0:3,0:0:0:0:
390,126,94814,6,0,P|316:169|247:117,2,154.000004699707,4|0|2,3:1|1:2|3:2,0:0:0:0:
459,182,95604,2,0,P|459:222|419:259,1,77.0000023498536,2|0,3:2|1:2,0:0:0:0:
478,356,95919,6,0,P|404:336|324:315,1,154.000004699707,6|2,3:2|3:2,0:0:0:0:
253,363,96393,1,0,1:2:0:0:
197,285,96551,1,2,0:2:0:0:
194,271,96630,2,0,L|228:146,1,115.50000352478,0|2,1:2|3:2,0:0:0:0:
290,102,97025,1,0,1:2:0:0:
209,31,97183,6,0,P|140:42|138:136,1,154.000004699707,6|2,3:2|3:2,0:0:0:0:
59,197,97656,2,0,P|45:157|32:125,1,77.0000023498536,2|2,1:2|0:2,0:0:0:0:
5,267,97972,1,2,1:2:0:0:
5,267,98130,1,2,3:2:0:0:
92,284,98288,1,2,1:2:0:0:
155,208,98446,6,0,B|252:205|195:268|312:267,1,154.000004699707,6|2,3:2|3:2,0:0:0:0:
291,179,98919,1,0,1:2:0:0:
247,110,99077,2,0,L|267:59,3,38.5000011749268,2|0|0|0,0:2|1:2|0:0|1:2,0:0:0:0:
266,58,99393,2,0,P|305:56|345:89,1,77.0000023498536,2|0,0:2|1:2,0:0:0:0:
424,166,99709,5,4,1:3:0:0:
424,166,99788,1,8,0:3:0:0:
424,166,99867,2,0,P|505:120|493:57,2,154.000004699707,6|0|2,3:2|1:2|3:2,0:0:0:0:
364,230,100656,2,0,P|373:263|381:305,1,77.0000023498536,2|0,3:2|1:2,0:0:0:0:
311,380,100972,6,0,B|257:369|257:369|239:333|239:333|181:322,1,154.000004699707,6|2,3:2|3:2,0:0:0:0:
125,254,101446,1,0,1:2:0:0:
208,218,101604,1,2,0:2:0:0:
203,208,101683,2,0,P|214:149|224:84,1,115.50000352478,0|2,1:2|3:2,0:0:0:0:
300,157,102077,2,0,L|288:214,3,38.5000011749268,0|8|4|4,3:2|0:3|0:3|0:3,0:0:0:0:
297,213,102393,5,6,0:2:0:0:
346,288,102551,2,0,P|417:295|453:221,1,154.000004699707,0|2,3:2|3:2,0:0:0:0:
459,215,102946,1,0,3:2:0:0:
465,201,103025,2,0,P|443:155|403:141,1,77.0000023498536,4|0,1:2|3:2,0:0:0:0:
390,65,103341,1,2,0:2:0:0:
294,91,103498,6,0,B|195:89|260:21|130:40,1,154.000004699707,4|0,3:2|3:2,0:0:0:0:
159,124,103972,2,0,P|118:143|98:181,1,77.0000023498536,2|0,1:3|3:2,0:0:0:0:
185,213,104288,2,0,P|180:258|203:294,1,77.0000023498536,6|2,1:2|1:2,0:0:0:0:
205,297,104525,1,2,1:2:0:0:
218,305,104604,1,2,1:2:0:0:
293,348,104762,1,2,1:2:0:0:
363,278,104919,6,0,B|451:278|404:338|507:344,2,154.000004699707,6|0|2,3:2|1:2|3:2,0:0:0:0:
310,214,105709,2,0,P|318:173|332:125,1,77.0000023498536,2|0,3:2|1:2,0:0:0:0:
217,172,106025,6,0,P|149:174|112:250,1,154.000004699707,6|2,3:2|3:2,0:0:0:0:
45,302,106499,1,0,1:2:0:0:
12,218,106657,1,2,0:2:0:0:
19,209,106736,2,0,P|11:151|-5:76,1,115.50000352478,0|2,1:2|3:2,0:0:0:0:
42,13,107130,1,0,1:2:0:0:
140,47,107289,6,0,B|198:57|198:57|215:88|215:88|278:99,1,154.000004699707,6|2,3:2|3:2,0:0:0:0:
375,73,107762,2,0,L|359:166,1,77.0000023498536,2|2,1:2|0:2,0:0:0:0:
294,210,108078,1,2,1:2:0:0:
294,210,108236,1,2,3:2:0:0:
212,167,108394,1,2,1:2:0:0:
146,226,108551,6,0,P|112:295|172:363,1,154.000004699707,6|2,3:2|3:2,0:0:0:0:
234,384,109025,1,0,1:2:0:0:
308,331,109183,2,0,L|292:275,3,38.5000011749268,2|0|0|0,0:2|1:2|0:0|1:2,0:0:0:0:
314,283,109499,2,0,P|353:281|393:314,1,77.0000023498536,2|0,0:2|1:2,0:0:0:0:
450,367,109814,1,8,0:3:0:0:
505,265,109972,5,6,3:2:0:0:
505,265,110130,2,0,B|517:170|452:208|480:102,1,154.000004699707,0|0,3:2|3:2,0:0:0:0:
486,107,110525,1,0,3:2:0:0:
498,97,110604,1,6,1:2:0:0:
426,41,110762,2,0,P|386:54|347:60,1,77.0000023498536,2|0,3:2|0:0,0:0:0:0:
303,145,111077,6,0,P|236:88|174:104,1,154.000004699707,6|2,3:2|3:2,0:0:0:0:
113,179,111551,2,0,P|150:185|187:197,1,77.0000023498536,0|2,1:2|3:2,0:0:0:0:
259,252,111867,1,4,1:2:0:0:
184,302,112025,2,0,L|141:315,2,38.5000011749268,2|2|2,3:3|1:3|1:3,0:0:0:0:
272,355,112341,5,2,1:3:0:0:
272,355,112419,1,2,1:3:0:0:
272,355,112498,1,6,3:2:0:0:
416,16,122604,5,6,3:2:0:0:
416,16,122762,2,0,P|498:21|500:78,1,125.999996154785,2|0,3:2|3:2,0:0:0:0:
503,62,123156,1,0,3:2:0:0:
498,73,123235,1,2,1:2:0:0:
414,106,123393,2,0,P|378:95|333:78,1,62.9999980773926,2|2,3:2|0:2,0:0:0:0:
295,29,123709,1,2,3:1:0:0:
133,116,124025,5,2,3:2:0:0:
136,125,124104,2,0,B|108:161|108:161|128:219,1,94.499997116089,2|2,3:2|3:2,0:0:0:0:
200,258,124498,1,2,1:2:0:0:
138,321,124656,2,0,B|95:332|95:332|81:369|81:369|26:386,1,125.999996154785,2|8,3:2|0:3,0:0:0:0:
0,285,125130,5,6,3:2:0:0:
0,285,125288,2,0,L|23:151,1,125.999996154785,2|2,3:2|3:2,0:0:0:0:
29,151,125683,1,2,3:2:0:0:
34,139,125762,1,2,1:2:0:0:
91,73,125919,2,0,P|115:109|103:148,1,62.9999980773926,2|2,3:2|0:2,0:0:0:0:
93,207,126235,1,2,3:1:0:0:
216,333,126551,5,2,3:2:0:0:
225,340,126630,2,0,L|334:331,1,94.499997116089,2|2,3:2|3:2,0:0:0:0:
272,256,127025,2,0,P|272:228|300:199,1,62.9999980773926,2|2,1:2|3:2,0:0:0:0:
304,196,127262,1,0,3:2:0:0:
315,190,127341,2,0,P|344:194|374:234,1,62.9999980773926,6|2,1:2|3:2,0:0:0:0:
437,297,127656,5,6,3:2:0:0:
437,297,127814,2,0,P|504:263|493:215,1,125.999996154785,2|2,3:2|3:2,0:0:0:0:
490,213,128209,1,2,3:2:0:0:
480,204,128288,1,2,1:2:0:0:
426,138,128446,2,0,P|438:93|451:55,1,62.9999980773926,2|2,3:2|0:2,0:0:0:0:
356,87,128762,1,2,3:1:0:0:
233,204,129077,5,2,3:2:0:0:
240,214,129156,2,0,P|289:225|319:275,1,94.499997116089,2|2,3:2|3:2,0:0:0:0:
363,333,129551,2,0,L|286:344,1,62.9999980773926,2|2,1:2|3:2,0:0:0:0:
230,384,129867,1,8,0:3:0:0:
230,384,130025,1,8,0:3:0:0:
151,321,130183,6,0,L|162:273,3,31.4999990386963,10|10|10|6,0:3|0:3|0:3|0:3,0:0:0:0:
140,269,130498,2,0,L|151:221,3,31.4999990386963,10|10|6|6,0:3|0:3|0:3|0:3,0:0:0:0:
137,213,130814,2,0,L|65:232,1,62.9999980773926,6|2,1:2|3:2,0:0:0:0:
92,144,131130,1,2,1:2:0:0:
158,74,131288,6,0,P|218:78|252:144,1,125.999996154785,2|8,3:2|0:3,0:0:0:0:
258,140,131683,1,8,0:3:0:0:
262,151,131762,2,0,L|245:211,1,62.9999980773926,4|2,1:2|3:2,0:0:0:0:
330,217,132077,2,0,L|313:277,1,62.9999980773926,0|0,1:2|3:2,0:0:0:0:
236,318,132393,1,0,1:2:0:0:
329,374,132551,5,2,1:3:0:0:
329,374,132630,1,2,0:3:0:0:
329,374,132709,2,0,L|477:342,1,146.999995513916,4|2,3:1|1:2,0:0:0:0:
502,268,133183,1,2,0:2:0:0:
502,268,133341,2,0,P|492:223|451:209,1,73.4999977569581,2|2,3:2|3:2,0:0:0:0:
407,145,133656,2,0,L|419:101,3,36.749998878479,2|2|6|2,1:2|0:2|3:2|0:2,0:0:0:0:
402,93,133972,6,0,L|424:9,1,73.4999977569581,2|0,0:2|3:2,0:0:0:0:
431,11,134209,1,2,0:2:0:0:
441,0,134288,2,0,L|516:27,2,73.4999977569581,2|2|2,1:2|0:2|0:2,0:0:0:0:
342,24,134762,1,2,3:2:0:0:
283,82,134919,1,2,1:2:0:0:
223,28,135077,1,6,3:2:0:0:
135,161,135393,6,0,P|144:204|161:244,1,73.4999977569581,2|2,3:2|1:2,0:0:0:0:
158,245,135630,1,0,0:0:0:0:
71,255,135788,2,0,P|62:212|45:172,2,73.4999977569581,2|2|2,0:0|0:0|0:0,0:0:0:0:
36,333,136262,2,0,L|-14:323,2,36.749998878479,2|6|2,0:0|3:2|0:0,0:0:0:0:
49,354,136498,6,0,P|102:364|170:370,1,110.249996635437,2|2,0:0|0:0,0:0:0:0:
170,362,136814,1,0,1:2:0:0:
249,307,136972,2,0,P|252:241|218:198,1,110.249996635437,2|0,0:2|0:0,0:0:0:0:
215,198,137288,1,2,0:2:0:0:
122,220,137446,2,0,L|137:148,1,73.4999977569581,0|8,1:2|0:3,0:0:0:0:
135,133,137683,5,8,0:3:0:0:
130,119,137762,1,4,3:2:0:0:
257,17,138077,2,0,L|333:43,1,73.4999977569581,2|2,1:2|0:2,0:0:0:0:
335,52,138314,1,2,0:2:0:0:
268,106,138472,2,0,L|254:140,3,36.749998878479,0|2|2|2,0:0|3:2|0:2|1:2,0:0:0:0:
352,141,138867,5,6,3:2:0:0:
352,141,138946,1,2,0:2:0:0:
352,141,139025,2,0,L|486:108,2,110.249996635437,2|2|2,0:2|0:2|0:2,0:0:0:0:
430,212,139656,2,0,P|449:240|438:294,1,73.4999977569581,2|0,0:2|3:2,0:0:0:0:
439,291,139893,1,8,0:3:0:0:
428,301,139972,2,0,L|380:290,3,36.749998878479,0|8|4|4,3:2|0:3|0:3|0:3,0:0:0:0:
378,298,140288,5,6,3:2:0:0:
325,361,140446,2,0,L|168:331,1,132.999996448517,2|2,3:2|3:2,0:0:0:0:
144,270,140919,1,0,1:2:0:0:
144,270,141077,2,0,L|164:198,1,66.4999982242585,2|0,3:2|0:0,0:0:0:0:
55,189,141393,6,0,P|31:126|87:76,1,132.999996448517,6|0,3:2|3:2,0:0:0:0:
93,4,141867,2,0,P|118:4|160:44,1,66.4999982242585,0|0,1:2|3:2,0:0:0:0:
226,0,142183,2,0,P|243:17|245:75,1,66.4999982242585,0|0,1:2|1:2,0:0:0:0:
247,69,142419,1,0,1:2:0:0:
238,79,142498,1,4,1:2:0:0:
172,127,142656,1,0,1:2:0:0:
258,194,142814,6,0,B|351:200|307:133|415:147,1,146.999995513916,6|2,3:2|1:2,0:0:0:0:
403,137,143209,1,2,0:2:0:0:
415,130,143288,2,0,P|398:57|455:28,1,146.999995513916,2|0,0:2|3:2,0:0:0:0:
509,86,143762,1,2,1:2:0:0:
512,177,143919,6,0,L|470:343,1,146.999995513916,4|2,3:2|3:2,0:0:0:0:
395,374,144393,2,0,P|375:327|420:258,1,110.249996635437,0|0,1:2|1:2,0:0:0:0:
406,263,144709,1,2,0:2:0:0:
364,194,144867,2,0,L|285:204,1,73.4999977569581,2|0,3:2|1:2,0:0:0:0:
314,104,145183,6,0,P|269:44|202:63,1,146.999995513916,6|0,3:2|3:2,0:0:0:0:
150,0,145656,2,0,P|128:27|127:72,1,73.4999977569581,2|0,1:2|0:0,0:0:0:0:
177,137,145972,2,0,L|155:216,1,73.4999977569581,2|0,1:2|0:0,0:0:0:0:
212,268,146288,1,2,1:2:0:0:
128,338,146446,5,4,3:2:0:0:
128,338,146604,2,0,P|78:329|58:302,1,73.4999977569581,2|2,0:2|3:2,0:0:0:0:
56,300,146841,1,2,0:2:0:0:
51,286,146919,2,0,L|67:230,3,36.749998878479,2|0|2|2,1:2|0:0|0:2|1:2,0:0:0:0:
54,237,147235,1,0,3:2:0:0:
7,160,147394,2,0,L|35:71,1,73.4999977569581,2|0,0:2|1:2,0:0:0:0:
55,15,147709,1,8,0:3:0:0:
144,74,147867,5,4,3:2:0:0:
151,83,147946,2,0,P|213:70|225:6,2,110.249996635437,2|2|2,0:2|0:2|3:2,0:0:0:0:
87,185,148656,2,0,P|104:249|115:311,1,110.249996635437,2|2,3:2|0:2,0:0:0:0:
246,243,149130,2,0,P|233:207|224:161,1,73.4999977569581,2|0,0:2|0:0,0:0:0:0:
230,158,149367,1,2,0:2:0:0:
234,144,149446,1,0,1:2:0:0:
336,296,149762,1,6,1:2:0:0:
397,349,149919,2,0,L|385:388,2,36.749998878479,2|0|0,1:2|1:2|1:2,0:0:0:0:
453,288,150235,5,0,1:2:0:0:
453,288,150314,1,0,1:2:0:0:
453,288,150393,2,0,B|455:200|403:225|421:141,1,146.999995513916,6|0,3:2|1:2,0:0:0:0:
507,167,150867,1,0,3:2:0:0:
507,167,151025,1,0,1:2:0:0:
512,81,151183,2,0,P|505:46|490:-1,1,73.4999977569581,0|0,3:2|1:2,0:0:0:0:
403,14,151498,1,4,3:2:0:0:
343,82,151656,6,0,L|229:44,2,97.9999970092774,2|2|2,0:0|0:0|0:0,0:0:0:0:
397,181,152288,2,0,L|514:161,2,97.9999970092774,2|2|2,1:2|0:0|0:0,0:0:0:0:
325,266,152919,5,4,3:3:0:0:
399,44,163025,6,0,P|436:13|516:28,2,112,4|4|8,3:3|3:3|3:2,0:0:0:0:
340,92,163814,1,0,0:0:0:0:
204,159,164130,6,0,L|240:279,1,112,4|0,3:3|3:2,0:0:0:0:
317,260,164604,2,0,L|305:317,1,56,4|0,3:3|3:2,0:0:0:0:
310,324,164841,1,0,3:2:0:0:
317,331,164919,1,8,0:2:0:0:
254,383,165077,2,0,P|204:372|138:356,1,112
71,304,165551,5,4,3:3:0:0:
71,304,165709,1,0,0:0:0:0:
125,243,165867,2,0,P|169:237|206:298,1,112,0|8,3:2|0:2,0:0:0:0:
332,167,166656,6,0,P|329:112|273:90,1,112,0|2,3:2|0:3,0:0:0:0:
227,34,167130,2,0,P|199:41|178:62,1,56,0|0,3:2|3:2,0:0:0:0:
178,70,167367,1,0,3:2:0:0:
179,81,167446,1,8,0:2:0:0:
118,126,167604,2,0,P|117:146|154:179,1,56,0|2,0:0|0:3,0:0:0:0:
179,243,167919,1,2,0:3:0:0:
251,307,168077,6,0,L|381:277,2,112,4|0|8,3:3|0:0|0:2,0:0:0:0:
291,217,168867,2,0,B|296:149|262:172|275:106,1,112,2|2,0:3|3:2,0:0:0:0:
154,7,170604,6,0,P|108:-5|51:49,1,115.50000352478,4|0,3:1|0:0,0:0:0:0:
44,42,170919,2,0,P|36:73|63:122,1,77.0000023498536,0|2,1:2|0:2,0:0:0:0:
0,174,171235,1,2,3:2:0:0:
0,174,171394,2,0,P|18:195|83:188,1,77.0000023498536,2|0,3:2|1:2,0:0:0:0:
132,269,171709,6,0,B|195:279|195:279|215:310|215:310|287:323,1,154.000004699707,6|2,3:2|3:2,0:0:0:0:
323,248,172183,1,0,1:2:0:0:
270,174,172341,1,2,0:2:0:0:
264,163,172420,2,0,B|281:86|240:116|255:31,1,115.50000352478,0|2,1:2|3:2,0:0:0:0:
332,18,172814,1,0,1:2:0:0:
415,77,172973,6,0,P|465:77|482:172,1,154.000004699707,6|2,3:2|3:2,0:0:0:0:
424,233,173446,2,0,P|410:193|397:161,1,77.0000023498536,2|2,1:2|0:2,0:0:0:0:
337,237,173762,1,2,1:2:0:0:
337,237,173920,1,2,3:2:0:0:
364,313,174078,1,2,1:2:0:0:
286,379,174235,6,0,P|191:364|168:293,1,154.000004699707,6|2,3:2|3:2,0:0:0:0:
83,327,174709,1,0,1:2:0:0:
24,272,174867,2,0,L|31:234,3,38.5000011749268,2|0|0|0,0:2|1:2|3:2|0:0,0:0:0:0:
45,214,175183,2,0,L|28:129,1,77.0000023498536,2|0,0:2|1:2,0:0:0:0:
59,44,175499,5,4,1:3:0:0:
59,44,175578,1,8,0:3:0:0:
59,44,175656,2,0,P|104:65|121:142,1,115.50000352478,6|0,3:2|0:0,0:0:0:0:
120,141,175972,2,0,L|205:114,1,77.0000023498536,0|0,1:2|0:0,0:0:0:0:
213,200,176288,1,2,3:2:0:0:
213,200,176446,2,0,L|139:223,1,77.0000023498536,2|0,3:2|1:2,0:0:0:0:
226,301,176762,6,0,B|314:291|274:355|368:354,1,154.000004699707,6|2,3:2|3:2,0:0:0:0:
354,268,177236,1,0,1:2:0:0:
296,206,177394,1,2,0:2:0:0:
290,196,177473,2,0,P|269:152|292:88,1,115.50000352478,0|2,1:2|3:2,0:0:0:0:
377,56,177867,2,0,L|431:79,3,38.5000011749268,0|8|4|4,3:2|0:3|0:3|0:3,0:0:0:0:
428,69,178183,5,6,0:2:0:0:
493,136,178341,2,0,L|453:284,1,154.000004699707,0|2,3:2|3:2,0:0:0:0:
456,299,178736,1,0,3:2:0:0:
461,313,178815,2,0,L|373:328,1,77.0000023498536,4|0,1:2|3:2,0:0:0:0:
382,241,179131,1,2,0:2:0:0:
318,169,179288,6,0,P|268:158|204:248,1,154.000004699707,4|0,3:2|3:2,0:0:0:0:
143,301,179762,2,0,L|115:217,1,77.0000023498536,2|0,1:3|3:2,0:0:0:0:
28,237,180077,2,0,L|56:153,1,77.0000023498536,6|2,1:2|1:2,0:0:0:0:
48,148,180315,1,2,1:2:0:0:
42,133,180394,1,2,1:2:0:0:
3,56,180552,1,2,1:2:0:0:
101,26,180709,6,0,P|161:35|182:88,1,115.50000352478,6|0,3:2|0:0,0:0:0:0:
189,96,181025,2,0,P|162:127|165:179,1,77.0000023498536,0|2,1:2|0:2,0:0:0:0:
239,198,181341,1,2,3:2:0:0:
239,198,181498,2,0,P|266:167|263:115,1,77.0000023498536,2|0,3:2|1:2,0:0:0:0:
272,37,181815,6,0,B|332:51|332:51|349:87|349:87|418:101,1,154.000004699707,6|2,3:2|3:2,0:0:0:0:
474,56,182289,1,0,1:2:0:0:
505,144,182447,1,2,0:2:0:0:
511,153,182526,2,0,L|476:281,1,115.50000352478,0|2,1:2|3:2,0:0:0:0:
418,311,182919,1,0,1:2:0:0:
351,384,183077,6,0,P|286:346|293:270,1,154.000004699707,6|2,3:2|3:2,0:0:0:0:
372,229,183552,2,0,P|368:182|359:131,1,77.0000023498536,2|2,1:2|0:2,0:0:0:0:
311,85,183868,1,2,1:2:0:0:
311,85,184026,1,2,3:2:0:0:
228,131,184184,1,2,1:2:0:0:
173,46,184341,6,0,B|87:48|128:107|21:109,1,154.000004699707,6|2,3:2|3:2,0:0:0:0:
0,184,184815,1,0,1:2:0:0:
66,242,184973,2,0,L|54:295,3,38.5000011749268,2|0|0|0,0:2|1:2|3:2|1:2,0:0:0:0:
52,304,185288,2,0,L|140:324,1,77.0000023498536,2|0,0:2|1:2,0:0:0:0:
182,384,185604,1,8,0:3:0:0:
255,300,185762,5,6,3:2:0:0:
255,300,185919,2,0,P|254:215|196:198,1,154.000004699707,0|0,3:2|3:2,0:0:0:0:
188,209,186315,1,0,3:2:0:0:
176,218,186394,1,6,1:2:0:0:
122,145,186552,2,0,L|147:56,1,77.0000023498536,2|0,3:2|0:0,0:0:0:0:
232,17,186867,6,0,B|286:28|286:28|305:64|305:64|375:79,1,154.000004699707,6|2,3:2|3:2,0:0:0:0:
449,51,187341,2,0,L|431:150,1,77.0000023498536,0|2,1:2|3:2,0:0:0:0:
482,195,187657,1,4,1:2:0:0:
408,244,187814,1,2,3:3:0:0:
408,244,187893,1,2,1:3:0:0:
408,244,187972,2,0,L|372:232,3,38.5000011749268,2|2|2|2,1:3|0:3|1:3|1:3,0:0:0:0:
361,241,188288,5,6,3:2:0:0:
299,180,188446,2,0,B|224:180|273:240|168:241,1,140,2|2,3:2|3:2,0:0:0:0:
167,235,188841,1,0,3:2:0:0:
153,233,188919,1,2,1:2:0:0:
78,189,189077,2,0,L|112:43,1,140,2|2,3:2|3:2,0:0:0:0:
310,0,189709,5,2,3:2:0:0:
373,47,189867,2,0,L|356:121,1,70,2|2,0:2|3:2,0:0:0:0:
418,177,190183,1,2,1:2:0:0:
418,177,190341,1,2,3:2:0:0:
330,313,190656,5,6,3:2:0:0:
318,318,190735,2,0,P|264:311|243:248,1,105,0|2,3:2|3:2,0:0:0:0:
160,267,191130,2,0,P|158:241|193:205,1,70,2|2,0:2|3:2,0:0:0:0:
203,128,191446,1,2,1:2:0:0:
271,95,191604,2,0,P|310:98|349:188,1,140,2|2,3:2|3:2,0:0:0:0:
480,328,192235,5,2,3:2:0:0:
412,368,192393,2,0,L|323:356,1,70,2|2,0:2|3:2,0:0:0:0:
330,351,192630,1,0,3:2:0:0:
320,340,192709,2,0,L|280:330,3,35,2|2|2|2,1:3|0:3|3:3|3:3,0:0:0:0:
268,346,193025,1,2,1:3:0:0:
199,262,193183,6,0,B|181:174|230:202|203:116,1,140,6|2,3:2|3:2,0:0:0:0:
216,116,193577,1,0,3:2:0:0:
225,106,193656,2,0,P|213:64|201:40,1,70,2|2,0:2|3:2,0:0:0:0:
192,29,193893,1,0,3:2:0:0:
182,19,193972,1,2,1:2:0:0:
128,83,194130,2,0,L|58:107,1,70,2|2,3:2|0:2,0:0:0:0:
0,192,194446,6,0,P|78:218|91:273,1,140,2|2,3:2|3:2,0:0:0:0:
105,348,194919,2,0,B|140:345|140:345|161:318,1,70,2|2,0:2|3:2,0:0:0:0:
238,350,195235,2,0,B|252:317|252:317|240:284,1,70,2|2,1:2|3:2,0:0:0:0:
177,236,195551,1,2,0:2:0:0:
244,171,195709,5,6,3:2:0:0:
254,162,195788,2,0,P|312:173|333:215,1,105,0|2,3:2|3:2,0:0:0:0:
329,300,196183,2,0,L|408:273,1,70,2|2,0:2|3:2,0:0:0:0:
483,278,196498,2,0,L|457:212,1,70,6|2,1:2|3:2,0:0:0:0:
512,144,196814,1,2,0:2:0:0:
442,73,196972,6,0,B|362:77|398:22|307:30,1,140,2|2,3:2|3:2,0:0:0:0:
249,85,197446,1,2,0:2:0:0:
183,39,197604,2,0,L|192:1,2,35,2|0|4,3:2|3:2|1:2,0:0:0:0:
111,83,197919,2,0,L|101:49,2,35,2|2|2,3:3|3:3|1:3,0:0:0:0:
177,133,198235,1,2,3:3:0:0:
256,192,198393,5,6,3:3:0:0:
