osu file format v14

[General]
AudioFilename: audio.mp3
AudioLeadIn: 0
PreviewTime: 162946
Countdown: 0
SampleSet: Soft
StackLeniency: 0.7
Mode: 0
LetterboxInBreaks: 0
WidescreenStoryboard: 1

[Editor]
Bookmarks: 1341,21551,39235,49341,59446,74604,84709,94814,104919,112498,122604,132709,142814,152919,163025,170604,180709,188288,198393
DistanceSpacing: 1.5
BeatDivisor: 6
GridSize: 16
TimelineZoom: 1.5

[Metadata]
Title:Aspirin
TitleUnicode:Aspirin
Artist:Powerless feat. kakichoco
ArtistUnicode:Powerless feat. kakichoco
Creator:Some Hero
Version:Collab Expert
Source:
Tags:Agatsu Lasse NexusQI Odyssey kakiless 柿チョコ MuryokuP 無力P utaite vocaloid cover collaboration japanese rock j-rock jrock C90 Comiket
BeatmapID:3168330
BeatmapSetID:1550470

[Difficulty]
HPDrainRate:7
CircleSize:4.2
OverallDifficulty:8.4
ApproachRate:9.4
SliderMultiplier:1.7
SliderTickRate:1

[Events]
//Background and Video events
0,0,"ASPIRIN.jpg",0,0
//Break Periods
2,153119,162485
//Storyboard Layer 0 (Background)
//Storyboard Layer 1 (Fail)
//Storyboard Layer 2 (Pass)
//Storyboard Layer 3 (Foreground)
//Storyboard Layer 4 (Overlay)
//Storyboard Sound Samples

[TimingPoints]
1341,315.789473684211,4,2,1,90,1,0
1341,-166.666666666667,4,2,1,90,0,0
1656,-166.666666666667,4,2,2,50,0,0
3709,-166.666666666667,4,2,4,50,0,0
3788,-166.666666666667,4,2,2,50,0,0
4972,-166.666666666667,4,2,4,50,0,0
5051,-166.666666666667,4,2,2,50,0,0
6393,-166.666666666667,4,2,4,50,0,0
6472,-166.666666666667,4,2,2,50,0,0
8762,-166.666666666667,4,2,4,50,0,0
8841,-166.666666666667,4,2,2,50,0,0
10025,-166.666666666667,4,2,4,50,0,0
10104,-166.666666666667,4,2,2,50,0,0
11446,-166.666666666667,4,2,1,90,0,0
11604,-166.666666666667,4,2,2,50,0,0
13814,-166.666666666667,4,2,4,50,0,0
13893,-166.666666666667,4,2,2,50,0,0
15077,-166.666666666667,4,2,4,50,0,0
15156,-166.666666666667,4,2,2,50,0,0
16498,-166.666666666667,4,2,4,50,0,0
16577,-166.666666666667,4,2,2,50,0,0
18867,-166.666666666667,4,2,4,50,0,0
18946,-166.666666666667,4,2,2,50,0,0
20130,-166.666666666667,4,2,4,50,0,0
20209,-166.666666666667,4,2,2,50,0,0
21551,-125,4,2,1,90,0,0
21867,-125,4,2,2,50,0,0
36709,-100,4,2,2,50,0,0
39235,-111.111111111111,4,2,3,70,0,0
49341,-111.111111111111,4,2,4,70,0,0
49419,-111.111111111111,4,2,3,70,0,0
59446,-111.111111111111,4,2,4,70,0,0
59604,-111.111111111111,4,2,3,70,0,0
69551,-111.111111111111,4,2,1,90,0,0
74604,-125,4,2,1,90,0,0
74762,-125,4,2,1,70,0,0
74919,-125,4,2,3,70,0,0
84709,-111.111111111111,4,2,5,80,0,0
84788,-111.111111111111,4,2,3,80,0,0
85025,-111.111111111111,4,2,5,80,0,0
85104,-111.111111111111,4,2,3,80,0,0
85341,-111.111111111111,4,2,5,80,0,0
85420,-111.111111111111,4,2,3,80,0,0
85656,-111.111111111111,4,2,5,80,0,0
85735,-111.111111111111,4,2,3,80,0,0
85972,-111.111111111111,4,2,5,80,0,0
86051,-111.111111111111,4,2,3,80,0,0
86288,-111.111111111111,4,2,5,80,0,0
86367,-111.111111111111,4,2,3,80,0,0
86604,-111.111111111111,4,2,5,80,0,0
86683,-111.111111111111,4,2,3,80,0,0
86919,-111.111111111111,4,2,5,80,0,0
86998,-111.111111111111,4,2,3,80,0,0
87235,-111.111111111111,4,2,5,80,0,0
87314,-111.111111111111,4,2,3,80,0,0
87551,-111.111111111111,4,2,5,80,0,0
87630,-111.111111111111,4,2,3,80,0,0
87867,-111.111111111111,4,2,5,80,0,0
87946,-111.111111111111,4,2,3,80,0,0
88183,-111.111111111111,4,2,5,80,0,0
88262,-111.111111111111,4,2,3,80,0,0
88498,-111.111111111111,4,2,5,80,0,0
88577,-111.111111111111,4,2,3,80,0,0
88814,-111.111111111111,4,2,5,80,0,0
88893,-111.111111111111,4,2,3,80,0,0
89762,-111.111111111111,4,2,5,80,0,0
89841,-111.111111111111,4,2,3,80,0,0
90077,-111.111111111111,4,2,5,80,0,0
90156,-111.111111111111,4,2,3,80,0,0
90393,-111.111111111111,4,2,5,80,0,0
90472,-111.111111111111,4,2,3,80,0,0
90709,-111.111111111111,4,2,5,80,0,0
90788,-111.111111111111,4,2,3,80,0,0
91025,-111.111111111111,4,2,5,80,0,0
91104,-111.111111111111,4,2,3,80,0,0
91341,-111.111111111111,4,2,5,80,0,0
91420,-111.111111111111,4,2,3,80,0,0
91656,-111.111111111111,4,2,5,80,0,0
91735,-111.111111111111,4,2,3,80,0,0
91972,-111.111111111111,4,2,5,80,0,0
92051,-111.111111111111,4,2,3,80,0,0
92288,-111.111111111111,4,2,5,80,0,0
92367,-111.111111111111,4,2,3,80,0,0
92604,-111.111111111111,4,2,5,80,0,0
92683,-111.111111111111,4,2,3,80,0,0
94814,-66.6666666666667,4,2,3,90,0,1
95919,-83.3333333333333,4,2,3,90,0,1
96709,-83.3333333333333,4,2,2,90,0,1
96867,-83.3333333333333,4,2,3,90,0,1
97183,-66.6666666666667,4,2,3,90,0,1
98762,-100,4,2,3,90,0,1
99156,-83.3333333333333,4,2,3,90,0,1
102393,-83.3333333333333,4,2,3,90,0,0
102551,-111.111111111111,4,2,3,90,0,0
104919,-83.3333333333333,4,2,3,90,0,1
106814,-83.3333333333333,4,2,2,90,0,1
106972,-83.3333333333333,4,2,3,90,0,1
107288,-66.6666666666667,4,2,3,90,0,1
108867,-100,4,2,3,90,0,1
109262,-83.3333333333333,4,2,3,90,0,1
110130,-100,4,2,3,90,0,1
112498,-100,4,2,3,60,0,0
117709,-111.111111111111,4,2,2,60,0,0
117867,-111.111111111111,4,2,3,60,0,0
118656,-111.111111111111,4,2,2,60,0,0
118814,-111.111111111111,4,2,3,60,0,0
120077,-111.111111111111,4,2,3,70,0,0
120235,-111.111111111111,4,2,2,70,0,0
120393,-111.111111111111,4,2,3,70,0,0
126235,-83.3333333333333,4,2,3,70,0,0
127814,-111.111111111111,4,2,3,70,0,0
131762,-83.3333333333333,4,2,3,70,0,0
132709,-83.3333333333333,4,2,3,80,0,1
133972,-83.3333333333333,4,2,3,80,0,0
136025,-100,4,2,3,80,0,0
140446,-111.111111111111,4,2,3,80,0,0
143919,-83.3333333333333,4,2,3,80,0,0
145656,-111.111111111111,4,2,3,80,0,0
147393,-166.666666666667,4,2,3,80,0,0
147867,-111.111111111111,4,2,3,80,0,0
148104,-83.3333333333333,4,2,3,80,0,0
148341,-71.4285714285714,4,2,3,80,0,0
148577,-62.5,4,2,3,80,0,0
149130,-83.3333333333333,4,2,3,80,0,0
152919,-83.3333333333333,4,2,1,90,0,0
153077,-83.3333333333333,4,2,2,50,0,0
163025,-125,4,2,1,50,0,0
163972,-125,4,2,2,50,0,0
164130,-125,4,2,1,50,0,0
164288,-125,4,2,2,50,0,0
164604,-125,4,2,1,50,0,0
164683,-125,4,2,3,50,0,0
164919,-125,4,2,1,50,0,0
165235,-125,4,2,4,50,0,0
165314,-125,4,2,1,50,0,0
167288,-125,4,2,3,50,0,0
167446,-125,4,2,1,50,0,0
167762,-125,4,2,4,50,0,0
167841,-125,4,2,1,50,0,0
169183,-125,4,2,2,50,0,0
169341,-83.3333333333333,4,2,2,50,0,0
170288,-83.3333333333333,4,2,2,70,0,0
170604,-83.3333333333333,4,2,3,90,0,1
172498,-83.3333333333333,4,2,2,90,0,1
172656,-83.3333333333333,4,2,3,90,0,1
174551,-100,4,2,3,90,0,1
174867,-83.3333333333333,4,2,3,90,0,1
175972,-100,4,2,3,90,0,1
176762,-83.3333333333333,4,2,3,90,0,1
177551,-83.3333333333333,4,2,2,90,0,1
177709,-83.3333333333333,4,2,3,90,0,1
178183,-83.3333333333333,4,2,3,90,0,0
178341,-111.111111111111,4,2,3,90,0,0
180709,-83.3333333333333,4,2,3,90,0,1
182604,-83.3333333333333,4,2,2,90,0,1
182762,-83.3333333333333,4,2,3,90,0,1
184341,-66.6666666666667,4,2,3,90,0,1
184656,-100,4,2,3,90,0,1
188288,-100,4,2,4,80,0,0
188446,-100,4,2,3,80,0,0
197762,-83.3333333333333,4,2,3,80,0,0
198393,-83.3333333333333,4,2,1,90,0,0

[Colours]
Combo1 : 247,140,140
Combo2 : 210,150,243
Combo3 : 192,249,151
Combo4 : 164,196,249

[HitObjects]
1,118,1341,6,0,P|37:110|102:86,1,101.999996887207,4|2,3:3|0:2,0:0:0:0:
148,137,1814,1,2,0:2:0:0:
75,178,1972,1,2,0:2:0:0:
137,208,2130,2,0,L|123:262,1,50.9999984436036,2|0,0:2|0:0,0:0:0:0:
314,144,2446,6,0,P|317:112|317:35,1,101.999996887207,2|2,0:2|3:2,0:0:0:0:
386,61,2919,1,2,0:2:0:0:
446,23,3077,1,2,0:2:0:0:
505,63,3235,2,0,P|509:96|515:131,2,50.9999984436036,2|2|0,0:2|0:2|0:0,0:0:0:0:
403,306,3709,6,0,P|418:294|367:188,1,152.999995330811,2|2,0:2|0:2,0:0:0:0:
324,229,4341,1,2,0:2:0:0:
329,302,4498,2,0,P|353:294|386:276,2,50.9999984436036,2|2|0,0:2|0:2|0:0,0:0:0:0:
188,377,4972,5,2,0:2:0:0:
227,161,5288,1,2,0:2:0:0:
135,320,5604,1,2,0:2:0:0:
250,235,5919,1,2,0:2:0:0:
164,250,6235,5,0,0:0:0:0:
164,250,6393,2,0,P|159:224|146:184,1,50.9999984436036,2|2,0:2|0:2,0:0:0:0:
198,148,6709,2,0,P|181:119|158:92,1,50.9999984436036,2|2,0:2|0:2,0:0:0:0:
164,35,7025,1,2,0:2:0:0:
164,35,7183,2,0,P|130:26|94:19,1,50.9999984436036,2|0,0:2|0:0,0:0:0:0:
0,98,7498,6,0,B|58:105|48:85|114:94,1,101.999996887207,2|2,0:2|3:2,0:0:0:0:
163,142,7972,1,2,0:2:0:0:
228,121,8130,1,2,0:2:0:0:
288,163,8288,1,2,0:2:0:0:
368,155,8446,2,0,P|421:175|484:192,1,101.999996887207,2|2,0:2|0:2,0:0:0:0:
299,356,9077,5,2,0:2:0:0:
289,288,9235,2,0,P|328:276|357:271,1,50.9999984436036,2|2,0:2|0:2,0:0:0:0:
458,255,9551,1,2,0:2:0:0:
464,187,9709,2,0,P|425:175|396:170,1,50.9999984436036,2|0,0:2|0:0,0:0:0:0:
408,316,10025,5,2,0:2:0:0:
342,191,10341,1,2,0:2:0:0:
372,384,10656,1,2,0:2:0:0:
367,122,10972,2,0,P|397:113|437:98,1,50.9999984436036,2|0,0:2|0:0,0:0:0:0:
421,112,11446,6,0,P|429:66|488:38,1,101.999996887207,4|2,3:3|0:2,0:0:0:0:
455,178,11919,1,2,0:2:0:0:
399,228,12077,2,0,P|429:253|458:270,1,50.9999984436036,2|2,0:2|0:2,0:0:0:0:
446,267,12551,6,0,P|388:278|330:298,1,101.999996887207,2|2,0:2|3:2,0:0:0:0:
290,335,13025,1,2,0:2:0:0:
308,230,13183,1,2,0:2:0:0:
252,273,13341,2,0,P|225:265|187:250,2,50.9999984436036,2|2|0,0:2|0:2|0:0,0:0:0:0:
11,376,13814,6,0,P|6:318|-4:258,1,101.999996887207,2|2,0:2|0:2,0:0:0:0:
44,218,14288,1,2,0:2:0:0:
110,288,14446,1,2,0:2:0:0:
118,215,14604,2,0,L|178:193,1,50.9999984436036,2|2,0:2|0:2,0:0:0:0:
165,197,14919,1,0,0:0:0:0:
393,276,15077,5,2,0:2:0:0:
236,173,15393,1,2,0:2:0:0:
319,260,15709,1,2,0:2:0:0:
311,190,16025,2,0,P|337:184|373:170,1,50.9999984436036,2|0,0:2|0:0,0:0:0:0:
367,182,16498,6,0,P|375:131|381:114,1,50.9999984436036,2|2,0:2|0:2,0:0:0:0:
266,21,16814,1,2,0:2:0:0:
194,75,16972,1,2,0:2:0:0:
261,93,17130,2,0,P|293:108|328:122,2,50.9999984436036,2|2|0,0:2|0:2|0:0,0:0:0:0:
166,6,17604,6,0,B|106:9|129:28|56:26,1,101.999996887207,2|2,0:2|3:2,0:0:0:0:
10,71,18077,1,2,0:2:0:0:
68,141,18235,1,2,0:2:0:0:
6,182,18393,2,0,P|-1:213|-12:246,1,50.9999984436036,2|2,0:2|0:2,0:0:0:0:
0,238,18867,6,0,B|88:270|46:297|148:315,1,152.999995330811,2|0,0:2|0:0,0:0:0:0:
430,369,19656,1,2,0:2:0:0:
363,344,19814,1,2,0:2:0:0:
363,344,20130,6,0,P|370:317|374:291,1,50.9999984436036,2|0,0:2|0:0,0:0:0:0:
442,280,20446,2,0,P|436:255|431:227,1,50.9999984436036,2|0,0:2|0:0,0:0:0:0:
316,195,20762,2,0,B|323:169|323:169|327:142,1,50.9999984436036,2|0,0:2|0:0,0:0:0:0:
510,84,21077,2,0,B|503:58|503:58|499:31,1,50.9999984436036,2|0,0:2|0:0,0:0:0:0:
435,73,21393,1,2,0:2:0:0:
237,0,21551,6,0,P|204:8|170:12,1,68,4|0,1:3|0:0,0:0:0:0:
133,88,21867,1,0,1:2:0:0:
133,88,22025,1,0,0:0:0:0:
40,26,22183,1,10,0:2:0:0:
0,94,22341,2,0,P|7:145|24:193,1,102,2|0,0:2|0:0,0:0:0:0:
23,192,22656,6,0,B|56:204|56:204|88:198,1,68,2|0,1:2|0:0,0:0:0:0:
212,160,22972,2,0,B|185:182|185:182|173:213,1,68,2|0,0:2|1:2,0:0:0:0:
146,347,23288,2,0,B|139:312|139:312|118:287,1,68,2|8,0:2|0:2,0:0:0:0:
39,305,23604,1,2,0:2:0:0:
43,378,23762,1,0,0:0:0:0:
222,336,23919,6,0,B|305:334|291:370|386:371,1,170,2|0,1:2|0:0,0:0:0:0:
386,371,24393,2,0,B|379:338|379:338|382:303,1,68,2|0,1:2|0:0,0:0:0:0:
448,206,24709,1,8,0:2:0:0:
507,155,24867,1,0,0:0:0:0:
379,70,25025,5,0,0:0:0:0:
338,138,25183,2,0,B|345:171|345:171|346:205,1,68,2|0,1:2|0:0,0:0:0:0:
214,196,25498,2,0,P|160:158|163:93,1,136,2|10,1:2|0:2,0:0:0:0:
168,271,25893,1,8,0:2:0:0:
168,271,25972,2,0,B|134:278|134:278|101:269,1,68,8|2,0:2|0:2,0:0:0:0:
289,355,26288,5,0,3:2:0:0:
313,353,26367,1,0,3:2:0:0:
337,351,26446,1,2,3:2:0:0:
361,349,26525,1,0,3:2:0:0:
385,347,26604,1,6,1:2:0:0:
428,282,26919,5,0,1:2:0:0:
428,282,27077,1,0,0:0:0:0:
361,126,27235,5,10,0:2:0:0:
297,71,27393,2,0,P|264:81|236:100,1,68,2|0,0:2|0:0,0:0:0:0:
46,124,27709,6,0,P|74:65|138:54,1,136,2|2,1:2|0:2,0:0:0:0:
219,227,28183,1,0,3:2:0:0:
220,239,28262,1,0,3:2:0:0:
221,252,28341,1,2,3:2:0:0:
222,266,28419,1,0,3:2:0:0:
223,278,28498,1,8,0:2:0:0:
173,350,28814,5,8,0:2:0:0:
244,384,28972,2,0,P|303:359|305:294,1,136,0|0,1:2|0:0,0:0:0:0:
427,156,29446,5,0,1:2:0:0:
367,213,29604,1,2,0:2:0:0:
351,37,29762,2,0,B|365:72|365:72|362:103,2,68,8|0|2,0:2|0:0|0:2,0:0:0:0:
304,157,30235,1,0,1:2:0:0:
73,280,30393,5,2,0:3:0:0:
131,223,30551,2,0,L|131:206,4,17,0|0|0|0|0,3:2|3:2|3:2|3:2|3:2,0:0:0:0:
186,282,30867,1,0,1:2:0:0:
133,339,31025,1,8,0:2:0:0:
133,339,31341,2,0,L|132:361,5,22.6666666666667,8|8|8|8|8|8,0:2|0:2|0:2|0:2|0:2|0:2,0:0:0:0:
186,282,31656,6,0,P|251:266|315:286,1,136,6|0,1:2|1:2,0:0:0:0:
397,235,32130,2,0,L|398:212,2,22.6666666666667,8|8|8,0:2|0:2|0:2,0:0:0:0:
473,244,32288,2,0,B|492:278|492:278|497:305,1,68,10|2,0:2|0:2,0:0:0:0:
439,139,32604,5,0,0:0:0:0:
386,77,32762,2,0,P|334:81|285:67,1,102,2|0,1:2|0:0,0:0:0:0:
286,67,33077,2,0,B|282:26|282:26|289:0,1,68,2|0,0:2|1:2,0:0:0:0:
223,131,33393,1,2,0:2:0:0:
200,49,33551,1,8,0:2:0:0:
65,213,33709,5,2,0:2:0:0:
65,213,33867,1,0,0:0:0:0:
149,208,34025,2,0,P|203:245|214:311,1,136,2|0,1:2|0:0,0:0:0:0:
297,306,34498,1,2,1:2:0:0:
267,380,34656,1,0,0:0:0:0:
414,291,34814,5,8,0:2:0:0:
390,219,34972,1,0,0:0:0:0:
414,291,35130,1,0,0:0:0:0:
509,154,35288,2,0,P|440:144|375:127,1,136,2|2,1:2|1:2,0:0:0:0:
193,84,35762,5,8,0:2:0:0:
221,77,35841,1,8,0:2:0:0:
250,70,35919,1,10,0:2:0:0:
279,63,35998,1,8,0:2:0:0:
307,56,36076,1,8,0:2:0:0:
133,160,36393,2,0,B|133:194,3,34,0|0|2|0,3:2|3:2|3:2|3:2,0:0:0:0:
50,190,36709,6,0,B|37:109|69:112|53:21,2,170,6|0|10,1:2|1:2|0:2,0:0:0:0:
256,192,37380,12,2,38446,0:2:0:0:
50,188,39235,5,4,3:2:0:0:
0,9,39393,2,0,B|96:29|42:56|158:70,1,152.999995330811,0|2,3:2|3:2,0:0:0:0:
149,64,39788,1,0,3:2:0:0:
159,60,39867,1,2,1:2:0:0:
55,224,40025,2,0,B|52:187|52:187|83:138,1,76.4999976654053,2|2,3:2|0:2,0:0:0:0:
267,70,40341,6,0,P|325:107|298:195,1,152.999995330811,2|2,3:2|3:2,0:0:0:0:
148,285,40814,1,2,0:2:0:0:
170,217,40972,1,2,3:2:0:0:
261,287,41130,1,2,1:2:0:0:
238,357,41288,1,2,3:2:0:0:
137,245,41446,1,2,0:2:0:0:
265,130,41604,5,6,3:2:0:0:
265,130,41683,2,0,B|318:157|397:170,1,114.749996498108,0|2,3:2|3:2,0:0:0:0:
240,198,42077,1,2,0:2:0:0:
396,306,42235,1,2,3:2:0:0:
215,380,42393,1,2,1:2:0:0:
240,311,42551,2,0,P|249:274|257:211,1,76.4999976654053,2|2,3:2|0:2,0:0:0:0:
467,29,42867,6,0,P|402:76|431:161,1,152.999995330811,2|2,3:2|3:2,0:0:0:0:
345,177,43341,1,2,0:2:0:0:
218,38,43498,1,2,3:2:0:0:
208,56,43577,1,0,3:2:0:0:
207,76,43656,1,2,1:2:0:0:
320,291,43814,1,2,3:2:0:0:
330,273,43893,1,0,3:2:0:0:
331,253,43972,1,2,1:2:0:0:
398,125,44130,6,0,P|307:153|234:165,1,152.999995330811,6|2,3:2|3:2,0:0:0:0:
241,158,44525,1,0,3:2:0:0:
234,153,44604,1,2,3:2:0:0:
74,238,44762,1,2,3:2:0:0:
74,221,44841,1,0,3:2:0:0:
78,209,44919,1,2,1:2:0:0:
32,87,45077,2,0,P|73:104|122:117,1,76.4999976654053,2|2,3:2|0:2,0:0:0:0:
308,248,45393,6,0,B|231:239|251:309|139:284,1,152.999995330811,2|2,3:2|3:2,0:0:0:0:
366,349,45867,1,2,0:2:0:0:
395,282,46025,1,2,3:2:0:0:
247,304,46183,2,0,P|263:353|270:391,1,76.4999976654053,2|2,1:2|3:2,0:0:0:0:
411,120,46498,1,2,0:2:0:0:
424,196,46656,5,6,3:2:0:0:
424,196,46735,2,0,P|386:203|310:86,1,191.249994163513,0|2,3:2|0:2,0:0:0:0:
367,56,47288,1,2,3:2:0:0:
271,169,47446,1,6,1:2:0:0:
114,90,47604,2,0,P|65:106|23:117,1,76.4999976654053,2|2,3:2|0:2,0:0:0:0:
20,181,47919,1,2,3:2:0:0:
199,305,48077,6,0,P|200:228|183:129,1,152.999995330811,4|2,0:2|0:2,0:0:0:0:
125,195,48551,5,2,3:2:0:0:
121,209,48630,1,0,3:2:0:0:
117,222,48709,2,0,P|105:252|94:275,1,38.2499988327027,2|0,1:3|0:0,0:0:0:0:
49,100,48867,6,0,P|22:91|-2:82,1,38.2499988327027,2|0,3:3|3:2,0:0:0:0:
227,242,49025,5,2,1:3:0:0:
282,226,49104,5,2,0:3:0:0:
320,241,49183,5,2,3:3:0:0:
389,227,49262,5,2,0:3:0:0:
395,231,49341,6,0,B|406:214|406:214|412:197,1,38.2499988327027,6|0,3:2|0:0,0:0:0:0:
462,271,49498,2,0,B|386:277|389:328|330:343,1,152.999995330811,2|2,3:2|3:2,0:0:0:0:
188,378,49972,1,2,1:2:0:0:
161,286,50130,1,2,0:2:0:0:
273,180,50288,1,2,3:2:0:0:
284,262,50446,2,0,P|232:278|188:245,1,114.749996498108,2|0,1:2|0:0,0:0:0:0:
102,200,50762,5,2,3:2:0:0:
5,317,50919,1,2,1:2:0:0:
151,345,51077,1,2,0:2:0:0:
128,272,51235,5,2,3:2:0:0:
56,259,51393,1,2,3:2:0:0:
78,328,51551,1,2,0:2:0:0:
87,286,51709,5,2,1:2:0:0:
253,124,51867,6,0,B|253:106|253:106|248:86,1,38.2499988327027,4|0,3:2|0:0,0:0:0:0:
307,177,52025,2,0,P|235:185|213:254,1,152.999995330811,2|2,3:2|3:2,0:0:0:0:
491,180,52498,2,0,B|481:141|481:141|478:104,1,76.4999976654053,2|2,1:2|0:2,0:0:0:0:
432,239,52814,1,2,3:2:0:0:
290,318,52972,6,0,P|365:331|437:356,1,152.999995330811,2|2,3:2|3:2,0:0:0:0:
409,161,53446,1,2,3:2:0:0:
340,198,53604,1,2,0:2:0:0:
184,52,53762,5,2,1:2:0:0:
341,119,53919,1,2,3:2:0:0:
183,227,54077,5,2,1:2:0:0:
241,137,54235,1,2,3:2:0:0:
241,137,54314,1,0,3:2:0:0:
241,137,54393,1,4,3:2:0:0:
160,312,54551,6,0,B|177:230|123:239|136:164,1,152.999995330811,2|0,3:2|3:2,0:0:0:0:
71,107,55025,1,2,1:2:0:0:
13,156,55183,1,2,0:2:0:0:
77,268,55341,1,0,3:2:0:0:
144,241,55498,1,2,3:2:0:0:
345,367,55656,5,2,0:2:0:0:
279,327,55814,1,2,3:2:0:0:
491,288,55972,1,2,1:2:0:0:
459,317,56130,1,2,0:2:0:0:
451,358,56288,1,2,3:2:0:0:
467,173,56446,5,2,3:2:0:0:
465,149,56525,1,0,3:2:0:0:
455,134,56604,1,2,1:2:0:0:
379,76,56762,1,2,3:2:0:0:
280,249,56919,5,4,3:2:0:0:
366,295,57077,2,0,B|366:255|366:255|357:219,1,76.4999976654053,2|0,3:2|0:0,0:0:0:0:
98,179,57393,5,2,3:2:0:0:
98,179,57472,1,0,3:2:0:0:
98,179,57551,1,0,1:2:0:0:
55,270,57709,2,0,B|127:246|133:297|204:260,1,152.999995330811,2|2,3:2|3:2,0:0:0:0:
188,87,58183,1,0,0:0:0:0:
65,57,58341,1,2,3:2:0:0:
119,106,58498,1,2,1:2:0:0:
339,49,58656,5,8,0:3:0:0:
339,49,58735,1,8,0:3:0:0:
339,49,58814,2,0,L|341:10,1,38.2499988327027,6|6,0:3|0:3,0:0:0:0:
405,147,58972,2,0,L|407:108,1,38.2499988327027,10|10,0:3|0:3,0:0:0:0:
474,219,59130,5,2,1:3:0:0:
427,279,59209,5,2,1:3:0:0:
463,329,59288,5,10,0:3:0:0:
445,376,59367,5,10,0:3:0:0:
441,382,59446,5,6,3:2:0:0:
242,268,59604,2,0,B|336:259|297:228|402:215,1,152.999995330811,2|2,3:2|3:2,0:0:0:0:
353,153,60077,1,2,1:2:0:0:
439,29,60235,2,0,P|457:77|452:120,1,76.4999976654053,2|2,0:2|3:2,0:0:0:0:
271,251,60551,6,0,P|227:171|264:97,1,152.999995330811,2|2,1:2|3:2,0:0:0:0:
309,151,61025,1,2,1:2:0:0:
163,250,61183,1,2,0:2:0:0:
297,384,61341,2,0,B|300:349|300:349|323:296,1,76.4999976654053,2|2,3:2|3:2,0:0:0:0:
272,253,61656,5,2,0:2:0:0:
234,314,61814,1,2,1:2:0:0:
83,113,61972,5,6,3:2:0:0:
148,151,62130,1,2,3:2:0:0:
15,226,62288,5,2,0:2:0:0:
14,153,62446,1,2,3:2:0:0:
146,229,62604,5,2,1:2:0:0:
81,266,62762,1,2,0:2:0:0:
83,187,62919,5,2,3:2:0:0:
281,283,63077,2,0,P|284:208|299:107,1,152.999995330811,2|2,3:2|3:2,0:0:0:0:
192,18,63551,1,2,3:2:0:0:
45,120,63709,1,2,0:2:0:0:
49,50,63867,2,0,B|89:50|89:50|137:81,1,76.4999976654053,2|2,1:2|3:2,0:0:0:0:
203,214,64183,1,2,1:2:0:0:
373,108,64341,5,2,3:2:0:0:
384,106,64419,1,0,3:2:0:0:
395,104,64498,1,2,3:3:0:0:
406,102,64577,1,10,0:3:0:0:
418,100,64656,1,10,0:3:0:0:
429,98,64735,1,10,0:3:0:0:
440,96,64814,1,10,0:3:0:0:
451,94,64893,1,10,0:3:0:0:
461,91,64972,2,0,L|466:67,2,19.1249994163513,10|10|10,0:3|0:3|0:3,0:0:0:0:
497,161,65130,5,6,1:2:0:0:
310,48,65288,2,0,B|304:84|304:84|287:136,1,76.4999976654053,2|0,3:2|0:0,0:0:0:0:
403,319,65604,2,0,P|447:272|414:180,1,152.999995330811,2|2,3:2|3:2,0:0:0:0:
184,369,66077,5,2,1:2:0:0:
249,182,66235,1,2,3:2:0:0:
302,288,66393,5,2,1:2:0:0:
219,249,66551,1,2,3:2:0:0:
226,277,66630,1,0,3:2:0:0:
230,305,66709,1,2,1:2:0:0:
380,158,66867,1,10,0:3:0:0:
373,132,66946,1,8,0:3:0:0:
368,103,67025,5,4,3:2:0:0:
297,124,67183,1,2,3:2:0:0:
336,241,67341,1,0,1:2:0:0:
409,223,67498,1,2,3:2:0:0:
250,184,67656,5,6,1:2:0:0:
479,251,67814,1,2,3:2:0:0:
354,167,67972,5,2,1:2:0:0:
384,292,68130,2,0,B|303:272|318:330|211:289,1,152.999995330811,2|2,3:2|3:2,0:0:0:0:
28,129,68604,5,2,1:2:0:0:
178,234,68762,1,2,3:2:0:0:
294,61,68919,5,6,1:2:0:0:
160,159,69077,1,2,3:2:0:0:
386,163,69235,6,0,P|350:152|315:137,1,76.4999976654053,2|2,1:2|1:2,0:0:0:0:
96,8,69551,1,4,3:2:0:0:
256,192,69630,12,0,74446,0:0:0:0:
410,51,74604,6,0,P|466:83|464:148,1,136,4|10,3:3|0:2,0:0:0:0:
387,153,75077,1,2,0:2:0:0:
358,267,75235,1,2,3:2:0:0:
291,227,75393,2,0,P|286:193|280:159,1,68,2|8,3:2|0:2,0:0:0:0:
489,225,75709,6,0,P|472:290|460:357,1,136,2|2,3:2|3:2,0:0:0:0:
293,379,76183,1,10,0:2:0:0:
234,319,76341,1,2,3:2:0:0:
34,268,76498,1,2,0:2:0:0:
97,316,76656,2,0,P|128:304|156:283,1,68,2|8,3:2|0:2,0:0:0:0:
27,176,76972,6,0,P|1:238|2:305,1,136,2|2,3:2|3:2,0:0:0:0:
1,317,77367,1,0,3:2:0:0:
0,330,77446,1,10,0:2:0:0:
56,384,77604,1,2,0:2:0:0:
156,283,77762,1,2,3:2:0:0:
186,205,77919,2,0,P|168:176|143:154,1,68,2|8,3:2|0:2,0:0:0:0:
26,34,78235,6,0,B|90:36|89:78|155:67,1,136,2|2,3:2|3:2,0:0:0:0:
218,0,78709,1,8,0:2:0:0:
318,138,78867,2,0,P|321:105|328:71,1,68,2|0,3:2|0:0,0:0:0:0:
485,75,79183,1,2,3:2:0:0:
498,72,79341,1,0,3:2:0:0:
511,69,79498,1,8,0:2:0:0:
296,225,79656,6,0,P|322:287|366:338,1,136,6|10,3:2|0:2,0:0:0:0:
442,298,80130,1,0,0:0:0:0:
256,349,80288,1,2,3:2:0:0:
198,290,80446,2,0,P|164:283|133:270,1,68,2|8,3:2|0:2,0:0:0:0:
210,187,80762,6,0,P|250:135|316:137,1,136,2|0,3:2|3:2,0:0:0:0:
481,159,81235,1,10,0:2:0:0:
452,87,81393,1,2,0:2:0:0:
372,208,81551,1,2,3:2:0:0:
308,254,81709,2,0,P|313:287|315:321,1,68,2|8,3:2|0:2,0:0:0:0:
210,187,82025,6,0,P|233:125|293:98,1,136,2|2,3:2|3:2,0:0:0:0:
365,32,82498,1,10,0:2:0:0:
444,8,82656,1,2,0:2:0:0:
512,118,82814,1,2,3:2:0:0:
473,192,82972,2,0,P|440:201|408:213,1,68,2|8,3:2|0:2,0:0:0:0:
210,187,83288,6,0,P|198:122|230:64,1,136,2|2,3:2|3:2,0:0:0:0:
157,16,83762,2,0,B|125:23|125:23|89:26,1,68,8|2,0:2|3:2,0:0:0:0:
37,192,84077,5,2,1:3:0:0:
39,203,84155,1,2,0:3:0:0:
41,214,84234,1,2,0:3:0:0:
43,225,84313,1,2,0:3:0:0:
45,237,84392,1,2,1:3:0:0:
47,248,84471,1,2,1:3:0:0:
49,259,84550,1,2,1:3:0:0:
51,270,84629,1,2,1:3:0:0:
53,281,84709,5,6,3:2:0:0:
109,327,84867,1,2,0:2:0:0:
225,209,85025,5,10,0:2:0:0:
160,244,85183,1,2,0:2:0:0:
335,366,85341,5,2,3:2:0:0:
334,293,85498,2,0,B|327:257|327:257|344:208,1,76.4999976654053,2|8,3:2|0:2,0:0:0:0:
270,64,85814,6,0,B|355:77|329:116|425:115,1,152.999995330811,2|2,3:2|3:2,0:0:0:0:
170,183,86288,2,0,P|170:146|191:97,1,76.4999976654053,10|0,0:2|0:0,0:0:0:0:
246,146,86604,1,2,3:2:0:0:
354,161,86762,2,0,P|354:198|333:247,1,76.4999976654053,2|8,3:2|0:2,0:0:0:0:
146,371,87077,6,0,P|122:303|175:234,1,152.999995330811,2|2,3:2|3:2,0:0:0:0:
175,236,87472,1,0,3:2:0:0:
188,231,87551,2,0,P|228:249|274:268,1,76.4999976654053,10|2,0:2|0:2,0:0:0:0:
233,329,87867,1,2,3:2:0:0:
85,264,88025,2,0,B|89:228|89:228|69:166,1,76.4999976654053,2|8,3:2|0:2,0:0:0:0:
0,53,88341,6,0,P|84:74|177:90,1,152.999995330811,2|2,3:2|3:2,0:0:0:0:
143,160,88814,1,12,0:2:0:0:
325,44,88972,2,0,P|368:33|408:17,1,76.4999976654053,2|0,3:2|1:2,0:0:0:0:
426,37,89209,1,0,3:2:0:0:
450,73,89288,1,8,0:3:0:0:
446,119,89367,1,8,0:3:0:0:
408,151,89446,2,0,P|379:140|353:128,1,38.2499988327027,0|8,3:2|0:3,0:0:0:0:
452,295,89604,5,4,0:3:0:0:
452,295,89683,1,4,0:3:0:0:
452,295,89762,2,0,P|464:336|461:386,1,76.4999976654053,6|2,3:2|0:2,0:0:0:0:
503,168,90077,2,0,B|419:169|454:215|351:214,1,152.999995330811,10|2,0:2|3:2,0:0:0:0:
303,256,90551,1,2,3:2:0:0:
377,322,90709,1,8,0:2:0:0:
192,371,90867,6,0,P|199:284|191:201,1,152.999995330811,2|2,3:2|3:2,0:0:0:0:
134,176,91341,2,0,P|110:221|112:264,1,76.4999976654053,10|2,0:2|3:2,0:0:0:0:
309,371,91656,2,0,P|326:331|318:274,1,76.4999976654053,10|2,0:2|3:2,0:0:0:0:
17,263,91972,5,8,0:2:0:0:
17,263,92051,1,8,0:2:0:0:
17,263,92130,2,0,B|107:269|71:316|183:317,1,152.999995330811,2|0,3:2|3:2,0:0:0:0:
273,139,92604,2,0,P|227:152|166:162,1,76.4999976654053,8|0,0:2|3:2,0:0:0:0:
380,336,92919,5,14,0:2:0:0:
259,226,93077,1,2,3:2:0:0:
398,109,93235,2,0,P|413:162|405:204,1,76.4999976654053,4|2,1:2|3:2,0:0:0:0:
254,308,93551,5,4,1:2:0:0:
244,313,93630,1,0,1:2:0:0:
235,317,93709,2,0,P|199:307|166:301,1,38.2499988327027,2|0,3:2|0:0,0:0:0:0:
152,100,93867,1,0,1:2:0:0:
142,95,93946,1,0,1:2:0:0:
133,91,94025,2,0,P|97:101|64:107,1,38.2499988327027,2|0,3:2|0:0,0:0:0:0:
0,186,94183,5,10,0:3:0:0:
14,191,94262,1,10,0:3:0:0:
27,195,94341,1,6,0:3:0:0:
39,199,94419,1,6,0:3:0:0:
69,219,94498,5,6,0:3:0:0:
115,212,94577,1,6,0:3:0:0:
163,201,94656,1,2,3:3:0:0:
210,191,94735,1,2,0:3:0:0:
257,181,94814,6,0,B|245:155|247:123|247:123|168:147|145:222|145:222|170:225|188:238,1,255.000009727478,4|0,3:1|1:2,0:0:0:0:
273,266,95288,1,2,0:2:0:0:
468,149,95446,1,2,3:2:0:0:
331,136,95604,1,2,3:2:0:0:
487,307,95762,1,0,1:2:0:0:
347,223,95919,5,6,3:2:0:0:
347,223,96235,1,2,3:2:0:0:
202,326,96393,1,0,1:2:0:0:
161,131,96551,1,2,0:2:0:0:
161,131,96630,1,0,1:2:0:0:
161,131,96709,1,0,3:2:0:0:
316,59,96867,5,2,3:2:0:0:
249,25,97025,1,0,1:2:0:0:
460,299,97183,6,0,B|488:266|520:192|468:141|468:141|424:164|421:203,1,255.000009727478,6|2,3:2|3:2,0:0:0:0:
347,223,97656,5,2,1:2:0:0:
492,384,97814,1,2,0:2:0:0:
312,384,97972,5,2,1:2:0:0:
421,203,98130,1,2,3:2:0:0:
192,295,98288,5,2,1:2:0:0:
192,295,98446,2,0,B|183:190|236:209|226:109,1,191.250007295609,6|0,3:2|0:0,0:0:0:0:
226,110,98762,2,0,P|264:92|298:66,1,85,2|0,3:2|1:2,0:0:0:0:
112,0,99077,1,2,0:2:0:0:
112,0,99156,1,0,1:2:0:0:
32,130,99314,1,0,1:2:0:0:
32,130,99393,1,2,0:2:0:0:
143,225,99551,1,0,1:2:0:0:
330,169,99709,5,4,1:3:0:0:
341,164,99788,1,8,0:3:0:0:
352,160,99867,1,6,3:2:0:0:
390,87,100183,1,0,1:2:0:0:
226,110,100341,1,0,0:0:0:0:
358,314,100498,5,2,3:2:0:0:
396,241,100656,1,2,3:2:0:0:
133,262,100814,5,0,1:2:0:0:
133,262,100972,2,0,B|110:159|164:173|139:61,1,203.999993774414,6|2,3:2|3:2,0:0:0:0:
59,130,101446,1,0,1:2:0:0:
229,228,101604,1,2,0:2:0:0:
229,228,101683,2,0,P|301:220|334:154,1,152.999995330811,0|2,1:2|3:2,0:0:0:0:
307,120,101998,5,8,0:3:0:0:
267,99,102077,1,0,3:2:0:0:
255,58,102156,1,8,0:3:0:0:
276,17,102235,1,4,0:3:0:0:
321,2,102314,1,4,0:3:0:0:
366,17,102393,5,6,0:2:0:0:
184,82,102551,2,0,P|167:156|139:227,1,152.999995330811,0|2,3:2|3:2,0:0:0:0:
142,239,102946,1,0,3:2:0:0:
145,250,103025,1,4,1:2:0:0:
79,18,103183,1,0,3:2:0:0:
79,18,103341,1,2,0:2:0:0:
46,166,103498,6,0,P|-6:115|-2:41,1,152.999995330811,4|0,3:2|3:2,0:0:0:0:
100,110,103972,1,2,1:3:0:0:
65,308,104130,1,0,3:2:0:0:
244,218,104288,5,6,1:2:0:0:
244,218,104446,1,2,1:2:0:0:
199,209,104524,1,2,1:2:0:0:
167,242,104603,1,2,1:2:0:0:
169,287,104682,1,2,0:2:0:0:
205,313,104761,1,2,1:2:0:0:
249,302,104840,1,0,1:2:0:0:
263,260,104919,6,0,B|254:174|204:154|208:65,1,203.999993774414,6|0,3:2|1:2,0:0:0:0:
272,10,105393,1,2,0:2:0:0:
430,153,105551,1,2,3:2:0:0:
393,76,105709,1,2,3:2:0:0:
368,215,105867,1,0,1:2:0:0:
512,170,106025,5,6,3:2:0:0:
512,170,106341,1,2,3:2:0:0:
489,313,106498,1,0,1:2:0:0:
331,136,106656,1,2,0:2:0:0:
331,136,106735,1,0,1:2:0:0:
331,136,106814,1,0,3:2:0:0:
173,146,106972,5,2,3:2:0:0:
280,206,107130,1,0,1:2:0:0:
14,300,107288,6,0,B|25:325|24:352|24:352|118:340|130:249|92:204,1,255.000009727478,6|2,3:2|3:2,0:0:0:0:
25,222,107762,5,2,1:2:0:0:
218,350,107919,1,2,0:2:0:0:
456,231,108077,5,2,1:2:0:0:
272,293,108235,1,2,3:2:0:0:
200,276,108393,5,2,1:2:0:0:
200,276,108551,2,0,P|181:185|246:121,1,191.250007295609,6|0,3:2|0:0,0:0:0:0:
245,121,108867,2,0,B|284:138|325:146,1,85,2|0,3:2|1:2,0:0:0:0:
129,189,109183,1,2,0:2:0:0:
129,189,109262,1,0,1:2:0:0:
62,73,109419,1,0,1:2:0:0:
62,73,109498,1,2,0:2:0:0:
193,7,109656,1,0,1:2:0:0:
154,93,109814,1,8,0:3:0:0:
371,99,109972,5,6,3:2:0:0:
453,179,110130,2,0,B|364:206|374:243|307:264,1,170,0|0,3:2|3:2,0:0:0:0:
300,258,110525,1,0,3:2:0:0:
292,253,110604,1,6,1:2:0:0:
263,40,110762,2,0,B|286:80|286:80|281:119,1,85,2|0,3:2|0:0,0:0:0:0:
164,23,111077,5,6,3:2:0:0:
164,23,111393,1,2,3:2:0:0:
192,227,111551,1,0,1:2:0:0:
67,136,111709,1,2,3:2:0:0:
281,118,111867,5,4,1:2:0:0:
281,118,112025,1,2,3:3:0:0:
299,126,112104,1,2,1:3:0:0:
317,138,112183,1,2,1:3:0:0:
337,148,112262,1,2,0:3:0:0:
356,158,112341,1,2,1:3:0:0:
375,169,112419,1,2,1:3:0:0:
394,180,112498,5,6,3:2:0:0:
346,237,112656,1,2,0:2:0:0:
446,358,112814,1,0,3:2:0:0:
448,351,113130,1,0,3:2:0:0:
252,276,113446,5,2,3:2:0:0:
304,226,113604,1,2,0:2:0:0:
204,108,113762,1,0,3:2:0:0:
195,110,114077,1,0,3:2:0:0:
186,112,114393,1,2,3:2:0:0:
117,141,114551,1,2,0:2:0:0:
90,71,114709,1,2,3:2:0:0:
158,42,114867,1,2,0:2:0:0:
77,242,115025,5,2,3:2:0:0:
20,195,115183,1,2,0:2:0:0:
63,351,115341,1,0,3:2:0:0:
61,359,115656,1,0,3:2:0:0:
279,281,115972,5,2,3:2:0:0:
209,300,116130,1,2,0:2:0:0:
296,166,116288,1,0,3:2:0:0:
293,158,116604,1,0,3:2:0:0:
291,150,116919,1,2,3:2:0:0:
394,106,117077,1,2,0:2:0:0:
324,77,117235,1,2,3:2:0:0:
363,177,117393,1,2,0:2:0:0:
176,238,117551,5,2,3:2:0:0:
196,168,117709,2,0,P|140:152|95:135,2,76.4999976654053,2|0|0,3:2|3:2|0:0,0:0:0:0:
23,278,118183,5,0,3:2:0:0:
25,270,118498,1,2,3:2:0:0:
159,383,118656,2,0,B|153:345|153:345|186:290,2,76.4999976654053,2|0|0,3:2|3:2|0:0,0:0:0:0:
87,228,119130,5,0,3:2:0:0:
94,222,119446,1,2,3:2:0:0:
161,201,119604,1,2,0:2:0:0:
244,135,119762,5,2,3:2:0:0:
315,157,119919,1,2,0:2:0:0:
453,101,120077,5,2,3:2:0:0:
394,57,120235,2,0,P|357:45|303:17,1,76.4999976654053,2|0,3:2|3:2,0:0:0:0:
390,145,120551,1,0,0:0:0:0:
480,218,120709,2,0,P|466:291|465:355,1,114.749996498108,0|0,3:2|0:0,0:0:0:0:
464,331,121025,5,2,3:2:0:0:
343,242,121183,1,2,0:2:0:0:
325,315,121341,2,0,P|279:342|235:355,1,76.4999976654053,0|0,3:2|0:0,0:0:0:0:
400,182,121656,2,0,P|388:129|452:82,1,114.749996498108,0|0,3:2|0:0,0:0:0:0:
439,79,121972,5,0,3:2:0:0:
423,72,122051,1,0,1:2:0:0:
408,63,122130,1,8,0:3:0:0:
394,50,122209,1,4,0:3:0:0:
370,19,122288,5,4,1:2:0:0:
329,41,122367,1,2,1:3:0:0:
284,58,122446,1,2,1:3:0:0:
238,66,122525,1,2,1:3:0:0:
234,72,122604,5,6,3:2:0:0:
87,109,122762,2,0,P|152:138|143:209,1,152.999995330811,2|0,3:2|3:2,0:0:0:0:
134,207,123156,5,0,3:2:0:0:
124,205,123235,1,2,1:2:0:0:
6,310,123393,1,2,3:2:0:0:
61,368,123551,1,2,0:2:0:0:
263,384,123709,6,2,B|262:333|257:308|257:308|258:299|258:299|251:271|253:231,1,152.999995330811,2|2,3:1|3:2,0:1:0:0:
259,227,124104,1,2,3:2:0:0:
266,222,124183,1,2,0:2:0:0:
176,305,124341,1,2,3:2:0:0:
337,309,124498,2,0,B|378:306|378:306|399:278,1,76.4999976654053,2|2,1:2|3:2,0:0:0:0:
335,94,124814,5,8,0:3:0:0:
260,110,124972,1,8,0:3:0:0:
399,278,125130,5,6,3:2:0:0:
469,175,125288,2,0,B|405:164|384:196|317:179,1,152.999995330811,2|2,3:2|3:2,0:0:0:0:
313,172,125683,1,2,3:2:0:0:
310,164,125762,1,2,1:2:0:0:
284,33,125919,5,2,3:2:0:0:
359,58,126077,1,2,0:2:0:0:
142,148,126235,6,2,B|118:119|118:83|118:83|116:81|116:81|118:50|136:22|136:22|180:32|189:60,1,203.999993774414,2|2,3:1|3:2,0:1:0:0:
188,67,126630,1,2,3:2:0:0:
187,75,126709,1,2,0:2:0:0:
47,122,126867,1,2,3:2:0:0:
0,240,127025,5,2,1:2:0:0:
1,284,127104,1,0,1:2:0:0:
31,317,127183,1,2,3:2:0:0:
78,320,127262,1,0,3:2:0:0:
119,294,127341,2,0,B|126:269|126:269|121:245,1,50.9999984436036,6|0,1:2|0:0,0:0:0:0:
186,359,127498,5,2,3:2:0:0:
186,359,127577,1,0,3:2:0:0:
186,359,127656,1,6,3:2:0:0:
380,210,127814,2,0,P|315:243|319:315,1,152.999995330811,2|2,3:2|3:2,0:0:0:0:
329,317,128209,5,2,3:2:0:0:
340,318,128288,1,2,1:2:0:0:
467,249,128446,1,2,3:2:0:0:
465,175,128604,1,2,0:2:0:0:
376,87,128762,6,2,B|332:97|301:93|301:93|298:96|298:96|257:94|224:101,1,152.999995330811,2|2,3:1|3:2,0:1:0:0:
224,113,129156,1,2,3:2:0:0:
223,124,129235,1,2,0:2:0:0:
308,177,129393,1,2,3:2:0:0:
291,16,129551,5,2,1:2:0:0:
219,0,129709,1,2,3:2:0:0:
139,216,129867,5,8,0:3:0:0:
139,216,130025,1,8,0:3:0:0:
199,273,130183,5,10,0:3:0:0:
217,271,130262,1,10,0:3:0:0:
235,269,130341,1,10,0:3:0:0:
252,267,130419,1,6,0:3:0:0:
282,295,130498,5,10,0:3:0:0:
318,308,130577,1,10,0:3:0:0:
357,300,130656,1,6,0:3:0:0:
381,267,130735,1,6,0:3:0:0:
377,225,130814,5,6,1:2:0:0:
224,113,130972,1,2,3:2:0:0:
281,65,131130,5,2,1:2:0:0:
40,25,131288,2,0,B|26:102|56:105|52:176,1,152.999995330811,2|8,3:2|0:3,0:0:0:0:
46,184,131683,1,8,0:3:0:0:
41,193,131762,2,0,P|44:218|47:243,1,50.9999984436036,4|0,1:2|0:0,0:0:0:0:
118,334,131919,2,0,P|114:359|111:384,1,50.9999984436036,2|0,3:2|0:0,0:0:0:0:
182,289,132077,5,0,1:2:0:0:
369,236,132235,1,0,3:2:0:0:
307,193,132393,5,0,1:2:0:0:
512,157,132551,1,2,1:3:0:0:
512,157,132630,1,2,0:3:0:0:
512,157,132709,1,4,3:1:0:0:
497,104,132788,1,2,0:2:0:0:
460,68,132867,1,2,0:2:0:0:
408,54,132946,1,2,0:2:0:0:
355,65,133025,1,2,1:2:0:0:
312,95,133104,1,2,0:2:0:0:
288,142,133183,1,2,0:2:0:0:
287,193,133262,1,2,0:2:0:0:
308,238,133341,1,2,3:2:0:0:
350,271,133419,1,2,0:2:0:0:
400,282,133498,1,2,3:2:0:0:
452,266,133577,1,2,0:2:0:0:
488,231,133656,5,2,1:2:0:0:
435,182,133735,1,2,0:2:0:0:
367,159,133814,1,6,3:2:0:0:
294,157,133893,1,2,0:2:0:0:
223,173,133972,6,0,B|195:172|167:158|167:158|164:159|164:159|136:146|105:143,1,101.999996887207,2|0,0:2|3:2,0:0:0:0:
45,158,134209,1,2,0:2:0:0:
35,162,134288,1,2,1:2:0:0:
237,97,134446,2,0,P|227:68|219:24,1,50.9999984436036,2|0,0:2|1:2,0:0:0:0:
144,283,134604,5,2,0:2:0:0:
150,296,134683,1,2,0:2:0:0:
154,309,134762,1,2,3:2:0:0:
159,322,134841,1,2,0:2:0:0:
164,337,134919,2,0,P|196:319|238:306,1,50.9999984436036,2|0,1:2|0:0,0:0:0:0:
374,152,135077,6,0,P|319:205|333:286,1,152.999995330811,6|0,3:2|0:0,0:0:0:0:
352,312,135393,1,2,3:2:0:0:
228,131,135551,1,2,1:2:0:0:
200,196,135709,1,0,3:2:0:0:
424,278,135867,1,2,0:3:0:0:
451,209,136025,2,0,B|446:168|446:168|465:108,1,85,0|0,3:2|1:2,0:0:0:0:
194,158,136341,6,0,B|100:158|133:202|27:198,1,170,6|2,3:2|3:2,0:0:0:0:
281,373,136814,2,0,P|292:320|286:271,1,85,0|2,1:2|0:2,0:0:0:0:
270,211,137051,1,0,1:2:0:0:
267,198,137130,1,0,3:2:0:0:
185,365,137288,1,2,0:2:0:0:
84,129,137446,2,0,P|73:182|79:231,1,85,0|8,1:2|0:3,0:0:0:0:
38,318,137683,1,8,0:3:0:0:
28,308,137762,6,0,P|80:250|189:252,1,170,4|2,3:2|1:2,0:0:0:0:
247,297,138235,1,2,0:2:0:0:
244,310,138314,1,2,0:2:0:0:
241,324,138393,1,0,3:2:0:0:
404,142,138551,1,2,3:2:0:0:
407,129,138630,1,2,0:2:0:0:
410,115,138709,1,2,1:2:0:0:
239,157,138867,5,6,3:2:0:0:
265,181,138946,1,2,0:2:0:0:
289,202,139025,2,0,B|331:211|331:211|364:234|364:234|431:247,1,127.5,2|2,0:2|0:2,0:0:0:0:
447,243,139341,2,0,B|423:279|423:279|429:325,1,85,0|2,1:2|0:2,0:0:0:0:
482,375,139577,1,0,0:0:0:0:
491,384,139656,1,2,0:2:0:0:
140,291,139814,5,0,3:2:0:0:
146,302,139893,1,8,0:3:0:0:
152,314,139972,1,0,3:2:0:0:
108,342,140051,1,8,0:3:0:0:
56,335,140130,1,4,0:3:0:0:
22,293,140209,1,4,0:3:0:0:
28,240,140288,5,6,3:2:0:0:
228,341,140446,2,0,B|137:325|179:294|74:265,1,152.999995330811,2|2,3:2|3:2,0:0:0:0:
90,284,140841,1,0,3:2:0:0:
86,296,140919,1,0,1:2:0:0:
292,209,141077,2,0,P|308:263|300:307,1,76.4999976654053,2|0,3:2|0:0,0:0:0:0:
41,380,141393,6,0,P|9:315|40:225,1,152.999995330811,6|0,3:2|3:2,0:0:0:0:
307,111,141867,2,0,P|351:128|413:145,1,76.4999976654053,0|0,1:2|3:2,0:0:0:0:
79,182,142183,2,0,P|35:165|-27:148,1,76.4999976654053,0|0,1:2|1:2,0:0:0:0:
3,166,142419,1,0,1:2:0:0:
0,178,142498,1,4,1:2:0:0:
170,35,142656,1,0,1:2:0:0:
178,71,142735,1,0,1:2:0:0:
187,109,142814,1,6,3:2:0:0:
369,365,143051,5,2,0:2:0:0:
415,357,143130,1,2,1:2:0:0:
446,321,143209,1,2,0:2:0:0:
442,273,143288,1,2,0:2:0:0:
410,234,143367,1,2,0:2:0:0:
403,235,143446,5,0,3:2:0:0:
156,349,143604,5,0,3:2:0:0:
37,251,143762,1,2,1:2:0:0:
295,379,143919,6,0,P|291:277|276:176,1,203.999993774414,4|2,3:2|3:2,0:0:0:0:
208,219,144393,1,0,1:2:0:0:
437,81,144630,5,0,1:2:0:0:
437,81,144709,1,2,0:2:0:0:
386,7,144867,1,2,3:2:0:0:
356,178,145025,1,0,1:2:0:0:
199,76,145183,6,0,P|121:94|110:174,1,169.999994812012,6|2,3:2|0:0,0:0:0:0:
108,182,145551,1,2,0:2:0:0:
106,191,145656,2,0,L|55:197,2,50.9999984436036,2|2|2,1:2|0:2|0:2,0:0:0:0:
208,219,145972,1,2,1:2:0:0:
188,289,146077,1,2,0:2:0:0:
245,338,146183,1,2,0:2:0:0:
249,343,146288,2,0,L|299:349,2,50.9999984436036,2|2|2,1:2|0:2|0:2,0:0:0:0:
388,295,146604,5,2,0:2:0:0:
384,253,146683,1,2,0:2:0:0:
381,210,146762,1,2,3:2:0:0:
376,166,146841,1,2,0:2:0:0:
380,160,146919,6,0,L|456:152,1,76.4999976654053,2|2,1:2|0:2,0:0:0:0:
323,20,147156,2,0,L|247:12,1,76.4999976654053,2|2,1:2|1:2,0:0:0:0:
182,60,147393,2,0,B|174:87|174:87|178:109,1,50.9999984436036,2|0,0:2|1:2,0:0:0:0:
246,11,147709,1,8,0:3:0:0:
16,128,147867,5,4,3:2:0:0:
22,132,147946,2,0,L|59:126,1,38.2499988327027,2|0,0:2|3:2,0:0:0:0:
175,196,148104,1,2,0:2:0:0:
171,203,148183,2,0,L|120:196,1,50.9999984436036,2|0,0:2|0:0,0:0:0:0:
1,296,148341,5,2,3:2:0:0:
8,302,148420,2,0,L|66:292,1,59.4999981842042,2|4,3:2|1:2,0:0:0:0:
135,344,148577,1,2,0:2:0:0:
140,351,148656,2,0,L|207:360,1,68,2|0,3:2|0:0,0:0:0:0:
278,311,148814,1,2,0:2:0:0:
284,317,148893,1,2,0:2:0:0:
290,324,148972,5,4,3:2:0:0:
481,112,149130,2,0,P|409:115|376:180,1,152.999995330811,2|2,0:2|0:2,0:0:0:0:
488,192,149446,5,0,1:2:0:0:
353,5,149604,1,2,3:2:0:0:
176,207,149762,5,6,1:2:0:0:
262,165,149919,1,2,1:2:0:0:
262,165,149998,1,0,1:2:0:0:
262,165,150077,1,0,1:2:0:0:
39,56,150235,5,0,1:2:0:0:
30,52,150314,1,0,1:2:0:0:
21,48,150393,2,0,B|21:77|27:98|27:98|26:102|26:102|31:124|31:148,1,101.999996887207,6|0,3:2|3:2,0:0:0:0:
95,254,150709,5,0,1:2:0:0:
249,75,150867,1,0,3:2:0:0:
243,312,151025,5,0,1:2:0:0:
106,106,151183,1,0,3:2:0:0:
420,71,151341,5,0,1:2:0:0:
370,135,151498,2,0,B|272:139|270:199|181:205,1,203.999993774414,4|0,3:2|3:2,0:0:0:0:
177,196,151893,1,0,3:2:0:0:
173,186,151972,1,0,1:2:0:0:
314,333,152130,5,0,1:2:0:0:
324,291,152209,1,0,1:2:0:0:
359,261,152288,1,0,1:2:0:0:
408,260,152367,1,2,0:3:0:0:
443,296,152446,1,2,3:3:0:0:
437,346,152525,1,2,3:3:0:0:
384,371,152604,5,2,1:3:0:0:
319,349,152683,5,2,0:3:0:0:
250,380,152762,5,2,0:3:0:0:
174,374,152841,5,2,0:3:0:0:
169,379,152919,5,4,3:3:0:0:
5,368,163025,6,0,P|7:297|122:251,1,204,4|2,3:3|0:3,0:0:0:0:
104,318,163656,1,8,3:2:0:0:
203,291,163814,2,0,P|227:302|276:320,1,68,0|0,0:0|3:2,0:0:0:0:
124,180,164130,6,0,P|126:108|111:30,1,136,4|0,3:3|3:2,0:0:0:0:
220,139,164604,1,4,3:3:0:0:
319,26,164762,1,0,3:2:0:0:
319,26,164841,1,0,3:2:0:0:
319,26,164919,1,8,0:2:0:0:
241,6,165077,2,0,P|222:55|218:99,1,68,0|2,0:0|0:3,0:0:0:0:
297,216,165393,1,0,0:0:0:0:
354,172,165551,6,0,P|397:121|379:34,1,136,4|0,3:3|3:2,0:0:0:0:
326,80,166025,1,2,0:3:0:0:
441,209,166183,1,8,0:2:0:0:
441,209,166498,1,2,0:3:0:0:
475,142,166656,6,0,P|444:126|411:104,1,68,0|2,3:2|0:3,0:0:0:0:
331,160,166972,2,0,P|337:205|338:251,1,68,2|0,0:3|3:2,0:0:0:0:
416,188,167288,1,0,3:2:0:0:
416,188,167367,1,0,3:2:0:0:
416,188,167446,1,8,0:2:0:0:
427,266,167604,2,0,P|466:241|503:218,1,68,0|2,0:0|0:3,0:0:0:0:
357,373,167919,1,2,0:3:0:0:
507,310,168077,6,0,B|398:279|418:358|296:309,1,204,4|0,3:3|3:2,0:0:0:0:
252,269,168709,1,8,0:2:0:0:
350,252,168867,2,0,B|356:219|356:219|335:168,1,68,2|0,0:3|0:0,0:0:0:0:
251,31,169183,1,2,3:2:0:0:
252,26,170288,5,2,0:3:0:0:
243,68,170367,1,2,0:3:0:0:
248,112,170446,1,2,0:3:0:0:
242,161,170525,1,2,0:3:0:0:
249,209,170604,6,0,B|220:147|132:134|132:134|155:177|147:209,1,203.999993774414,4|0,3:1|1:2,0:0:0:0:
258,371,171077,1,2,0:2:0:0:
368,220,171235,1,2,3:2:0:0:
308,259,171393,1,2,3:2:0:0:
450,360,171551,1,0,1:2:0:0:
419,143,171709,6,0,B|333:152|372:189|265:188,1,152.999995330811,6|0,3:2|0:0,0:0:0:0:
206,170,172025,1,2,3:2:0:0:
375,287,172183,1,0,1:2:0:0:
511,116,172341,1,2,0:2:0:0:
509,132,172419,1,0,1:2:0:0:
511,148,172498,1,0,3:2:0:0:
352,215,172656,5,2,3:2:0:0:
411,168,172814,1,0,1:2:0:0:
176,18,172972,6,0,B|92:67|101:176|187:171|163:99,1,203.999993774414,6|2,3:2|3:2,0:0:0:0:
26,24,173446,5,2,1:2:0:0:
165,111,173604,1,2,0:2:0:0:
358,109,173762,5,2,1:2:0:0:
172,191,173919,1,2,3:2:0:0:
307,53,174077,5,2,1:2:0:0:
247,314,174235,2,0,B|226:275|226:275|239:212|297:168,1,152.999995330811,6|0,3:2|0:0,0:0:0:0:
346,151,174551,2,0,P|391:175|443:196,1,85,2|0,3:2|1:2,0:0:0:0:
243,363,174867,5,2,0:2:0:0:
253,345,174946,1,0,1:2:0:0:
254,323,175025,1,0,3:2:0:0:
145,371,175183,1,2,0:2:0:0:
337,269,175341,1,0,1:2:0:0:
75,155,175498,5,4,1:3:0:0:
64,172,175577,1,8,0:3:0:0:
62,195,175656,2,0,B|159:193|121:153|223:144,1,152.999995330811,6|0,3:2|0:0,0:0:0:0:
276,159,175972,2,0,B|259:202|260:241,1,85,0|0,1:2|0:0,0:0:0:0:
401,123,176288,1,2,3:2:0:0:
188,229,176446,1,2,3:2:0:0:
49,68,176604,5,0,1:2:0:0:
204,146,176762,2,0,B|152:132|152:132|105:168|49:155,1,152.999995330811,6|0,3:2|0:0,0:0:0:0:
29,175,177077,1,2,3:2:0:0:
77,233,177235,1,0,1:2:0:0:
241,76,177393,1,2,0:2:0:0:
239,56,177472,1,0,1:2:0:0:
237,38,177551,1,0,3:2:0:0:
304,347,177709,5,2,3:2:0:0:
260,320,177788,1,8,0:3:0:0:
242,273,177867,1,0,3:2:0:0:
252,224,177946,1,8,0:3:0:0:
286,187,178025,1,4,0:3:0:0:
335,178,178104,1,4,0:3:0:0:
380,200,178183,5,6,0:2:0:0:
172,305,178341,2,0,P|247:289|344:276,1,152.999995330811,0|2,3:2|3:2,0:0:0:0:
340,284,178735,1,0,3:2:0:0:
357,292,178814,1,4,1:2:0:0:
279,137,178972,2,0,P|253:195|255:241,1,76.4999976654053,0|2,3:2|0:2,0:0:0:0:
406,384,179288,6,0,P|462:319|435:237,1,152.999995330811,4|0,3:2|3:2,0:0:0:0:
228,317,179762,5,2,1:3:0:0:
380,182,179919,1,0,3:2:0:0:
198,49,180077,5,6,1:2:0:0:
270,220,180235,2,0,P|278:193|293:166,1,38.2499988327027,2|2,1:2|1:2,0:0:0:0:
0,276,180393,5,2,1:2:0:0:
14,325,180472,1,2,0:2:0:0:
57,355,180551,1,2,1:2:0:0:
108,358,180630,1,0,1:2:0:0:
147,331,180709,6,0,B|149:305|166:281|166:281|120:280|78:317|80:382,1,203.999993774414,6|0,3:2|1:2,0:0:0:0:
55,134,181183,1,2,0:2:0:0:
270,220,181341,1,2,3:2:0:0:
243,135,181498,2,0,P|200:109|162:76,1,101.999996887207,2|0,3:2|1:2,0:0:0:0:
439,2,181814,6,0,P|372:33|366:106,1,152.999995330811,6|0,3:2|0:0,0:0:0:0:
444,123,182130,1,2,3:2:0:0:
268,4,182288,1,0,1:2:0:0:
347,197,182446,1,2,0:2:0:0:
357,201,182525,1,0,1:2:0:0:
367,204,182604,1,0,3:2:0:0:
187,202,182762,1,2,3:2:0:0:
141,269,182919,1,0,1:2:0:0:
251,375,183077,6,0,B|237:272|286:279|265:173,1,203.999993774414,6|2,3:2|3:2,0:0:0:0:
476,278,183551,5,2,1:2:0:0:
265,174,183709,1,2,0:2:0:0:
480,100,183867,5,2,1:2:0:0:
295,254,184025,1,2,3:2:0:0:
314,7,184183,5,2,1:2:0:0:
86,42,184341,2,0,B|60:108|118:160|118:160|148:150|153:115,1,191.250007295609,6|0,3:2|0:0,0:0:0:0:
215,67,184656,5,2,3:2:0:0:
0,130,184814,1,0,1:2:0:0:
0,297,184972,1,2,0:2:0:0:
33,323,185051,1,0,1:2:0:0:
71,326,185130,1,0,3:2:0:0:
106,306,185209,1,0,1:2:0:0:
125,267,185288,1,2,0:2:0:0:
153,116,185446,5,0,1:2:0:0:
153,116,185604,1,8,0:3:0:0:
426,301,185762,5,6,3:2:0:0:
352,322,185919,2,0,P|339:239|353:156,1,170,0|0,3:2|3:2,0:0:0:0:
365,156,186314,1,0,3:2:0:0:
375,157,186393,1,6,1:2:0:0:
234,131,186551,2,0,B|189:131|189:131|152:115,1,85,2|0,3:2|0:0,0:0:0:0:
85,144,186867,5,6,3:2:0:0:
85,144,187183,1,2,3:2:0:0:
165,380,187341,1,0,1:2:0:0:
253,215,187498,1,2,3:2:0:0:
2,288,187656,1,4,1:2:0:0:
131,246,187814,5,2,3:3:0:0:
141,242,187893,1,2,1:3:0:0:
139,251,187972,1,2,1:3:0:0:
63,242,188051,5,2,0:3:0:0:
28,182,188130,5,2,1:3:0:0:
55,117,188209,5,2,1:3:0:0:
61,114,188288,5,6,3:2:0:0:
291,68,188446,2,0,B|207:68|223:18|136:6,1,170,2|2,3:2|3:2,0:0:0:0:
129,16,188841,1,0,3:2:0:0:
124,27,188919,1,2,1:2:0:0:
344,189,189077,1,2,3:2:0:0:
340,0,189235,1,2,0:2:0:0:
412,250,189393,6,0,P|477:201|470:119,1,170,2|2,3:2|3:2,0:0:0:0:
390,113,189867,1,2,0:2:0:0:
246,190,190025,1,2,3:2:0:0:
294,254,190183,1,2,1:2:0:0:
212,17,190341,1,2,3:2:0:0:
212,17,190498,1,2,0:2:0:0:
32,190,190656,5,6,3:2:0:0:
32,190,190735,2,0,P|28:126|15:64,1,127.5,0|2,3:2|3:2,0:0:0:0:
102,266,191130,1,2,0:2:0:0:
102,266,191288,1,2,3:2:0:0:
312,354,191446,1,2,1:2:0:0:
215,269,191604,2,0,B|295:261|284:217|368:201,1,170,2|2,3:2|3:2,0:0:0:0:
485,282,192077,5,0,0:0:0:0:
485,282,192235,2,0,P|490:324|471:362,1,85,2|2,3:2|0:2,0:0:0:0:
368,202,192551,1,2,3:2:0:0:
370,157,192630,1,0,3:2:0:0:
403,134,192709,1,2,1:3:0:0:
409,140,192788,5,2,0:3:0:0:
340,140,192867,5,2,3:3:0:0:
292,91,192946,5,2,3:3:0:0:
276,21,193025,6,0,L|274:-1,3,21.25,2|0|0|0,1:3|0:0|0:0|0:0,0:0:0:0:
229,0,193183,6,0,P|151:33|68:51,1,170,6|2,3:2|3:2,0:0:0:0:
65,64,193577,1,0,3:2:0:0:
63,77,193656,1,2,0:2:0:0:
191,241,193814,1,2,3:2:0:0:
198,233,193893,1,0,3:2:0:0:
203,223,193972,1,2,1:2:0:0:
202,145,194130,1,2,3:2:0:0:
35,157,194288,5,2,0:2:0:0:
35,157,194446,2,0,P|10:214|33:272,1,127.5,2|0,3:2|0:0,0:0:0:0:
107,266,194762,1,2,3:2:0:0:
101,192,194919,1,2,0:2:0:0:
28,360,195077,1,2,3:2:0:0:
252,382,195235,1,2,1:2:0:0:
199,330,195393,1,2,3:2:0:0:
399,190,195551,5,2,0:2:0:0:
408,274,195709,1,6,3:2:0:0:
408,274,195788,2,0,P|347:283|305:239,1,127.5,0|2,3:2|3:2,0:0:0:0:
454,108,196183,5,2,0:2:0:0:
482,34,196341,1,2,3:2:0:0:
246,52,196498,5,6,1:2:0:0:
218,192,196656,1,2,3:2:0:0:
112,97,196814,5,2,0:2:0:0:
305,239,196972,2,0,B|299:154|341:157|337:74,1,170,2|2,3:2|3:2,0:0:0:0:
196,116,197446,1,2,0:2:0:0:
31,300,197604,5,2,3:2:0:0:
41,295,197683,1,0,3:2:0:0:
52,289,197762,2,0,P|45:264|36:240,1,50.9999984436036,4|2,1:2|0:3,0:0:0:0:
135,333,197919,2,0,P|141:357|150:381,1,50.9999984436036,2|2,3:3|3:3,0:0:0:0:
336,369,198077,5,2,1:3:0:0:
406,353,198156,5,2,0:3:0:0:
431,285,198235,5,2,3:3:0:0:
401,219,198314,5,2,0:3:0:0:
393,218,198393,5,6,3:3:0:0:
