osu file format v14

[General]
AudioFilename: audio.mp3
AudioLeadIn: 0
PreviewTime: 82981
Countdown: 0
SampleSet: Normal
StackLeniency: 0.7
Mode: 0
LetterboxInBreaks: 0
WidescreenStoryboard: 1

[Editor]
Bookmarks: 6899,20746,34592,48438,62284,76130,96899,110746,131515,145361,159207,173053,186899,200746,214592,228438,245746
DistanceSpacing: 0.6
BeatDivisor: 4
GridSize: 4
TimelineZoom: 1

[Metadata]
Title:Unrequited
TitleUnicode:Unrequited
Artist:Powerless feat. Sennzai
ArtistUnicode:Powerless feat. Sennzai
Creator:VINXIS
Version:Reunion
Source:
Tags:xlni RLC fanzhen fanzhen0019 MuryokuP
BeatmapID:1162811
BeatmapSetID:543109

[Difficulty]
HPDrainRate:6
CircleSize:4
OverallDifficulty:9.2
ApproachRate:9.4
SliderMultiplier:1.8
SliderTickRate:1

[Events]
//Background and Video events
0,0,"58615824_p0.jpg",0,0
//Break Periods
2,72869,75590
2,110946,117129
2,200946,207129
2,207869,212321
//Storyboard Layer 0 (Background)
//Storyboard Layer 1 (Fail)
//Storyboard Layer 2 (Pass)
//Storyboard Layer 3 (Foreground)
//Storyboard Sound Samples

[TimingPoints]
6900,288.461538461538,3,1,1,50,1,0
6900,-100,3,1,1,50,0,0
34592,-133.333333333333,3,3,1,35,0,0
40649,-100,3,3,1,35,0,0
41515,-133.333333333333,3,3,1,35,0,0
46707,-100,3,3,1,35,0,0
48438,-133.333333333333,3,3,1,35,0,0
51611,-117.647058823529,3,3,1,35,0,0
51899,-133.333333333333,3,3,1,35,0,0
58534,-117.647058823529,3,3,1,35,0,0
58823,-133.333333333333,3,3,1,35,0,0
62284,-133.333333333333,3,2,2,42,0,0
76130,-100,3,1,1,50,0,0
83053,-90.9090909090909,3,1,1,50,0,1
107284,-200,3,1,1,50,0,0
117669,-200,3,2,1,30,0,0
145361,-200,3,2,4,30,0,0
159207,-166.666666666667,3,3,2,30,0,0
159351,-166.666666666667,3,3,4,30,0,0
162669,-142.857142857143,3,3,4,30,0,0
169015,-117.647058823529,3,3,4,30,0,0
172188,-200,3,2,1,50,0,0
173053,-76.9230769230769,3,1,1,50,0,0
186899,-100,3,1,1,50,0,0
200746,-100,3,2,1,50,0,0
212861,-100,3,1,1,50,0,0
214592,-83.3333333333333,3,1,1,50,0,1
224976,-100,3,1,1,50,0,0
228438,-100,3,1,1,50,0,1
231899,-76.9230769230769,3,1,1,50,0,0

[Colours]
Combo1 : 0,185,194
Combo2 : 153,104,96
Combo3 : 255,35,0
Combo4 : 68,79,102
Combo5 : 7,73,203
Combo6 : 153,119,96
Combo7 : 255,106,0
Combo8 : 58,90,92

[HitObjects]
256,192,3726,12,8,6034,0:0:0:0:
333,113,6899,6,0,P|404:123|499:45,1,180,4|8,0:0|0:3,0:0:0:0:
233,55,7332,1,8,0:3:0:0:
293,206,7476,2,0,P|346:218|402:225,1,90,4|4,0:3|0:3,0:0:0:0:
176,266,7765,22,0,B|116:289|116:289|92:334|92:334|24:363,1,180,8|2,0:0|0:2,0:0:0:0:
343,41,8342,2,0,P|352:94|358:142,1,90,2|2,0:2|2:2,0:0:0:0:
391,289,8630,21,4,0:2:0:0:
202,203,8774,1,8,0:3:0:0:
202,203,9063,2,0,P|197:160|181:109,1,90,8|4,0:3|0:3,0:0:0:0:
96,34,9351,1,4,0:3:0:0:
290,221,9496,22,2,B|187:229|240:276|115:289,1,180,8|2,0:1|0:1,0:1:0:0:
290,324,9928,1,0,0:0:0:0:
290,324,10000,1,0,0:0:0:0:
290,324,10073,1,10,0:1:0:0:
384,175,10217,1,10,0:0:0:0:
417,347,10361,21,4,0:0:0:0:
290,221,10505,2,0,L|300:125,1,90,8|8,0:3|0:3,0:0:0:0:
444,14,10794,2,0,P|498:83|436:183,1,180,4|4,0:3|0:3,0:0:0:0:
166,156,11226,22,0,L|314:127,1,135,8|0,0:0|0:0,0:0:0:0:
317,111,11515,1,2,0:2:0:0:
239,331,11659,1,2,0:2:0:0:
366,220,11803,2,0,L|274:236,1,90,10|2,0:2|2:0,0:0:0:0:
112,17,12092,21,4,0:2:0:0:
257,146,12236,2,0,P|282:101|284:47,1,90,8|8,0:3|0:3,0:0:0:0:
115,132,12524,2,0,B|74:180|74:180|108:322,1,180,4|4,0:3|0:3,0:0:0:0:
198,75,12957,21,8,0:0:0:0:
36,97,13101,1,2,0:1:0:0:
36,97,13174,1,0,0:0:0:0:
36,97,13246,1,8,0:0:0:0:
296,158,13390,1,2,0:1:0:0:
92,162,13534,1,8,0:3:0:0:
237,100,13678,1,4,0:3:0:0:
167,349,13823,22,0,B|158:291|158:291|187:241|187:241|178:164,1,180,4|8,0:0|0:3,0:0:0:0:
262,316,14255,1,8,0:3:0:0:
11,238,14399,2,0,P|59:218|107:220,1,90,4|4,0:3|0:3,0:0:0:0:
328,266,14688,22,0,P|388:280|489:218,1,180,8|2,0:0|0:2,0:0:0:0:
133,78,15265,2,0,L|230:113,1,90,2|2,0:2|2:0,0:0:0:0:
388,172,15553,21,4,0:2:0:0:
116,321,15698,1,8,0:3:0:0:
116,321,15986,1,8,0:3:0:0:
138,204,16130,1,4,0:3:0:0:
43,135,16274,1,4,0:3:0:0:
219,40,16419,22,2,L|236:149,1,90,8|2,0:1|0:1,0:1:0:0:
446,290,16707,1,2,0:1:0:0:
333,271,16851,1,0,0:0:0:0:
333,271,16924,1,0,0:0:0:0:
333,271,16996,1,10,0:0:0:0:
350,149,17140,1,10,0:1:0:0:
465,171,17284,21,4,0:0:0:0:
246,50,17428,2,0,B|237:94|237:94|260:143,1,90,8|0,0:0|0:0,0:0:0:0:
188,351,17717,2,0,B|197:307|197:307|174:258,1,90,4|0,0:3|0:0,0:0:0:0:
88,98,18005,1,4,0:3:0:0:
238,212,18149,22,2,L|77:237,1,135,8|2,0:1|0:1,0:1:0:0:
76,238,18438,1,2,0:2:0:0:
267,304,18582,1,2,0:2:0:0:
316,130,18726,2,0,L|216:117,1,90,10|2,0:1|2:0,0:0:0:0:
145,102,19015,101,4,0:2:0:0:
339,236,19159,1,0,3:0:0:0:
354,244,19448,21,4,0:2:0:0:
131,100,19592,1,0,3:0:0:0:
117,96,19880,21,10,0:1:0:0:
316,130,20024,1,0,3:0:0:0:
72,172,20169,21,10,0:1:0:0:
333,127,20313,1,0,3:0:0:0:
42,59,20457,21,2,0:1:0:0:
349,125,20601,1,4,3:3:0:0:
100,319,20746,102,0,B|212:342|212:342|273:318,1,180,4|4,0:0|0:3,0:0:0:0:
262,42,21178,1,4,0:3:0:0:
195,151,21323,2,0,B|191:197|191:197|204:240,1,90,8|4,0:3|0:3,0:0:0:0:
452,172,21611,22,0,B|405:162|366:182|366:182|324:203|276:186,2,180,8|2|2,0:0|0:2|0:2,0:0:0:0:
420,274,22332,1,2,2:0:0:0:
320,90,22476,21,4,0:2:0:0:
288,367,22621,1,4,0:3:0:0:
288,367,22909,2,0,P|292:311|283:275,1,90,4|8,0:3|0:3,0:0:0:0:
99,195,23198,1,4,0:3:0:0:
251,25,23342,22,2,P|336:1|407:53,1,180,8|2,0:1|0:1,0:1:0:0:
399,295,23774,1,0,0:0:0:0:
399,295,23847,1,0,0:0:0:0:
399,295,23919,1,10,0:1:0:0:
320,90,24063,1,10,0:1:0:0:
491,193,24207,21,4,0:0:0:0:
194,246,24351,2,0,P|184:202|187:157,1,90,4|4,0:3|0:3,0:0:0:0:
310,341,24640,2,0,B|246:340|246:340|204:353|204:353|129:352,1,180,8|4,0:3|0:3,0:0:0:0:
305,191,25073,22,0,L|449:192,1,135,8|0,0:0|0:0,0:0:0:0:
469,192,25361,1,2,0:2:0:0:
295,317,25505,1,2,0:2:0:0:
342,66,25649,1,10,0:2:0:0:
342,66,25938,21,4,0:2:0:0:
295,317,26082,2,0,P|213:325|124:270,1,180,4|4,0:3|0:3,0:0:0:0:
90,154,26515,2,0,P|134:149|178:156,1,90,8|4,0:3|0:3,0:0:0:0:
27,315,26803,21,8,0:0:0:0:
69,52,26948,1,2,0:1:0:0:
69,52,27020,1,0,0:0:0:0:
69,52,27092,1,8,0:0:0:0:
136,265,27236,1,2,0:1:0:0:
271,75,27380,1,8,0:3:0:0:
55,177,27524,1,4,0:3:0:0:
294,189,27669,22,0,P|373:178|478:202,1,180,4|4,0:0|0:3,0:0:0:0:
194,120,28101,2,0,P|229:93|271:76,1,90,4|8,0:3|0:3,0:0:0:0:
481,52,28390,1,4,0:3:0:0:
188,3,28534,21,8,0:0:0:0:
481,52,28823,1,2,0:2:0:0:
10,85,29111,2,0,L|115:87,1,90,2|2,0:2|2:0,0:0:0:0:
371,96,29399,21,4,0:2:0:0:
150,252,29544,1,4,0:3:0:0:
150,252,29832,1,4,0:3:0:0:
217,359,29976,1,8,0:3:0:0:
328,296,30121,1,4,0:3:0:0:
472,379,30265,22,2,L|482:191,1,180,8|2,0:1|0:1,0:1:0:0:
481,199,30625,1,8,0:0:0:0:
481,199,30698,1,0,0:0:0:0:
328,296,30842,1,10,0:1:0:0:
293,111,30986,1,10,0:1:0:0:
188,354,31130,21,4,0:0:0:0:
278,80,31274,2,0,P|187:54|94:95,1,180,8|4,0:0|0:3,0:0:0:0:
392,209,31707,2,0,L|517:195,1,90,8|4,0:3|0:3,0:0:0:0:
196,176,31996,22,2,L|185:265,1,90,8|2,0:1|0:1,0:1:0:0:
262,50,32284,1,2,0:2:0:0:
100,110,32428,1,2,0:2:0:0:
361,187,32573,2,0,L|523:168,1,135,10|0,0:1|0:0,0:0:0:0:
495,171,32861,101,12,0:2:0:0:
251,343,33005,2,0,P|208:358|164:363,1,90,0|0,3:0|3:0,0:0:0:0:
259,48,33294,21,12,0:2:0:0:
430,292,33438,2,0,P|445:334|450:378,1,90,0|0,3:0|3:0,0:0:0:0:
218,197,33726,21,10,0:1:0:0:
426,116,33871,1,0,3:0:0:0:
261,308,34015,21,10,0:0:0:0:
287,65,34159,1,0,3:0:0:0:
351,372,34303,21,10,0:0:0:0:
199,172,34448,1,8,1:0:0:0:
392,11,34592,102,0,P|436:32|496:100,1,135.000005149842,4|0,1:0|0:0,0:0:0:0:
271,190,35024,2,0,P|319:169|395:101,1,135.000005149842,0|0,1:0|1:0,0:0:0:0:
130,191,35457,1,8,0:1:0:0:
382,116,35746,2,0,P|369:163|365:192,1,67.5000025749208,2|0,0:2|0:0,0:0:0:0:
386,286,36034,2,0,P|409:318|440:342,1,67.5000025749208,2|0,0:2|0:0,0:0:0:0:
286,251,36323,22,0,B|206:268|254:287|143:315,1,135.000005149842,0|0,1:0|0:0,0:0:0:0:
15,219,36755,2,0,P|58:222|91:228,1,67.5000025749208,0|0,1:0|0:0,0:0:0:0:
39,315,37044,1,0,1:0:0:0:
286,251,37188,2,0,P|282:190|269:103,2,135.000005149842,8|2|2,0:1|0:2|1:2,0:0:0:0:
492,134,38053,22,0,P|424:128|359:111,1,135.000005149842,0|0,1:0|0:0,0:0:0:0:
131,222,38486,2,0,P|170:213|207:210,1,67.5000025749208,0|0,1:0|0:0,0:0:0:0:
361,205,38774,1,0,1:0:0:0:
268,45,38919,1,8,0:1:0:0:
268,45,39207,2,0,P|279:82|276:123,1,67.5000025749208,2|0,0:2|0:0,0:0:0:0:
92,85,39496,2,0,P|107:39|134:11,1,67.5000025749208,2|0,0:2|0:0,0:0:0:0:
181,140,39784,22,0,B|185:223|160:198|166:289,1,135.000005149842,0|0,1:0|0:0,0:0:0:0:
326,254,40217,2,0,P|292:257|254:253,1,67.5000025749208,0|0,1:0|0:0,0:0:0:0:
87,169,40505,1,0,1:0:0:0:
423,146,40649,2,0,L|272:166,1,135,8|0,0:1|0:0,0:0:0:0:
219,134,40938,1,8,0:1:0:0:
417,232,41082,1,8,0:0:0:0:
322,75,41226,1,4,0:0:0:0:
304,329,41371,1,4,0:0:0:0:
100,184,41515,22,0,P|152:184|229:117,1,135.000005149842,0|0,1:0|0:0,0:0:0:0:
336,305,41948,2,0,P|269:300|217:258,1,135.000005149842,0|0,1:0|1:0,0:0:0:0:
379,39,42380,1,8,0:1:0:0:
217,258,42669,2,0,P|211:303|203:330,1,67.5000025749208,2|0,0:2|0:0,0:0:0:0:
230,162,42957,2,0,P|236:207|244:234,1,67.5000025749208,2|0,0:2|0:0,0:0:0:0:
259,87,43246,22,0,P|221:112|129:146,1,135.000005149842,0|0,1:0|0:0,0:0:0:0:
328,158,43678,2,0,P|366:173|392:190,1,67.5000025749208,0|0,1:0|0:0,0:0:0:0:
354,66,43967,1,0,1:0:0:0:
245,203,44111,2,0,P|235:269|229:337,2,135.000005149842,8|2|2,0:1|0:2|1:2,0:0:0:0:
61,312,44976,1,0,1:0:0:0:
61,312,45265,1,0,0:0:0:0:
175,266,45409,1,0,1:0:0:0:
136,151,45553,1,0,0:0:0:0:
18,190,45698,1,0,1:0:0:0:
287,172,45842,21,8,0:1:0:0:
287,172,46130,2,0,P|282:235|277:267,1,67.5000025749208,2|0,0:2|0:0,0:0:0:0:
376,338,46419,2,0,P|379:275|386:212,1,101.250003862381,2|0,0:2|0:0,0:0:0:0:
387,240,46707,21,0,1:0:0:0:
201,204,46851,1,8,0:1:0:0:
269,348,46996,1,0,1:0:0:0:
327,91,47140,1,8,0:1:0:0:
327,91,47428,1,0,1:0:0:0:
110,202,47573,37,8,0:1:0:0:
393,143,47717,1,0,1:0:0:0:
207,362,47861,69,8,0:1:0:0:
151,104,48005,1,8,0:3:0:0:
24,238,48149,1,4,0:3:0:0:
249,275,48294,1,4,0:3:0:0:
174,81,48438,22,0,P|107:81|46:111,1,135.000005149842,4|0,1:0|0:0,0:0:0:0:
386,166,48871,2,0,P|319:165|258:135,1,135.000005149842,0|0,1:0|1:0,0:0:0:0:
471,109,49303,1,12,0:2:0:0:
144,200,49592,2,0,L|152:284,1,67.5000025749208,2|0,1:2|0:0,0:0:0:0:
169,377,49880,1,2,0:2:0:0:
68,40,50169,21,0,1:0:0:0:
171,115,50313,2,0,B|121:111|121:111|89:128|89:128|40:124,1,135.000005149842,0|0,1:0|1:0,0:0:0:0:
244,55,50746,2,0,P|215:36|184:25,1,67.5000025749208,2|0,0:2|1:0,0:0:0:0:
264,265,51034,2,0,P|295:253|323:235,1,67.5000025749208,12|0,0:2|1:0,0:0:0:0:
254,164,51323,1,2,0:2:0:0:
254,164,51467,1,0,1:0:0:0:
469,164,51611,102,0,L|460:288,1,114.750002188683,12|0,0:2|0:0,0:0:0:0:
460,278,51899,37,0,1:0:0:0:
354,157,52044,2,0,P|318:92|316:26,1,135.000005149842,0|0,1:0|1:0,0:0:0:0:
317,252,52476,2,0,P|286:230|266:207,1,67.5000025749208,2|0,0:2|1:0,0:0:0:0:
184,69,52765,2,0,L|36:85,1,135.000005149842,12|2,0:2|1:2,0:0:0:0:
314,32,53342,1,10,0:2:0:0:
113,291,53630,22,0,P|92:227|105:161,1,135.000005149842,0|0,1:0|0:0,0:0:0:0:
242,232,54063,2,0,P|254:297|234:361,1,135.000005149842,0|0,1:0|1:0,0:0:0:0:
184,69,54496,1,12,0:2:0:0:
278,56,54784,1,2,1:2:0:0:
372,43,55073,2,0,L|440:59,1,67.5000025749208,2|0,0:2|0:0,0:0:0:0:
283,216,55361,21,0,1:0:0:0:
442,333,55505,2,0,B|459:287|459:287|450:181,1,135.000005149842,0|0,1:0|1:0,0:0:0:0:
437,58,55938,1,2,0:2:0:0:
368,275,56082,1,0,1:0:0:0:
163,138,56226,21,12,0:2:0:0:
357,138,56371,1,0,1:0:0:0:
357,138,56659,21,0,1:0:0:0:
110,18,56803,1,10,0:2:0:0:
110,18,57092,21,0,1:0:0:0:
175,170,57236,2,0,L|150:331,1,135.000005149842,0|0,1:0|1:0,0:0:0:0:
56,318,57669,2,0,P|54:284|66:253,1,67.5000025749208,2|0,0:2|1:0,0:0:0:0:
378,295,57957,21,12,0:2:0:0:
158,307,58101,1,0,1:0:0:0:
158,307,58390,5,0,1:0:0:0:
378,295,58534,2,0,L|393:149,1,114.750002188683,14|0,0:2|0:0,0:0:0:0:
400,99,58823,37,0,1:0:0:0:
241,160,58967,2,0,P|208:169|175:170,1,67.5000025749208,0|2,1:0|0:2,0:0:0:0:
125,52,59255,2,0,P|159:53|192:62,1,67.5000025749208,0|2,1:0|0:2,0:0:0:0:
61,137,59544,1,0,1:0:0:0:
311,32,59688,22,0,L|461:51,1,135.000005149842,12|2,0:2|1:2,0:0:0:0:
61,137,60265,1,10,0:2:0:0:
353,263,60553,21,0,1:0:0:0:
249,346,60698,2,0,P|236:316|232:282,1,67.5000025749208,8|2,0:1|0:2,0:0:0:0:
235,103,60986,21,0,1:0:0:0:
438,254,61130,2,0,P|434:287|420:318,1,67.5000025749208,10|0,0:2|0:0,0:0:0:0:
352,56,61419,21,12,0:2:0:0:
512,158,61563,1,8,0:0:0:0:
353,263,61707,1,8,0:0:0:0:
470,36,61851,21,0,1:0:0:0:
221,122,61996,1,8,0:0:0:0:
459,230,62140,1,8,0:0:0:0:
285,332,62284,22,0,P|262:295|281:199,1,135.000005149842,4|2,1:0|0:2,0:0:0:0:
482,263,62717,2,0,B|431:253|431:253|400:269|400:269|339:261,1,135.000005149842,0|2,1:0|1:2,0:0:0:0:
132,152,63149,2,0,L|212:140,1,67.5000025749208,10|0,3:3|0:0,0:0:0:0:
369,178,63438,2,0,L|289:190,1,67.5000025749208,2|0,3:2|0:0,0:0:0:0:
68,181,63726,2,0,L|190:165,1,101.250003862381,4|0,3:2|0:0,0:0:0:0:
254,115,64015,22,0,P|249:82|242:32,1,67.5000025749208,2|0,1:3|0:0,0:0:0:0:
140,64,64303,1,2,3:2:0:0:
172,256,64448,2,0,L|188:372,1,101.250003862381,0|0,1:0|0:0,0:0:0:0:
185,356,64736,1,2,1:2:0:0:
401,182,64880,2,0,P|352:156|265:160,2,135.000005149842,12|2|8,0:2|0:3|0:0,0:0:0:0:
299,284,65601,1,0,1:2:0:0:
210,96,65746,22,0,P|244:78|287:72,1,67.5000025749208,2|0,1:3|0:0,0:0:0:0:
166,193,66034,1,2,3:2:0:0:
114,103,66178,2,0,P|123:61|143:25,1,67.5000025749208,0|0,1:0|0:0,0:0:0:0:
166,193,66467,1,2,1:2:0:0:
48,209,66611,2,0,P|34:177|22:72,1,135.000005149842,10|2,0:3|0:2,1:0:0:0:
446,275,67188,2,0,P|462:224|457:153,1,101.250003862381,4|0,3:2|0:0,0:0:0:0:
313,249,67476,22,0,L|446:275,1,135.000005149842,2|2,1:3|0:2,0:0:0:0:
245,213,67909,2,0,L|377:238,1,135.000005149842,0|2,1:0|1:2,0:0:0:0:
407,69,68342,1,12,0:2:0:0:
407,69,68630,1,2,3:2:0:0:
317,226,68774,1,2,1:2:0:0:
424,175,68919,1,2,3:3:0:0:
304,45,69063,1,2,1:2:0:0:
246,146,69207,22,0,P|185:172|112:176,1,135.000005149842,2|2,1:3|0:2,0:0:0:0:
246,146,69640,1,0,1:0:0:0:
93,81,69784,2,0,P|58:74|10:78,1,67.5000025749208,0|2,3:0|1:2,0:0:0:0:
15,252,70073,2,0,P|50:259|98:255,1,67.5000025749208,10|0,0:3|0:0,0:0:0:0:
274,243,70361,2,0,P|239:247|200:260,1,67.5000025749208,2|0,3:2|0:0,0:0:0:0:
16,282,70649,2,0,P|56:280|119:246,1,101.250003862381,4|0,3:2|0:0,0:0:0:0:
152,119,70938,22,0,L|166:208,1,67.5000025749208,2|0,1:3|0:0,0:0:0:0:
189,322,71226,1,2,3:2:0:0:
453,315,71371,2,0,L|467:186,1,101.250003862381,0|0,1:0|0:0,0:0:0:0:
463,214,71659,1,2,1:2:0:0:
311,275,71803,2,0,L|321:111,1,135.000005149842,12|2,0:2|0:3,0:0:0:0:
189,322,72236,1,2,0:2:0:0:
189,322,72308,1,2,0:2:0:0:
189,322,72380,1,8,0:0:0:0:
162,185,72524,1,2,1:2:0:0:
29,363,72669,69,4,1:0:0:0:
174,105,76130,6,0,L|181:194,1,90,4|8,0:1|0:0,0:0:0:0:
195,375,76419,1,0,0:3:0:0:
338,105,76563,6,0,L|330:194,1,90,12|0,0:2|0:0,0:0:0:0:
317,375,76852,1,0,0:0:0:0:
181,194,76996,5,10,0:0:0:0:
429,270,77140,1,2,0:2:0:0:
82,270,77284,5,10,0:0:0:0:
330,194,77428,1,2,0:2:0:0:
119,16,77573,1,10,0:0:0:0:
119,16,77861,5,4,0:0:0:0:
79,299,78005,2,0,P|123:305|168:301,1,90,8|0,0:0|0:0,0:0:0:0:
390,88,78294,5,4,0:2:0:0:
123,103,78438,2,0,P|118:147|125:192,1,90,8|0,0:0|0:0,0:0:0:0:
411,73,78726,6,0,L|263:81,1,135,10|2,0:0|0:2,0:0:0:0:
98,0,79015,2,0,L|246:8,1,135,10|2,0:0|0:2,0:0:0:0:
124,191,79303,2,0,P|118:147|123:103,1,90,10|2,0:0|0:2,0:0:0:0:
317,289,79592,22,0,L|228:282,1,90,12|0,0:0|0:0,0:0:0:0:
47,268,79881,1,0,0:0:0:0:
317,125,80025,6,0,L|228:133,1,90,12|0,0:2|0:0,0:0:0:0:
47,146,80314,1,0,0:0:0:0:
228,282,80458,5,10,0:0:0:0:
152,34,80602,1,2,0:2:0:0:
152,381,80746,5,10,0:0:0:0:
228,133,80890,1,2,0:2:0:0:
406,344,81035,1,10,0:0:0:0:
406,344,81323,5,4,0:0:0:0:
123,384,81467,2,0,P|117:340|121:295,1,90,8|0,0:0|0:0,0:0:0:0:
407,118,81756,5,4,0:2:0:0:
319,340,81899,2,0,P|275:345|230:338,1,90
416,116,82188,5,2,0:1:0:0:
436,165,82260,1,2,0:2:0:0:
441,218,82332,1,2,0:2:0:0:
418,266,82404,1,2,0:2:0:0:
372,297,82476,1,2,0:1:0:0:
318,304,82548,1,2,0:2:0:0:
266,290,82620,1,2,0:1:0:0:
225,256,82692,1,2,0:2:0:0:
185,219,82764,5,2,0:1:0:0:
134,200,82837,1,2,0:2:0:0:
81,202,82909,1,2,0:1:0:0:
33,228,82981,1,2,0:2:0:0:
0,270,83053,22,0,P|16:171|13:70,1,198.000006042481,4|8,0:0|0:3,0:0:0:0:
289,198,83486,1,8,0:3:0:0:
92,311,83630,1,4,0:3:0:0:
163,4,83774,1,4,0:3:0:0:
285,167,83919,22,0,B|352:162|431:169|497:180,1,198.000006042481,8|4,0:1|0:3,0:1:0:0:
333,64,84351,1,4,0:3:0:0:
226,264,84496,1,8,0:3:0:0:
220,66,84640,1,2,2:2:0:0:
261,351,84784,21,4,0:0:0:0:
61,263,84928,2,0,B|54:211|51:128|53:65,1,198.000006042481,4|4,0:3|0:3,0:0:0:0:
308,30,85361,2,0,P|311:79|312:129,1,99.0000030212403,8|4,0:3|0:3,0:0:0:0:
181,251,85649,22,2,B|239:231|302:222|390:221,1,198.000006042481,8|2,0:1|0:3,0:1:0:0:
492,312,86082,1,2,0:1:0:0:
311,129,86226,1,2,0:3:0:0:
292,327,86371,1,2,0:1:0:0:
512,114,86515,21,4,0:0:0:0:
406,223,86659,2,0,P|420:129|431:11,1,198.000006042481,8|8,0:1|0:3,0:0:0:0:
151,48,87092,1,4,0:3:0:0:
312,129,87236,1,4,0:3:0:0:
163,24,87380,22,0,P|114:23|65:25,1,99.0000030212403,8|0,0:0|0:0,0:0:0:0:
193,206,87669,1,4,0:3:0:0:
311,16,87813,1,4,0:3:0:0:
76,152,87957,1,8,0:1:0:0:
336,221,88101,1,2,2:2:0:0:
136,317,88246,21,4,0:0:0:0:
306,346,88390,2,0,P|399:335|503:329,2,198.000006042481,4|4|4,0:3|0:3|0:3,0:0:0:0:
163,176,89111,21,10,0:1:0:0:
388,214,89255,1,2,0:0:0:0:
168,294,89399,85,10,0:3:0:0:
411,208,89544,1,2,0:0:0:0:
67,234,89688,85,10,0:3:0:0:
264,366,89832,1,4,0:3:0:0:
434,202,89976,86,0,B|452:141|459:69|463:3,1,198.000006042481,4|8,0:0|0:3,0:0:0:0:
177,177,90409,1,8,0:3:0:0:
434,202,90553,1,4,0:3:0:0:
316,31,90698,1,4,0:3:0:0:
177,177,90842,22,0,B|173:227|172:286|187:374,1,198.000006042481,8|4,0:0|0:3,0:0:0:0:
461,327,91274,1,4,0:3:0:0:
269,224,91419,1,8,0:3:0:0:
71,333,91563,1,2,2:0:0:0:
11,198,91707,22,0,P|10:120|19:-8,1,198.000006042481,4|4,0:0|0:3,0:0:0:0:
161,195,92140,1,0,0:0:0:0:
213,2,92284,2,0,P|256:26|294:57,1,99.0000030212403,8|4,0:3|0:3,0:0:0:0:
440,181,92573,22,2,P|401:212|358:236,1,99.0000030212403,8|2,0:1|0:1,0:1:0:0:
266,384,92861,2,2,P|227:352|184:328,1,99.0000030212403,2|2,0:3|0:1,0:1:0:0:
0,247,93149,1,2,0:3:0:0:
337,100,93294,1,2,0:0:0:0:
74,68,93438,21,4,0:0:0:0:
196,231,93582,2,0,P|304:239|426:245,1,198.000006042481,8|8,0:0|0:3,0:0:0:0:
512,40,94015,1,4,0:3:0:0:
337,100,94159,1,4,0:3:0:0:
506,214,94303,22,0,P|506:263|502:312,1,99.0000030212403,8|0,0:0|0:0,0:0:0:0:
272,209,94592,1,4,0:3:0:0:
489,199,94736,1,4,0:3:0:0:
328,384,94880,1,8,0:0:0:0:
328,384,95169,21,12,0:0:0:0:
369,110,95313,1,2,0:2:0:0:
111,183,95457,1,2,0:2:0:0:
489,199,95601,21,8,0:0:0:0:
233,98,95746,1,2,0:2:0:0:
498,38,95889,1,2,0:2:0:0:
410,299,96034,21,10,0:0:0:0:
356,0,96178,1,2,0:1:0:0:
194,255,96323,21,10,0:3:0:0:
489,199,96467,1,2,0:1:0:0:
237,64,96611,53,10,0:3:0:0:
220,354,96755,1,2,0:1:0:0:
6,315,96899,22,0,P|88:294|198:254,1,198.000006042481,4|10,0:0|0:2,0:0:0:0:
302,295,97332,2,0,P|349:330|394:374,1,99.0000030212403,8|4,0:3|0:3,0:0:0:0:
489,173,97621,1,10,0:2:0:0:
264,7,97765,22,0,P|246:53|236:101,1,99.0000030212403,8|4,0:0|0:3,0:0:0:0:
378,357,98053,2,0,P|400:300|399:201,1,148.50000453186,10|2,0:2|0:2,0:0:0:0:
401,213,98342,2,0,P|345:203|286:182,1,99.0000030212403,10|2,0:2|2:0,0:0:0:0:
188,123,98630,21,4,0:0:0:0:
149,351,98774,2,0,P|136:288|102:146,2,198.000006042481,4|8|8,0:3|0:0|0:3,0:0:0:0:
276,51,99496,22,2,P|228:74|174:95,1,99.0000030212403,8|2,0:1|0:1,0:1:0:0:
8,136,99784,2,2,P|54:144|107:158,1,99.0000030212403,10|2,0:3|0:1,0:1:0:0:
241,199,100073,1,10,0:3:0:0:
50,355,100217,1,4,0:3:0:0:
184,91,100361,21,4,0:0:0:0:
246,292,100505,1,8,0:0:0:0:
401,138,100649,1,2,0:2:0:0:
454,230,100794,2,0,P|468:297|477:343,1,99.0000030212403,8|4,0:3|0:3,0:0:0:0:
437,44,101082,1,2,0:2:0:0:
299,161,101226,22,0,P|229:150|138:125,1,148.50000453186,8|2,0:0|0:2,0:0:0:0:
153,130,101515,2,0,P|137:188|117:246,1,99.0000030212403,2|4,0:2|0:3,0:0:0:0:
76,35,101803,1,10,0:2:0:0:
76,35,102092,21,12,0:0:0:0:
182,333,102236,2,0,P|243:316|383:299,1,198.000006042481,4|8,0:3|0:0,0:0:0:0:
472,334,102669,1,4,0:3:0:0:
512,108,102813,1,2,0:2:0:0:
276,131,102957,21,10,0:1:0:0:
230,39,103101,1,2,0:1:0:0:
230,39,103174,1,0,0:0:0:0:
230,39,103246,1,10,0:3:0:0:
329,44,103390,1,10,0:1:0:0:
284,264,103534,1,10,0:3:0:0:
96,127,103678,1,4,0:3:0:0:
276,131,103823,22,0,P|365:124|481:90,1,198.000006042481,4|10,0:0|0:2,0:0:0:0:
179,201,104255,2,0,P|160:253|145:308,1,99.0000030212403,8|4,0:3|0:3,0:0:0:0:
255,22,104544,1,10,0:2:0:0:
349,306,104688,22,0,P|294:288|239:254,1,99.0000030212403,8|4,0:0|0:3,0:0:0:0:
35,234,104976,2,0,P|108:224|192:195,1,148.50000453186,10|2,0:2|0:2,0:0:0:0:
178,200,105265,2,0,L|161:91,1,99.0000030212403,10|2,0:2|2:0,0:0:0:0:
446,253,105553,21,4,0:0:0:0:
318,140,105698,2,0,P|304:238|292:355,2,198.000006042481,4|8|8,0:3|0:0|0:3,0:0:0:0:
390,320,106419,21,10,0:1:0:0:
213,145,106563,1,10,0:1:0:0:
213,145,106635,1,0,0:0:0:0:
213,145,106707,1,10,0:3:0:0:
80,359,106851,1,10,0:1:0:0:
104,104,106996,1,10,0:3:0:0:
304,239,107140,1,10,0:1:0:0:
473,67,107284,5,4,0:0:0:0:
256,192,107428,12,4,110746,3:0:0:0:
236,346,117669,117,2,3:2:0:0:
331,280,117957,1,0,0:0:0:0:
236,346,118246,1,0,0:0:0:0:
257,190,118534,22,0,B|321:145|383:177|383:177|450:137|422:62|422:62|328:0|246:52,1,450
122,135,120265,22,0,L|99:222,2,90
257,190,121130,22,0,B|232:290|232:290|165:252|165:252|202:112|202:112|138:82|138:82|122:134,1,450,2|0,0:0|0:0,0:0:0:0:
299,56,122861,21,0,0:0:0:0:
394,122,123149,1,0,0:0:0:0:
299,56,123438,1,0,0:0:0:0:
413,142,123726,22,0,P|429:183|417:319,1,180
181,350,124592,21,2,0:0:0:0:
259,290,124880,1,0,0:0:0:0:
167,251,125169,1,0,0:0:0:0:
322,123,125457,21,0,0:0:0:0:
244,183,125745,1,0,0:0:0:0:
336,222,126034,1,0,0:0:0:0:
150,14,126323,21,0,0:0:0:0:
228,74,126611,1,0,0:0:0:0:
136,113,126899,2,0,B|96:111|88:84|86:58,1,67.5
63,49,127188,22,0,L|84:231,1,180
75,384,128053,2,0,L|96:202,1,180,2|0,0:0|0:0,0:0:0:0:
230,343,128919,21,0,0:0:0:0:
197,242,129207,2,0,B|198:222|211:204|211:204|243:248|232:315,1,157.5
231,315,129784,21,0,0:0:0:0:
429,279,130073,1,0,0:0:0:0:
394,186,130361,1,0,0:0:0:0:
216,103,130649,85,0,0:0:0:0:
414,89,130938,1,0,0:0:0:0:
487,154,131226,1,0,0:0:0:0:
321,120,131515,54,0,B|277:103|256:58|256:58|263:167|210:112|223:225|223:225|200:151|139:122|61:156,1,450,2|0,3:2|0:0,0:0:0:0:
65,296,133246,2,0,B|180:285|111:228|235:224,1,180
410,328,134111,2,0,P|446:300|345:257,1,225
271,342,134976,22,0,L|257:234,2,90,2|0|0,0:0|0:0|0:0,0:0:0:0:
229,145,135842,2,0,L|243:253,2,90
165,342,136707,1,0,0:0:0:0:
61,271,136996,1,0,0:0:0:0:
137,156,137284,2,0,L|149:241,1,67.5
151,243,137573,2,0,P|195:236|250:229,1,90
210,57,138149,1,0,0:0:0:0:
226,145,138438,22,0,B|316:172|384:192|519:116|443:7|316:-29|271:82|306:166|353:224|327:293|327:293|382:229|428:208|483:227,1,720,2|0,0:0|0:0,0:0:0:0:
226,145,141034,2,0,P|184:133|121:141,1,90
329,292,141611,1,0,0:0:0:0:
180,230,141899,22,0,B|71:239|134:284|3:292,1,180,2|0,0:0|0:0,0:0:0:0:
53,33,142765,2,0,P|99:31|138:141,1,180
247,198,143630,1,0,0:0:0:0:
329,64,143919,1,0,0:0:0:0:
484,100,144207,1,0,0:0:0:0:
477,253,144496,21,0,0:0:0:0:
350,226,144784,1,0,0:0:0:0:
379,103,145073,1,0,0:0:0:0:
426,179,145361,22,0,L|429:269,2,90,4|2|10,1:1|0:2|0:0,0:0:0:0:
333,314,146226,2,0,L|336:224,2,90,2|0|8,0:2|0:0|0:0,0:0:0:0:
252,384,147092,22,0,L|248:294,2,90,0|0|8,0:0|0:0|0:0,0:0:0:0:
164,325,147957,2,0,L|167:235,2,90,0|0|8,0:0|0:0|0:0,0:0:0:0:
101,148,148823,21,2,0:2:0:0:
198,221,149111,1,2,0:2:0:0:
314,185,149399,1,10,0:0:0:0:
375,50,149688,2,0,P|463:57|517:126,1,180,2|8,0:2|0:0,0:0:0:0:
292,0,150553,22,0,L|288:90,2,90,0|0|8,0:0|0:0|0:0,0:0:0:0:
204,59,151419,1,0,0:0:0:0:
206,148,151707,1,0,0:0:0:0:
208,237,151996,2,0,L|209:294,1,45,8|0,0:0|0:0,0:0:0:0:
105,16,152284,22,0,L|12:21,2,90,2|2|10,0:2|0:2|0:0,0:0:0:0:
204,59,153149,1,2,0:2:0:0:
206,148,153437,1,0,0:0:0:0:
208,237,153726,2,0,L|209:294,1,45,8|0,0:0|0:0,0:0:0:0:
307,280,154015,22,0,L|400:275,2,90,0|0|8,0:0|0:0|0:0,0:0:0:0:
109,238,154880,2,0,L|16:243,2,90,0|0|8,0:0|0:0|0:0,0:0:0:0:
381,141,155746,22,0,B|334:128|293:147|293:147|248:167|206:148,1,180,2|10,0:2|0:0,0:0:0:0:
68,49,156611,2,0,B|110:68|155:48|155:48|196:29|243:42,1,180,2|8,0:2|0:0,0:0:0:0:
210,152,157332,1,0,0:0:0:0:
210,152,157476,86,0,L|214:245,2,90,0|0|8,0:0|0:0|0:0,0:0:0:0:
302,295,158342,2,0,L|298:388,2,90,0|0|8,0:0|0:0|0:0,0:0:0:0:
305,205,159063,1,0,0:0:0:0:
308,115,159207,53,4,3:1:0:0:
461,215,159496,2,0,L|505:222,2,35.9999989013672,2|0|0,0:2|0:0|0:0,0:0:0:0:
456,197,159784,2,0,L|389:203,1,53.9999983520508,10|0,0:2|0:0,0:0:0:0:
309,257,160073,1,2,0:2:0:0:
211,115,160361,1,0,0:0:0:0:
367,43,160649,1,8,0:2:0:0:
367,43,160794,1,8,0:2:0:0:
311,109,160938,22,0,L|300:222,1,107.999996704102
226,258,161323,1,0,0:0:0:0:
175,256,161419,1,0,0:0:0:0:
124,255,161515,1,8,0:2:0:0:
266,342,161803,2,0,B|213:333|177:286|177:286|139:335|82:341,1,215.999993408203,0|8,0:0|0:2,0:0:0:0:
35,180,162669,21,2,0:2:0:0:
204,132,162957,2,0,L|207:83,2,41.9999987182618,2|0|0,0:2|0:0|0:0,0:0:0:0:
192,142,163246,2,0,L|197:209,1,62.9999980773926,10|0,0:2|0:0,0:0:0:0:
233,296,163534,1,2,0:2:0:0:
476,185,163823,2,0,L|381:200,1,94.499997116089
365,217,164111,21,8,0:2:0:0:
339,120,164255,1,8,0:2:0:0:
318,28,164399,1,0,0:0:0:0:
236,262,164688,21,0,0:0:0:0:
230,216,164784,1,0,0:0:0:0:
225,170,164880,1,0,0:0:0:0:
220,124,164976,1,8,0:2:0:0:
81,352,165265,21,0,0:0:0:0:
98,211,165553,1,0,0:0:0:0:
115,70,165842,1,8,0:2:0:0:
425,323,166130,85,2,0:2:0:0:
338,114,166419,1,2,0:2:0:0:
279,272,166707,1,10,0:2:0:0:
482,161,166996,1,2,0:2:0:0:
376,219,167284,2,0,B|264:200|304:259|184:243,1,188.999994232178,0|8,0:0|0:2,0:0:0:0:
69,221,167861,21,0,0:0:0:0:
225,141,168149,1,0,0:0:0:0:
79,35,168438,1,8,0:2:0:0:
244,141,168726,1,0,0:0:0:0:
63,130,169015,86,0,L|159:136,1,76.5000014591217
263,143,169303,2,0,L|359:149,1,76.5000014591217,8|8,0:2|0:2,0:0:0:0:
47,130,169592,22,0,P|25:98|14:62,1,76.5000014591217,2|0,0:2|0:0,0:0:0:0:
143,179,169880,2,0,P|168:179|193:185,2,51.0000009727478,2|0|0,0:2|0:0|0:0,0:0:0:0:
54,237,170169,2,0,P|37:271|11:299,1,76.5000014591217,10|0,0:2|0:0,0:0:0:0:
174,350,170457,38,0,L|159:261,1,76.5000014591217,2|0,0:2|0:0,0:0:0:0:
231,74,170746,2,0,L|217:210,1,114.750002188683
205,201,171034,1,8,0:2:0:0:
358,263,171178,1,8,0:2:0:0:
465,130,171323,22,0,P|486:98|497:62,1,76.5000014591217
369,179,171611,2,0,P|343:179|318:185,2,51.0000009727478
458,237,171900,2,0,P|474:271|500:299,1,76.5000014591217,8|0,0:2|0:0,0:0:0:0:
302,191,172188,6,0,B|246:205|246:205|214:251|214:251|140:269,1,180,8|0,0:0|0:0,0:0:0:0:
149,266,173053,6,0,B|198:297|198:297|256:292,1,116.999994644165,4|0,3:1|3:0,0:0:0:0:
328,58,173342,2,0,B|269:53|269:53|220:84,1,116.999994644165,8|2,0:0|2:2,0:0:0:0:
431,230,173630,1,0,0:0:0:0:
451,7,173774,1,2,2:2:0:0:
302,191,173919,22,0,L|342:301,1,116.999994644165,4|0,3:2|3:0,0:0:0:0:
434,111,174207,2,0,L|474:1,1,116.999994644165,8|2,0:0|2:0,0:0:0:0:
154,265,174496,2,0,B|218:249|218:249|250:203|250:203|302:191,1,175.499991966248,0|2,1:0|2:0,2:0:0:0:
139,159,174784,22,0,L|9:187,1,116.999994644165,0|0,3:0|3:0,0:0:0:0:
341,300,175073,2,0,L|455:275,1,116.999994644165,8|2,0:0|2:0,0:0:0:0:
351,66,175361,1,0,0:0:0:0:
234,228,175505,1,2,2:0:0:0:
360,43,175649,22,0,P|275:25|191:49,1,175.499991966248,4|0,3:2|0:0,0:0:0:0:
169,136,175938,1,8,0:0:0:0:
169,383,176082,1,10,0:0:0:0:
24,183,176226,1,10,0:0:0:0:
258,259,176371,1,10,0:0:0:0:
24,335,176515,22,0,B|11:278|11:278|26:221,1,116.999994644165,4|0,3:1|3:0,0:0:0:0:
332,202,176803,2,0,B|347:258|347:258|334:315,1,116.999994644165,8|2,0:0|2:0,0:0:0:0:
169,136,177092,1,0,0:0:0:0:
439,112,177236,1,2,2:0:0:0:
258,258,177380,22,0,P|200:263|148:236,1,116.999994644165,4|0,3:2|3:0,0:0:0:0:
199,11,177669,1,8,0:0:0:0:
332,202,177813,1,2,2:0:0:0:
479,31,177957,2,0,P|421:26|369:53,1,116.999994644165,0|2,0:0|2:0,0:0:0:0:
417,308,178246,21,0,3:0:0:0:
482,78,178390,1,0,3:0:0:0:
250,135,178534,1,8,0:0:0:0:
480,201,178678,21,2,2:0:0:0:
250,135,178822,1,0,0:0:0:0:
307,367,178967,1,2,2:0:0:0:
250,135,179111,21,4,3:2:0:0:
185,364,179255,1,0,3:0:0:0:
417,308,179399,1,8,0:0:0:0:
78,301,179544,21,10,0:0:0:0:
480,201,179688,1,10,0:0:0:0:
250,135,179832,1,10,0:0:0:0:
307,367,179976,86,0,B|318:309|318:309|311:251,1,116.999994644165,4|0,3:1|3:0,0:0:0:0:
117,136,180265,1,8,0:0:0:0:
347,63,180409,1,2,2:0:0:0:
176,250,180553,1,0,0:0:0:0:
205,9,180698,1,2,2:0:0:0:
311,251,180842,22,0,P|354:279|421:280,1,116.999994644165,4|0,3:2|3:0,0:0:0:0:
284,55,181130,1,8,0:0:0:0:
161,242,181274,1,2,2:0:0:0:
356,178,181419,1,0,0:0:0:0:
168,122,181563,1,2,2:0:0:0:
394,271,181707,22,0,L|366:384,1,116.999994644165,4|0,3:1|3:0,0:0:0:0:
258,178,181996,1,8,0:0:0:0:
426,16,182140,1,2,2:0:0:0:
496,209,182284,1,0,0:0:0:0:
303,78,182428,1,2,2:0:0:0:
199,272,182573,22,0,P|145:296|87:296,1,116.999994644165,4|0,3:2|3:0,0:0:0:0:
191,54,182861,2,2,P|249:54|303:77,1,116.999994644165,8|10,0:0|0:0,0:0:0:0:
130,213,183149,1,10,0:0:0:0:
91,4,183294,1,10,0:0:0:0:
293,197,183438,22,0,L|305:332,1,116.999994644165,4|0,3:1|3:0,0:0:0:0:
108,187,183726,1,8,0:0:0:0:
215,82,183871,1,2,2:0:0:0:
210,315,184015,1,0,0:0:0:0:
0,213,184159,1,2,2:0:0:0:
296,159,184303,22,0,L|418:172,2,116.999994644165,4|0|8,3:2|3:0|0:0,0:0:0:0:
116,285,184736,2,0,L|-6:298,2,116.999994644165,2|0|2,2:0|0:0|2:0,0:0:0:0:
378,271,185169,22,0,P|386:232|389:194,2,77.9999964294435,12|0|0,0:2|0:0|0:0,0:0:0:0:
291,340,185457,1,0,0:0:0:0:
178,151,185601,21,14,0:2:0:0:
473,147,185746,1,2,0:2:0:0:
231,249,185890,1,2,0:2:0:0:
371,78,186034,86,0,P|367:39|359:0,2,77.9999964294435,12|0|0,0:2|0:0|0:0,0:0:0:0:
296,159,186323,1,8,0:0:0:0:
479,294,186467,21,10,0:1:0:0:
191,328,186611,1,10,0:1:0:0:
240,45,186755,1,10,0:1:0:0:
390,182,186899,22,0,L|376:292,1,90,4|0,3:1|3:0,0:0:0:0:
331,87,187188,1,0,0:0:0:0:
485,221,187332,1,2,0:2:0:0:
376,293,187476,1,8,0:0:0:0:
454,103,187621,1,2,2:2:0:0:
276,202,187765,21,8,0:1:0:0:
162,27,187909,1,8,0:3:0:0:
0,165,188053,85,10,0:3:0:0:
164,118,188198,1,4,0:3:0:0:
101,273,188342,1,6,0:3:0:0:
86,279,188629,53,4,3:1:0:0:
217,183,188774,1,0,3:0:0:0:
179,36,188918,1,0,0:0:0:0:
220,198,189062,21,2,0:2:0:0:
74,144,189206,1,8,0:0:0:0:
286,99,189351,1,2,2:0:0:0:
168,286,189495,85,8,0:1:0:0:
314,193,189639,1,2,0:1:0:0:
58,141,189783,1,2,0:3:0:0:
251,40,189928,21,2,0:1:0:0:
229,201,190072,1,2,0:3:0:0:
211,364,190216,1,10,0:1:0:0:
402,259,190360,22,0,P|356:266|307:277,1,90,4|0,3:1|3:0,0:0:0:0:
104,144,190649,1,0,0:0:0:0:
269,69,190793,1,2,0:2:0:0:
224,202,190937,1,8,0:0:0:0:
149,0,191081,1,2,2:0:0:0:
391,140,191226,21,8,0:0:0:0:
217,222,191370,1,8,0:3:0:0:
407,263,191514,1,10,0:3:0:0:
212,239,191658,1,4,0:3:0:0:
342,371,191803,1,6,0:3:0:0:
353,382,192092,21,4,3:1:0:0:
300,192,192236,1,0,3:0:0:0:
470,109,192380,1,0,0:0:0:0:
281,191,192524,21,2,0:2:0:0:
240,25,192669,1,8,0:0:0:0:
398,198,192813,1,10,2:0:0:0:
167,168,192957,85,0,0:0:0:0:
330,91,193101,1,2,0:1:0:0:
125,68,193246,21,2,0:3:0:0:
474,280,193390,1,2,0:1:0:0:
474,280,193462,1,8,0:0:0:0:
474,280,193534,1,2,0:3:0:0:
396,5,193678,1,10,0:1:0:0:
217,326,193823,21,4,0:0:0:0:
86,158,193967,2,0,L|205:172,1,90,10|2,0:2|0:2,0:0:0:0:
412,132,194255,21,4,0:2:0:0:
34,274,194399,2,0,L|159:247,1,90,10|2,0:2|0:2,0:0:0:0:
324,40,194688,85,12,0:2:0:0:
236,288,194832,1,2,0:1:0:0:
171,103,194976,21,12,0:2:0:0:
346,342,195121,1,2,0:1:0:0:
432,178,195265,85,12,0:2:0:0:
169,379,195409,1,2,0:0:0:0:
316,204,195553,53,8,0:0:0:0:
87,61,195698,2,0,B|74:104|74:104|96:159,1,90,2|2,0:2|0:2,0:0:0:0:
269,283,195986,21,4,0:2:0:0:
104,164,196130,1,10,0:2:0:0:
314,102,196274,1,2,0:2:0:0:
172,307,196419,85,12,0:2:0:0:
198,26,196563,1,2,0:1:0:0:
426,224,196707,21,12,0:2:0:0:
159,311,196851,1,10,0:1:0:0:
146,315,196924,1,0,0:0:0:0:
133,320,196996,1,12,0:2:0:0:
330,96,197140,1,10,0:1:0:0:
179,139,197284,21,12,0:0:0:0:
316,354,197428,1,8,0:3:0:0:
48,214,197573,1,4,0:3:0:0:
286,191,197717,22,0,L|251:299,1,90,4|10,0:2|0:2,0:0:0:0:
328,65,198005,1,2,0:2:0:0:
456,208,198149,21,12,0:2:0:0:
251,301,198294,1,8,0:3:0:0:
183,80,198438,1,4,0:3:0:0:
356,204,198582,21,2,0:1:0:0:
160,351,198726,1,12,0:2:0:0:
177,57,198871,1,2,0:1:0:0:
400,112,199015,22,0,L|464:100,2,60,12|0|0,0:1|0:0|0:0,0:0:0:0:
92,192,199303,1,4,0:3:0:0:
243,329,199448,21,8,0:3:0:0:
158,51,199592,1,0,0:0:0:0:
307,212,199736,1,0,0:0:0:0:
65,191,199880,21,12,0:2:0:0:
337,213,200024,1,0,0:0:0:0:
48,273,200169,21,12,0:2:0:0:
252,152,200313,1,8,0:0:0:0:
252,152,200385,1,0,0:0:0:0:
252,152,200457,1,12,0:2:0:0:
92,26,200601,1,8,0:0:0:0:
136,349,200746,5,4,1:0:0:0:
136,349,207669,21,4,3:1:0:0:
156,115,212861,101,4,0:0:0:0:
139,336,213005,2,0,L|146:246,1,90,8|0,0:0|0:0,0:0:0:0:
356,115,213294,21,4,0:2:0:0:
373,336,213438,2,0,L|366:246,1,90,8|0,0:0|0:0,0:0:0:0:
58,171,213726,21,2,0:0:0:0:
107,193,213798,1,2,0:2:0:0:
161,198,213870,1,2,0:0:0:0:
212,185,213942,1,2,0:2:0:0:
258,156,214014,21,2,0:0:0:0:
305,129,214086,1,2,0:2:0:0:
356,115,214158,1,2,0:0:0:0:
410,119,214230,1,2,0:2:0:0:
462,137,214302,5,8,0:0:0:0:
462,137,214592,6,0,B|414:-11|274:66|274:66,1,215.999993408203,4|10,0:0|0:2,0:0:0:0:
263,274,215024,1,8,0:3:0:0:
462,137,215169,1,4,0:3:0:0:
192,36,215313,1,10,0:2:0:0:
359,261,215457,22,0,B|358:219|340:134|340:134,1,107.999996704102,8|4,0:0|0:3,0:0:0:0:
33,210,215746,2,0,B|125:166|188:235|188:235,1,161.999995056153,10|0,0:2|0:0,0:0:0:0:
183,230,216034,2,0,P|176:289|169:351,1,107.999996704102,10|2,0:2|2:0,0:0:0:0:
140,83,216323,21,4,0:0:0:0:
359,261,216467,2,0,B|495:229|466:87|466:87,1,215.999993408203,4|8,0:3|0:0,0:0:0:0:
230,241,216899,1,8,0:3:0:0:
460,322,217044,21,2,0:2:0:0:
460,322,217116,1,2,0:2:0:0:
460,322,217188,1,8,0:0:0:0:
401,76,217332,1,2,0:1:0:0:
230,241,217476,2,2,L|63:268,1,161.999995056153,10|2,0:3|0:1,0:1:0:0:
50,281,217765,1,10,0:3:0:0:
244,139,217909,1,4,0:3:0:0:
230,344,218053,21,4,0:0:0:0:
119,166,218198,2,0,B|110:109|94:44|94:44,1,107.999996704102,8|2,0:0|0:2,0:0:0:0:
414,39,218486,2,0,B|465:131|390:186|390:186,1,161.999995056153,4|0,0:3|0:0,0:0:0:0:
363,201,218774,1,2,0:2:0:0:
201,75,218919,22,0,B|255:89|320:98|320:98,1,107.999996704102,8|4,0:0|0:3,0:0:0:0:
461,107,219207,1,2,0:2:0:0:
205,360,219351,1,4,0:3:0:0:
443,208,219496,2,0,B|347:197|399:257|266:249,1,161.999995056153,10|0,0:2|0:0,0:0:0:0:
263,234,219784,21,12,0:0:0:0:
327,57,219928,1,4,0:3:0:0:
431,298,220073,1,0,0:0:0:0:
244,126,220217,21,8,0:0:0:0:
173,298,220361,1,4,0:3:0:0:
344,174,220505,21,2,0:2:0:0:
344,174,220577,1,2,0:2:0:0:
344,174,220649,1,8,0:0:0:0:
151,89,220794,1,2,0:1:0:0:
392,79,220938,21,10,0:3:0:0:
173,298,221082,1,2,0:1:0:0:
206,4,221226,2,2,B|256:41|256:112|256:112,1,107.999996704102,10|8,0:3|0:3,0:1:0:0:
303,302,221515,22,0,B|434:353|487:213|487:213,1,215.999993408203,4|10,0:0|0:2,0:0:0:0:
218,61,221948,1,8,0:3:0:0:
303,302,222092,1,4,0:3:0:0:
335,77,222236,1,10,0:2:0:0:
107,66,222380,22,0,B|-14:142|74:267|74:267,2,215.999993408203,8|10|8,0:0|0:2|0:0,0:0:0:0:
347,203,223101,21,2,0:2:0:0:
347,203,223174,1,2,0:2:0:0:
347,203,223246,1,4,0:0:0:0:
191,113,223390,1,4,0:3:0:0:
353,113,223534,21,0,0:0:0:0:
285,279,223678,1,8,0:0:0:0:
268,109,223823,21,0,0:0:0:0:
436,187,223967,1,8,0:3:0:0:
434,41,224111,21,10,0:1:0:0:
168,219,224255,1,10,0:1:0:0:
152,222,224327,1,0,0:0:0:0:
136,226,224399,1,10,0:3:0:0:
477,255,224544,1,10,0:1:0:0:
247,29,224688,21,10,0:3:0:0:
309,340,224832,1,10,0:1:0:0:
0,190,224976,5,4,0:0:0:0:
256,192,225121,12,0,228149,2:0:0:0:
0,131,228438,37,12,0:0:0:0:
292,325,228582,1,4,0:3:0:0:
292,325,228871,1,6,0:3:0:0:
194,107,229015,21,12,0:2:0:0:
126,378,229159,1,2,0:2:0:0:
377,200,229303,21,12,0:0:0:0:
65,221,229448,1,4,0:3:0:0:
65,221,229736,1,6,0:3:0:0:
297,21,229880,21,12,0:2:0:0:
292,325,230024,1,0,0:0:0:0:
92,43,230169,21,4,0:0:0:0:
126,378,230313,2,0,L|118:289,1,90,8|0,0:0|0:0,0:0:0:0:
388,239,230601,21,2,0:3:0:0:
388,239,230674,1,0,0:0:0:0:
388,239,230746,2,0,L|396:149,1,90,12|0,0:2|0:0,0:0:0:0:
187,80,231034,21,0,0:0:0:0:
134,113,231106,1,0,0:0:0:0:
102,168,231178,1,0,0:0:0:0:
97,231,231250,1,0,0:0:0:0:
118,289,231322,1,0,0:0:0:0:
163,333,231394,1,0,0:0:0:0:
222,354,231466,1,0,0:0:0:0:
285,347,231538,1,0,0:0:0:0:
338,314,231611,2,2,P|415:303|449:305,1,90,10|10,0:0|0:0,0:0:0:0:
79,364,231899,6,0,L|58:227,1,116.999994644165,4|0,3:1|3:0,0:0:0:0:
342,86,232188,2,0,L|359:201,1,116.999994644165,8|8,0:0|0:0,0:0:0:0:
70,347,232476,54,0,L|61:209,1,116.999994644165,2|2,0:2|2:2,0:0:0:0:
350,102,232765,2,0,L|358:219,1,116.999994644165,4|0,0:2|0:0,0:0:0:0:
62,330,233053,54,0,L|66:191,1,116.999994644165,8|2,0:0|2:2,0:0:0:0:
358,119,233342,2,0,L|355:236,1,116.999994644165,8|2,0:0|2:2,0:0:0:0:
149,57,233630,86,0,P|212:46|272:69,1,116.999994644165,4|0,3:1|3:0,0:0:0:0:
293,326,233919,2,0,P|230:337|170:314,1,116.999994644165,8|8,0:0|0:0,0:0:0:0:
159,51,234207,54,0,P|223:45|281:73,1,116.999994644165,2|2,0:2|0:2,0:0:0:0:
282,331,234496,2,0,P|218:337|160:309,1,116.999994644165,4|0,0:2|0:0,0:0:0:0:
171,46,234784,54,0,P|235:46|290:79,1,116.999994644165,8|10,0:0|0:0,0:0:0:0:
270,336,235073,1,10,0:0:0:0:
451,129,235217,1,10,0:0:0:0:
270,336,235361,22,0,B|252:281|252:281|260:222,1,116.999994644165,4|0,3:1|3:0,0:0:0:0:
460,16,235649,2,0,B|469:74|469:74|451:130,1,116.999994644165,8|8,0:0|0:0,0:0:0:0:
257,327,235938,54,0,B|244:270|244:270|258:213,1,116.999994644165,2|2,0:2|0:2,0:0:0:0:
472,25,236226,2,0,B|476:84|476:84|453:137,1,116.999994644165,4|0,0:2|0:0,0:0:0:0:
246,317,236515,54,0,B|237:259|237:259|256:203,1,116.999994644165,8|2,0:0|2:2,0:0:0:0:
484,35,236803,2,0,B|482:94|482:94|455:145,1,116.999994644165,8|2,0:0|2:2,0:0:0:0:
157,67,237092,86,0,L|273:58,1,116.999994644165,4|0,3:1|3:0,0:0:0:0:
147,330,237380,2,0,L|30:321,1,116.999994644165,8|8,0:0|0:0,0:0:0:0:
168,67,237669,54,0,L|285:69,1,116.999994644165,2|2,0:2|0:2,0:0:0:0:
135,329,237957,2,0,L|20:310,1,116.999994644165,4|0,0:2|0:0,0:0:0:0:
179,69,238246,69,8,0:0:0:0:
307,304,238390,1,10,0:0:0:0:
62,178,238534,21,10,0:0:0:0:
386,67,238678,1,10,0:0:0:0:
295,331,238823,102,0,P|271:277|270:219,1,116.999994644165,4|0,3:1|3:0,0:0:0:0:
485,31,239111,2,0,P|483:89|460:142,1,116.999994644165,8|8,0:0|0:0,0:0:0:0:
241,36,239399,2,0,L|356:56,1,116.999994644165,2|2,0:2|0:2,0:0:0:0:
201,324,239688,54,0,L|85:344,1,116.999994644165,4|0,0:2|0:0,0:0:0:0:
24,142,239976,2,0,B|113:159|113:159|195:137,1,175.499991966248,8|2,0:0|2:2,0:0:0:0:
195,137,240265,1,8,0:0:0:0:
86,344,240409,1,2,2:2:0:0:
291,204,240553,22,0,P|307:148|299:90,1,116.999994644165,4|0,3:1|3:0,0:0:0:0:
347,336,240842,2,0,P|389:296|411:242,1,116.999994644165,8|8,0:0|0:0,0:0:0:0:
195,137,241130,2,0,L|68:152,1,116.999994644165,2|2,0:2|0:2,0:0:0:0:
396,155,241419,54,0,L|523:140,1,116.999994644165,4|0,0:2|0:0,0:0:0:0:
248,287,241707,2,10,B|166:303|166:303|112:281|112:281|10:303,1,233.999989288331,8|10,0:1|0:1,0:1:0:0:
221,136,242140,1,10,0:1:0:0:
347,336,242284,86,0,P|404:346|461:335,1,116.999994644165,4|0,3:1|3:0,0:0:0:0:
275,50,242573,2,0,P|217:39|160:50,1,116.999994644165,8|8,0:0|0:0,0:0:0:0:
363,323,242861,54,0,P|421:327|477:309,1,116.999994644165,2|2,0:2|0:2,0:0:0:0:
257,48,243149,2,0,P|199:44|144:63,1,116.999994644165,4|0,0:2|0:0,0:0:0:0:
379,309,243438,54,0,P|437:306|489:281,1,116.999994644165,8|2,0:0|2:2,0:0:0:0:
240,49,243727,2,0,P|182:52|129:77,1,116.999994644165,8|2,0:0|2:2,0:0:0:0:
392,293,244015,101,4,0:1:0:0:
419,14,244159,1,2,0:2:0:0:
212,203,244303,1,2,0:2:0:0:
416,166,244448,53,4,0:2:0:0:
93,14,244592,2,0,L|82:149,1,116.999994644165,2|2,0:2|0:2,0:0:0:0:
290,266,244880,21,10,0:1:0:0:
248,5,245024,1,0,3:0:0:0:
198,330,245169,53,10,0:1:0:0:
248,5,245313,1,0,3:0:0:0:
292,374,245457,21,10,0:1:0:0:
248,5,245601,1,4,3:3:0:0:
124,175,245746,38,0,B|101:121|101:121|127:58,1,116.999994644165,4|0,3:1|3:0,0:0:0:0:
149,306,246034,2,0,L|8:340,1,116.999994644165,8|8,0:0|0:0,0:0:0:0:
222,118,246323,1,2,0:2:0:0:
403,292,246467,1,2,0:2:0:0:
328,96,246611,6,0,L|308:239,1,116.999994644165,12|0,0:2|0:0,0:0:0:0:
494,350,246899,2,0,B|511:295|511:295|485:227,1,116.999994644165,8|2,0:0|2:2,0:0:0:0:
139,209,247188,2,0,B|208:203|208:203|243:217|243:217|321:210,1,175.499991966248,8|2,0:0|2:0,0:0:0:0:
400,330,247476,6,0,B|345:350|345:350|298:316,1,116.999994644165,4|0,3:1|3:0,0:0:0:0:
327,95,247765,2,0,B|383:76|383:76|430:110,1,116.999994644165,8|8,0:0|0:0,0:0:0:0:
195,302,248053,1,2,0:2:0:0:
363,208,248198,1,2,0:2:0:0:
244,47,248342,6,0,B|228:82|228:82|246:169,1,116.999994644165,12|0,0:2|0:0,0:0:0:0:
12,278,248630,2,2,P|78:282|164:197,1,175.499991966248,2|10,0:3|0:1,0:1:0:0:
140,132,248919,1,2,0:3:0:0:
287,352,249063,1,10,0:1:0:0:
454,224,249207,6,0,B|413:216|413:216|379:229|379:229|329:221,1,116.999994644165,4|0,3:1|3:0,0:0:0:0:
26,133,249496,2,0,B|67:125|67:125|101:138|101:138|151:130,1,116.999994644165,8|8,0:0|0:0,0:0:0:0:
349,135,249784,1,2,0:2:0:0:
154,331,249928,1,2,0:2:0:0:
228,60,250073,6,0,L|243:188,1,116.999994644165,12|0,0:2|0:0,0:0:0:0:
454,329,250361,2,0,B|429:277|429:277|458:214,1,116.999994644165,8|2,0:0|2:0,0:0:0:0:
474,51,250649,2,0,B|427:62|427:62|403:63|403:63|380:84|380:84|357:83|357:83|303:98,1,175.499991966248,8|2,0:0|2:0,0:0:0:0:
227,292,250938,6,0,L|241:175,1,116.999994644165,4|0,3:1|3:0,0:0:0:0:
70,28,251226,2,0,P|65:92|91:158,1,116.999994644165,8|8,0:0|0:0,0:0:0:0:
338,167,251515,1,2,0:2:0:0:
137,240,251659,1,2,0:2:0:0:
436,369,251803,6,0,P|451:288|413:182,1,175.499991966248,12|0,0:2|0:0,0:0:0:0:
407,114,252092,1,2,0:3:0:0:
134,268,252236,1,2,0:1:0:0:
134,268,252308,1,8,0:0:0:0:
134,268,252380,1,2,0:3:0:0:
220,21,252524,1,10,0:1:0:0:
334,343,252669,21,4,0:1:0:0:
338,167,252813,1,10,0:2:0:0:
233,363,252957,1,2,0:2:0:0:
484,211,253101,21,4,0:2:0:0:
316,160,253246,1,10,0:2:0:0:
434,331,253390,1,2,0:2:0:0:
210,176,253534,21,12,0:2:0:0:
401,108,253678,1,2,0:1:0:0:
412,105,253750,1,0,0:0:0:0:
423,102,253823,1,2,0:3:0:0:
119,101,253967,1,2,0:1:0:0:
272,275,254111,1,2,0:3:0:0:
228,51,254255,1,0,0:1:0:0:
69,321,254399,53,12,0:0:0:0:
119,122,254544,1,2,0:2:0:0:
186,339,254688,1,2,0:2:0:0:
25,206,254832,21,4,0:2:0:0:
218,123,254976,1,10,0:2:0:0:
332,301,255121,1,2,0:2:0:0:
392,83,255265,21,12,0:2:0:0:
226,221,255409,1,2,0:1:0:0:
214,224,255481,1,0,0:0:0:0:
203,228,255553,1,2,0:3:0:0:
287,36,255698,1,10,0:1:0:0:
335,317,255842,1,2,0:3:0:0:
198,120,255986,1,8,0:0:0:0:
474,126,256130,53,12,0:0:0:0:
226,322,256274,1,2,0:2:0:0:
312,59,256419,1,2,0:2:0:0:
387,346,256563,1,2,0:1:0:0:
387,346,256635,1,0,0:0:0:0:
387,346,256707,1,2,0:3:0:0:
166,138,256851,1,2,0:1:0:0:
437,31,256996,21,8,0:0:0:0:
135,261,257140,1,2,0:2:0:0:
380,189,257284,1,2,0:2:0:0:
27,173,257428,1,2,0:1:0:0:
27,173,257500,1,0,0:0:0:0:
27,173,257573,1,2,0:3:0:0:
300,330,257717,1,2,0:1:0:0:
164,48,257861,21,12,0:0:0:0:
185,360,258005,1,2,0:2:0:0:
463,195,258149,1,2,0:2:0:0:
67,198,258294,21,12,0:2:0:0:
333,348,258438,1,2,0:2:0:0:
336,43,258582,1,2,0:2:0:0:
84,304,258726,21,10,0:1:0:0:
361,175,258870,1,0,3:0:0:0:
175,31,259015,21,10,0:1:0:0:
185,360,259159,1,0,3:0:0:0:
411,268,259303,85,10,0:1:0:0:
93,206,259447,1,8,0:0:0:0:
