osu file format v14

[General]
AudioFilename: audio.mp3
AudioLeadIn: 0
PreviewTime: 57076
Countdown: 0
SampleSet: Soft
StackLeniency: 0.7
Mode: 0
LetterboxInBreaks: 0
WidescreenStoryboard: 1

[Editor]
DistanceSpacing: 1.4
BeatDivisor: 4
GridSize: 32
TimelineZoom: 2.5

[Metadata]
Title:Lost Desire
TitleUnicode:Lost Desire
Artist:Powerless feat. Sennzai
ArtistUnicode:Powerless feat. Sennzai
Creator:Pentori
Version:Hard
Source:Arcaea
Tags:無力p muryokup video game orchestral japanese lowiro black fate mikan -mikan
BeatmapID:2483136
BeatmapSetID:1187717

[Difficulty]
HPDrainRate:5
CircleSize:4
OverallDifficulty:6
ApproachRate:8
SliderMultiplier:1.6
SliderTickRate:1

[Events]
//Background and Video events
0,0,"abcde.jpg",0,0
//Break Periods
//Storyboard Layer 0 (Background)
//Storyboard Layer 1 (Fail)
//Storyboard Layer 2 (Pass)
//Storyboard Layer 3 (Foreground)
//Storyboard Layer 4 (Overlay)
//Storyboard Sound Samples

[TimingPoints]
1400,352.941176470588,4,2,1,70,1,0
12694,-125,4,2,1,50,0,0
23282,-125,4,2,1,40,0,0
23988,-125,4,2,1,60,0,0
34576,-125,4,2,1,50,0,0
35282,-125,4,2,1,60,0,0
55047,-100,4,2,1,80,0,0
56458,-100,4,2,1,40,0,0
57870,-100,4,2,1,80,0,1
80458,-125,4,2,1,80,0,0
80547,-125,4,2,1,20,0,0
85752,-125,4,2,1,5,0,0
86105,-125,4,2,1,30,0,0
97399,-125,4,2,1,60,0,0
103047,-125,4,2,1,70,0,0
105870,-100,4,2,1,70,0,0
108694,-100,4,2,1,80,0,1
119988,-125,4,2,1,70,0,0
125635,-100,4,2,1,70,0,0
130576,-100,4,2,1,60,0,0
131282,-100,4,2,1,80,0,1
142576,-100,4,2,1,70,0,0
145399,-125,4,2,1,70,0,0
146784,359.281437125748,4,2,1,70,1,0
146784,-125,4,2,1,70,0,0
148221,352.941176470588,4,2,1,70,1,0

[Colours]
Combo1 : 211,168,255
Combo2 : 248,211,129
Combo3 : 170,224,240

[HitObjects]
383,161,1400,6,0,P|348:144|284:164,1,80,14|0,0:1|0:0,0:0:0:0:
239,81,1752,2,0,P|204:98|140:78,1,80,10|2,0:0|0:0,0:0:0:0:
101,20,2105,2,0,P|28:26|26:99,1,160,10|10,0:1|0:0,0:0:0:0:
98,163,2635,1,0,0:0:0:0:
52,247,2811,6,0,P|61:288|67:336,1,80,10|2,0:1|0:0,0:0:0:0:
150,372,3164,2,0,P|155:332|164:293,1,80,10|0,0:0|0:0,0:0:0:0:
274,260,3517,2,0,P|257:295|277:359,1,80,10|0,0:1|0:0,0:0:0:0:
348,384,3870,1,10,0:0:0:0:
348,384,4047,1,2,0:0:0:0:
443,325,4223,6,0,P|453:245|470:167,1,160,10|10,0:1|0:0,0:0:0:0:
390,112,4752,1,2,0:0:0:0:
417,19,4929,2,0,P|455:10|495:5,1,80,10|0,0:1|0:0,0:0:0:0:
390,112,5282,2,0,P|351:103|311:98,1,80,10|0,0:0|0:0,0:0:0:0:
226,24,5635,6,0,P|186:20|151:37,1,80,10|2,0:1|0:0,0:0:0:0:
57,12,5988,2,0,P|33:44|30:83,1,80,10|0,0:0|0:0,0:0:0:0:
14,178,6341,2,0,P|44:170|76:166,3,40,10|8|10|8,0:1|0:1|0:1|0:1,0:0:0:0:
85,205,6694,1,10,0:0:0:0:
178,129,6870,5,10,0:1:0:0:
178,129,6958,1,8,0:1:0:0:
178,129,7047,2,0,B|266:97|254:173|339:148,1,160,14|10,0:1|0:0,0:0:0:0:
392,77,7576,1,2,0:0:0:0:
485,95,7752,2,0,P|502:130|497:169,1,80,10|0,0:1|0:0,0:0:0:0:
503,266,8105,2,0,P|463:270|424:279,1,80,10|0,0:0|0:0,0:0:0:0:
345,358,8458,6,0,P|266:341|187:331,1,160,10|10,0:1|0:0,0:0:0:0:
121,259,8988,1,2,0:0:0:0:
142,165,9164,2,0,P|177:147|216:152,1,80,10|0,0:1|0:0,0:0:0:0:
286,226,9517,1,10,0:0:0:0:
286,226,9694,1,2,0:0:0:0:
386,174,9870,6,0,P|390:134|399:95,1,80,10|0,0:1|0:0,0:0:0:0:
319,41,10223,2,0,P|309:79|304:119,1,80,10|2,0:0|0:0,0:0:0:0:
216,152,10576,1,10,0:1:0:0:
216,152,10753,1,0,0:0:0:0:
126,119,10929,2,0,P|108:154|113:193,1,80,10|0,0:0|0:0,0:0:0:0:
125,288,11282,6,0,P|61:274|-2:266,2,120,12|12|12,0:1|0:1|0:1,0:0:0:0:
204,342,11988,1,10,0:1:0:0:
216,340,12076,1,10,0:1:0:0:
228,338,12164,1,10,0:1:0:0:
240,336,12252,1,10,0:1:0:0:
251,334,12341,2,0,P|269:299|264:260,1,80,12|8,0:0|0:1,0:0:0:0:
366,196,12694,5,12,0:1:0:0:
280,170,12870,2,0,P|267:109|305:59,1,128,8|0,0:1|0:0,0:0:0:0:
392,79,13399,2,0,P|461:64|530:55,1,128,8|0,0:0|0:0,0:0:0:0:
496,144,13929,2,0,P|481:213|472:282,1,128,8|0,0:1|0:0,0:0:0:0:
495,356,14458,1,8,0:1:0:0:
368,228,14811,2,0,P|336:224|307:237,1,64,8|0,0:0|0:0,0:0:0:0:
239,177,15164,2,0,P|184:165|130:158,1,96,2|0,0:0|0:0,0:0:0:0:
112,127,15517,5,8,0:1:0:0:
31,166,15694,2,0,P|44:228|53:291,1,128,8|0,0:1|0:0,0:0:0:0:
120,351,16223,2,0,P|169:313|230:326,1,128,8|0,0:0|0:0,0:0:0:0:
304,275,16752,2,0,P|353:312|414:299,1,128,8|0,0:1|0:0,0:0:0:0:
466,225,17282,1,8,0:1:0:0:
391,62,17635,2,0,P|381:104|376:146,1,64,8|0,0:0|0:0,0:0:0:0:
283,157,17988,2,0,P|276:109|265:62,1,96,2|0,0:0|0:0,0:0:0:0:
232,31,18341,5,8,0:1:0:0:
149,65,18517,2,0,P|111:114|124:175,1,128,8|0,0:1|0:0,0:0:0:0:
195,229,19047,2,0,P|180:298|171:367,1,128,8|0,0:0|0:0,0:0:0:0:
86,381,19576,2,0,P|77:317|63:255,1,128,8|0,0:1|0:0,0:0:0:0:
4,187,20105,1,8,0:1:0:0:
131,60,20458,2,0,P|162:65|193:72,1,64,8|0,0:0|0:0,0:0:0:0:
265,125,20811,2,0,P|308:98|353:110,1,96,2|0,0:0|0:0,0:0:0:0:
392,93,21164,5,8,0:1:0:0:
435,171,21341,2,0,P|385:208|324:195,1,128,8|0,0:1|0:0,0:0:0:0:
252,248,21870,2,0,P|188:255|126:269,1,128,8|0,0:0|0:0,0:0:0:0:
53,322,22399,2,0,P|113:308|163:346,1,128,8|0,0:1|0:0,0:0:0:0:
245,381,22929,1,8,0:1:0:0:
308,319,23105,1,8,0:1:0:0:
308,319,23194,1,8,0:1:0:0:
308,319,23282,2,0,P|304:299|298:280,3,32,2|2|2|2,0:0|0:0|0:0|0:0,0:0:0:0:
327,251,23635,2,0,P|331:231|337:212,3,32,2|2|2|2,0:0|0:0|0:0|0:0,0:0:0:0:
306,184,23988,6,0,P|276:196|245:192,1,64,12|0,0:1|0:0,0:0:0:0:
163,228,24341,2,0,P|137:209|125:179,1,64,8|0,0:1|0:0,0:0:0:0:
138,91,24694,2,0,P|201:99|263:113,1,128,8|8,0:0|0:1,0:0:0:0:
296,29,25223,1,0,0:0:0:0:
383,44,25399,6,0,P|414:36|445:31,1,64,8|0,0:1|0:0,0:0:0:0:
490,108,25752,2,0,P|458:113|427:120,1,64,8|0,0:1|0:0,0:0:0:0:
374,192,26105,2,0,P|344:179|313:183,1,64,8|2,0:0|0:0,0:0:0:0:
239,233,26458,2,0,P|226:262|230:293,1,64,8|2,0:0|0:0,0:0:0:0:
317,272,26811,6,0,P|308:208|294:146,1,128,8|8,0:1|0:1,0:0:0:0:
225,87,27341,1,0,0:0:0:0:
146,130,27517,2,0,P|114:134|85:121,1,64,8|0,0:0|0:0,0:0:0:0:
31,192,27870,2,0,P|19:221|23:252,1,64,8|0,0:1|0:0,0:0:0:0:
94,307,28223,6,0,P|154:293|204:331,1,128,8|8,0:1|0:1,0:0:0:0:
276,383,28752,1,0,0:0:0:0:
353,336,28929,2,0,P|384:328|415:323,1,64,8|2,0:0|0:0,0:0:0:0:
430,234,29282,2,0,P|398:239|367:246,1,64,8|2,0:0|0:0,0:0:0:0:
283,278,29635,5,8,0:1:0:0:
226,208,29811,2,0,P|212:148|250:98,1,128
339,98,30341,2,0,P|331:129|326:160,1,64,8|0,0:0|0:0,0:0:0:0:
249,98,30694,2,0,P|243:66|236:35,1,64,8|0,0:1|0:0,0:0:0:0:
155,75,31047,6,0,P|123:67|92:62,2,64,8|0|8,0:1|0:0|0:1,0:0:0:0:
113,154,31576,1,0,0:0:0:0:
160,235,31752,2,0,P|130:247|99:243,1,64,8|2,0:0|0:0,0:0:0:0:
24,193,32105,2,0,P|11:163|15:132,1,64,8|2,0:0|0:0,0:0:0:0:
113,154,32458,6,0,P|99:216|90:279,1,128,8|8,0:1|0:1,0:0:0:0:
150,346,32988,1,0,0:0:0:0:
239,340,33164,2,0,P|276:290|262:230,1,128,8|8,0:0|0:1,0:0:0:0:
345,196,33694,1,0,0:0:0:0:
303,117,33870,6,0,P|295:85|290:54,1,64,8|0,0:1|0:0,0:0:0:0:
205,23,34223,2,0,P|197:54|192:85,1,64,8|0,0:1|0:0,0:0:0:0:
150,165,34576,2,0,P|130:168|111:174,3,32,10|2|2|2,0:0|0:0|0:0|0:0,0:0:0:0:
80,146,34929,2,0,P|64:141|48:139,3,32,10|2|2|2,0:0|0:0|0:0|0:0,0:0:0:0:
7,158,35282,6,0,P|44:207|30:267,1,128,12|8,0:1|0:1,0:0:0:0:
84,339,35811,1,0,0:0:0:0:
166,304,35988,2,0,P|213:311|260:321,1,96,8|0,0:0|0:0,0:0:0:0:
296,348,36341,2,0,P|327:340|358:335,1,64,8|0,0:1|0:0,0:0:0:0:
429,275,36694,6,0,P|380:238|320:252,1,128,8|8,0:1|0:1,0:0:0:0:
272,176,37223,1,0,0:0:0:0:
187,206,37399,2,0,P|191:221|193:237,2,32,8|0|2,0:0|0:0|0:0,0:0:0:0:
107,164,37752,2,0,P|112:132|120:101,1,64,8|0,0:0|0:0,0:0:0:0:
180,34,38105,6,0,P|242:20|305:11,1,128,8|8,0:1|0:1,0:0:0:0:
386,50,38635,1,0,0:0:0:0:
479,30,38811,2,0,P|471:61|466:92,1,64,8|0,0:0|0:0,0:0:0:0:
404,157,39164,2,0,P|412:188|417:219,1,64,8|0,0:1|0:0,0:0:0:0:
462,296,39517,6,0,P|413:259|353:273,1,128,8|8,0:1|0:1,0:0:0:0:
293,341,40047,1,0,0:0:0:0:
213,299,40223,2,0,P|215:283|219:267,2,32,8|0|2,0:0|0:0|0:0,0:0:0:0:
144,356,40576,2,0,P|113:348|82:343,1,64,8|0,0:0|0:0,0:0:0:0:
16,280,40929,6,0,P|53:231|39:171,1,128,8|8,0:1|0:1,0:0:0:0:
76,88,41458,1,0,0:0:0:0:
164,105,41635,2,0,P|226:91|289:82,1,128,8|8,0:0|0:1,0:0:0:0:
365,130,42164,1,0,0:0:0:0:
321,209,42341,6,0,P|308:239|312:270,2,64,8|0|8,0:1|0:0|0:1,0:0:0:0:
400,253,42870,1,0,0:0:0:0:
444,174,43047,2,0,P|459:176|475:180,2,32,8|0|2,0:0|0:0|0:0,0:0:0:0:
365,130,43399,2,0,P|362:114|358:98,2,32,8|0|2,0:0|0:0|0:0,0:0:0:0:
321,209,43752,6,0,P|258:194|195:185,1,128,8|8,0:1|0:1,0:0:0:0:
136,116,44282,1,0,0:0:0:0:
49,138,44458,2,0,P|22:181|34:226,1,96,8|0,0:0|0:0,0:0:0:0:
62,256,44811,2,0,P|54:287|49:318,1,64,8|0,0:1|0:0,0:0:0:0:
137,334,45164,6,0,P|182:342|221:316,2,96,8|8|8,0:1|0:1|0:1,0:0:0:0:
165,248,45870,1,10,0:1:0:0:
167,236,45958,1,10,0:1:0:0:
169,224,46046,1,10,0:1:0:0:
171,212,46134,1,10,0:1:0:0:
173,200,46223,2,0,P|170:184|166:168,3,32,10|10|10|10,0:1|0:1|0:1|0:1,0:0:0:0:
179,125,46576,6,0,P|148:117|116:112,1,64,12|0,0:1|0:0,0:0:0:0:
90,26,46929,2,0,P|120:18|152:12,1,64,8|0,0:1|0:0,0:0:0:0:
234,49,47282,2,0,P|277:22|322:34,1,96,8|0,0:0|0:0,0:0:0:0:
355,58,47635,2,0,P|347:88|341:120,1,64,8|0,0:1|0:0,0:0:0:0:
410,177,47988,6,0,P|397:207|401:238,1,64,8|0,0:1|0:0,0:0:0:0:
444,316,48341,2,0,P|415:328|383:325,1,64,8|0,0:1|0:0,0:0:0:0:
298,353,48694,2,0,P|301:368|304:384,2,32,8|0|2,0:0|0:0|0:0,0:0:0:0:
224,301,49047,2,0,P|229:269|238:238,1,64,8|0,0:0|0:0,0:0:0:0:
170,179,49399,6,0,P|121:216|61:202,1,128,8|8,0:1|0:1,0:0:0:0:
14,123,49929,1,0,0:0:0:0:
63,48,50105,2,0,P|110:55|157:65,1,96,8|0,0:0|0:0,0:0:0:0:
197,45,50458,2,0,P|225:57|257:54,1,64,8|0,0:1|0:0,0:0:0:0:
340,87,50811,6,0,P|345:55|354:24,1,64,8|0,0:1|0:0,0:0:0:0:
428,74,51164,2,0,P|419:104|413:136,1,64,8|0,0:1|0:0,0:0:0:0:
481,195,51517,2,0,P|496:191|512:188,2,32,8|0|2,0:0|0:0|0:0,0:0:0:0:
418,259,51870,2,0,P|405:289|409:320,1,64,8|0,0:0|0:0,0:0:0:0:
333,369,52223,6,0,P|302:360|270:354,1,64,8|0,0:1|0:0,0:0:0:0:
208,297,52576,1,8,0:1:0:0:
208,297,52752,1,0,0:0:0:0:
271,232,52929,2,0,P|274:200|261:171,1,64,8|0,0:0|0:0,0:0:0:0:
297,89,53282,2,0,P|271:70|240:66,1,64,8|0,0:1|0:0,0:0:0:0:
139,64,53635,6,0,P|154:127|163:190,1,128,8|8,0:1|0:1,0:0:0:0:
79,222,54164,1,0,0:0:0:0:
105,307,54341,2,0,P|101:322|98:338,2,32,8|0|2,0:0|0:0|0:0,0:0:0:0:
189,276,54694,1,8,0:0:0:0:
285,343,54870,5,8,0:1:0:0:
285,343,54958,1,8,0:1:0:0:
285,343,55047,2,0,P|337:316|392:336,2,106.666666666667,12|12|12,0:1|0:1|0:1,0:0:0:0:
189,276,55752,2,0,P|199:224|173:179,2,106.666666666667,12|12|12,0:1|0:1|0:1,0:0:0:0:
295,226,56458,5,2,0:0:0:0:
339,27,57870,6,0,P|282:79|196:46,1,160,14|8,0:1|0:0,0:0:0:0:
133,120,58399,1,0,0:0:0:0:
30,85,58576,2,0,P|45:154|54:223,1,120,10|2,0:1|0:0,0:0:0:0:
33,247,58929,2,0,P|73:252|112:261,1,80,8|2,0:0|0:0,0:0:0:0:
215,193,59282,6,0,B|303:161|291:237|376:212,1,160,10|8,0:1|0:0,0:0:0:0:
344,340,59811,1,2,0:0:0:0:
344,340,59899,1,0,0:0:0:0:
344,340,59988,2,0,P|286:352|238:319,1,120,10|2,0:1|0:0,0:0:0:0:
250,272,60341,2,0,P|210:276|171:285,1,80,8|2,0:0|0:0,0:0:0:0:
86,370,60694,6,0,P|47:361|7:356,1,80,10|0,0:1|0:0,0:0:0:0:
62,267,61047,1,8,0:0:0:0:
21,180,61223,1,2,0:0:0:0:
95,119,61399,2,0,P|152:131|200:98,1,120,10|2,0:1|0:0,0:0:0:0:
248,94,61752,2,0,P|265:58|260:19,1,80,8|2,0:0|0:0,0:0:0:0:
135,47,62105,6,0,P|151:125|161:204,1,160,10|8,0:1|0:0,0:0:0:0:
257,262,62635,1,2,0:0:0:0:
257,262,62723,1,2,0:0:0:0:
257,262,62811,2,0,P|262:222|271:183,1,80,10|2,0:1|0:0,0:0:0:0:
403,154,63164,1,8,0:0:0:0:
350,235,63341,1,2,0:0:0:0:
323,102,63517,6,0,P|274:68|217:80,1,120,10|2,0:1|0:0,0:0:0:0:
185,43,63870,2,0,P|150:60|86:40,1,80,8|2,0:0|0:0,0:0:0:0:
18,43,64223,1,14,0:1:0:0:
18,43,64399,1,2,0:0:0:0:
70,170,64576,1,10,0:0:0:0:
70,170,64752,1,2,0:0:0:0:
12,248,64929,6,0,P|71:256|129:269,1,120,10|2,0:1|0:0,0:0:0:0:
178,268,65282,2,0,P|195:304|190:343,1,80,8|2,0:0|0:0,0:0:0:0:
343,384,65635,1,14,0:1:0:0:
343,384,65811,1,2,0:0:0:0:
300,303,65988,1,10,0:0:0:0:
300,303,66164,1,2,0:0:0:0:
396,231,66341,6,0,P|401:191|410:152,1,80,10|0,0:1|0:0,0:0:0:0:
298,104,66694,2,0,P|315:140|310:179,1,80,8|2,0:0|0:0,0:0:0:0:
310,178,66958,1,2,0:0:0:0:
310,178,67047,2,0,P|271:169|231:164,1,80,10|0,0:1|0:0,0:0:0:0:
162,97,67399,2,0,P|122:101|83:110,1,80,10|0,0:0|0:0,0:0:0:0:
64,228,67752,6,0,P|122:216|170:249,2,120,12|12|12,0:1|0:1|0:1,0:0:0:0:
105,315,68458,1,10,0:1:0:0:
102,333,68546,1,10,0:1:0:0:
99,350,68634,1,10,0:1:0:0:
96,366,68722,1,10,0:1:0:0:
93,382,68811,2,0,P|123:374|155:370,3,40,12|8|8|8,0:0|0:1|0:1|0:1,0:0:0:0:
179,361,69164,6,0,B|222:365|254:336|254:336|276:378|317:383,1,160,14|8,0:1|0:0,0:0:0:0:
388,321,69694,1,0,0:0:0:0:
492,343,69870,2,0,P|500:283|513:225,1,120,10|2,0:1|0:0,0:0:0:0:
483,187,70223,2,0,P|447:204|408:199,1,80,8|2,0:0|0:0,0:0:0:0:
304,257,70576,6,0,P|247:205|161:238,1,160,10|8,0:1|0:0,0:0:0:0:
113,161,71105,1,2,0:0:0:0:
113,161,71193,1,0,0:0:0:0:
113,160,71282,2,0,P|125:103|92:55,1,120,10|2,0:1|0:0,0:0:0:0:
123,18,71635,2,0,P|163:23|202:32,1,80,8|2,0:0|0:0,0:0:0:0:
292,110,71988,6,0,B|365:97|365:97|378:88|378:88|450:75,1,160,10|8,0:1|0:0,0:0:0:0:
511,147,72517,1,2,0:0:0:0:
451,223,72694,2,0,P|437:281|430:340,1,120,10|2,0:1|0:0,0:0:0:0:
397,376,73047,1,8,0:0:0:0:
314,326,73223,1,2,0:0:0:0:
205,384,73399,6,0,P|153:327|186:241,1,160,10|10,0:1|0:0,0:0:0:0:
258,202,73929,1,2,0:0:0:0:
258,202,74017,1,2,0:0:0:0:
258,202,74105,2,0,P|253:162|244:123,1,80,10|10,0:1|0:1,0:0:0:0:
329,77,74459,1,12,0:0:0:0:
341,79,74547,1,8,0:1:0:0:
353,81,74635,1,8,0:1:0:0:
365,83,74723,1,8,0:1:0:0:
376,85,74811,6,0,P|424:51|481:63,2,120,12|12|12,0:1|0:1|0:1,0:0:0:0:
343,175,75517,2,0,P|357:233|364:292,2,120,12|12|12,0:1|0:1|0:1,0:0:0:0:
247,159,76223,6,0,P|189:170|141:137,2,120,12|12|12,0:1|0:1|0:1,0:0:0:0:
280,69,76929,2,0,P|283:49|289:30,3,40,8|8|8|8,0:1|0:1|0:1|0:1,0:0:0:0:
251,0,77282,2,0,P|191:6|133:21,1,120,12|0,0:0|0:0,0:0:0:0:
89,1,77635,6,0,P|72:37|77:76,1,80,12|0,0:1|0:0,0:0:0:0:
153,151,77988,2,0,P|144:189|139:229,1,80,10|2,0:0|0:0,0:0:0:0:
139,229,78252,1,0,0:0:0:0:
139,229,78341,2,0,P|99:233|60:242,1,80,10|0,0:1|0:0,0:0:0:0:
6,322,78694,2,0,P|42:339|81:334,1,80,8|2,0:0|0:0,0:0:0:0:
170,368,79047,6,0,P|205:351|244:355,1,80,8|8,0:1|0:1,0:0:0:0:
319,296,79399,2,0,P|351:318|366:354,1,80,8|8,0:1|0:1,0:0:0:0:
457,325,79752,1,8,0:1:0:0:
459,313,79840,1,8,0:1:0:0:
461,301,79928,1,8,0:1:0:0:
463,289,80016,1,8,0:1:0:0:
465,278,80105,2,0,P|462:258|456:239,3,40,8|8|8|8,0:1|0:1|0:1|0:1,0:0:0:0:
476,206,80458,5,4,0:0:0:0:
256,192,80547,12,0,85752,0:0:0:0:
387,133,86105,6,0,P|326:120|276:158,1,128,14|0,1:0|0:0,0:0:0:0:
207,99,86635,2,0,P|146:112|96:74,1,128,2|0,1:0|0:0,0:0:0:0:
19,120,87164,1,2,0:0:0:0:
60,210,87341,5,2,0:0:0:0:
60,210,87429,1,2,0:0:0:0:
60,210,87517,2,0,P|50:252|45:294,1,64
101,351,87870,1,2,1:0:0:0:
101,351,88047,1,0,1:0:0:0:
185,322,88223,2,0,P|217:318|246:331,1,64,2|0,1:0|0:0,0:0:0:0:
317,276,88576,2,0,P|336:301|339:333,1,64,2|0,1:0|1:0,0:0:0:0:
427,374,88929,6,0,P|435:310|449:248,1,128,2|0,1:0|0:0,0:0:0:0:
384,185,89458,2,0,P|375:121|361:59,1,128,2|0,1:0|0:0,0:0:0:0:
429,0,89988,1,2,0:0:0:0:
511,55,90164,5,2,0:0:0:0:
511,55,90252,1,2,0:0:0:0:
511,55,90341,2,0,P|498:84|502:115,1,64
511,204,90694,2,0,P|479:209|448:217,1,64,2|0,1:0|1:0,0:0:0:0:
398,291,91047,2,0,P|393:306|390:322,2,32,2|2|0,1:0|0:0|0:0,0:0:0:0:
312,264,91399,1,2,1:0:0:0:
159,358,91752,6,0,P|98:371|48:333,1,128,2|0,1:0|0:0,0:0:0:0:
69,246,92282,2,0,P|60:182|46:120,1,128,2|0,1:0|0:0,0:0:0:0:
15,40,92811,1,2,1:0:0:0:
15,40,92988,1,2,1:0:0:0:
95,0,93164,6,0,P|126:4|157:13,1,64,2|0,0:0|0:0,0:0:0:0:
223,74,93517,1,2,0:0:0:0:
386,25,93870,2,0,P|399:54|395:85,1,64,2|0,1:0|0:0,0:0:0:0:
345,160,94223,2,0,P|332:189|336:220,1,64,2|0,1:0|1:0,0:0:0:0:
406,275,94576,6,0,P|345:262|295:300,1,128,2|0,1:0|0:0,0:0:0:0:
228,239,95105,2,0,P|164:248|102:262,1,128,2|0,1:0|0:0,0:0:0:0:
31,205,95635,1,2,1:0:0:0:
82,131,95811,6,0,P|86:99|73:70,1,64,2|0,1:0|0:0,0:0:0:0:
142,13,96164,2,0,P|206:22|268:36,1,128,2|0,1:0|1:0,0:0:0:0:
320,109,96694,2,0,P|348:96|380:100,1,64,2|2,1:0|1:0,0:0:0:0:
449,157,97047,2,0,P|444:172|441:188,3,32,2|2|2|2,1:0|1:0|1:0|1:0,0:0:0:0:
409,219,97399,6,0,P|417:249|422:281,1,64,12|2,0:1|0:0,0:0:0:0:
375,358,97752,2,0,P|344:349|312:344,1,64,8|2,0:1|0:0,0:0:0:0:
237,294,98105,2,0,P|187:331|126:318,1,128,8|8,0:1|0:1,0:0:0:0:
106,232,98635,5,2,0:0:0:0:
106,232,98723,1,0,0:0:0:0:
106,232,98811,2,0,P|137:236|168:245,1,64,8|2,0:1|0:0,0:0:0:0:
249,206,99164,2,0,P|279:197|311:192,1,64,8|2,0:1|0:0,0:0:0:0:
390,149,99517,2,0,P|405:151|420:156,2,32,10|2|2,0:1|0:0|0:0,0:0:0:0:
313,102,99870,2,0,P|297:104|282:109,2,32,10|2|2,0:1|0:0|0:0,0:0:0:0:
391,58,100223,6,0,P|403:28|399:-2,1,64,8|2,0:1|0:0,0:0:0:0:
311,17,100576,2,0,P|279:21|248:31,1,64,8|2,0:1|0:0,0:0:0:0:
163,2,100929,2,0,P|148:71|139:140,1,128,8|8,0:1|0:1,0:0:0:0:
89,204,101458,5,2,0:0:0:0:
89,204,101547,1,0,0:0:0:0:
89,204,101635,2,0,P|102:232|98:264,1,64,8|2,0:1|0:0,0:0:0:0:
76,358,101988,2,0,P|106:349|138:344,1,64,8|2,0:1|0:0,0:0:0:0:
196,275,102341,2,0,P|198:260|203:245,2,32,10|2|2,0:1|0:0|0:0,0:0:0:0:
278,309,102694,2,0,P|280:324|285:339,2,32,10|2|2,0:1|0:0|0:0,0:0:0:0:
320,229,103047,5,8,0:1:0:0:
416,246,103223,1,10,0:1:0:0:
416,246,103312,1,0,0:0:0:0:
416,246,103400,2,0,P|429:217|424:185,1,64,8|10,0:1|0:1,0:0:0:0:
380,107,103752,2,0,P|382:92|387:77,2,32,8|0|10,0:1|0:0|0:1,0:0:0:0:
303,149,104105,6,0,P|271:153|240:163,1,64,8|10,0:1|0:1,0:0:0:0:
240,163,104370,1,2,0:0:0:0:
240,163,104458,2,0,P|209:153|177:148,1,64,8|10,0:1|0:1,0:0:0:0:
97,188,104811,2,0,P|102:203|104:218,2,32,8|2|10,0:1|0:0|0:1,0:0:0:0:
20,140,105164,1,10,0:1:0:0:
22,128,105252,1,8,0:1:0:0:
24,116,105340,1,10,0:1:0:0:
26,104,105428,1,8,0:1:0:0:
28,92,105517,2,0,P|43:88|59:85,3,32,10|8|10|8,0:1|0:1|0:1|0:1,0:0:0:0:
105,66,105870,6,0,P|157:72|210:84,2,106.666666666667,12|8|8,0:1|0:1|0:1,0:0:0:0:
145,176,106576,2,0,P|93:182|40:194,2,106.666666666667,12|8|8,0:1|0:1|0:1,0:0:0:0:
105,286,107282,2,0,P|157:292|210:304,2,106.666666666667,12|8|8,0:1|0:1|0:1,0:0:0:0:
3,364,107988,5,12,0:1:0:0:
40,193,108341,2,0,P|34:153|25:114,1,80,12|0,0:0|0:0,0:0:0:0:
77,6,108694,6,0,P|151:-13|208:38,1,160,12|10,0:1|0:0,0:0:0:0:
189,133,109223,1,2,0:0:0:0:
273,198,109399,2,0,P|312:189|351:183,1,80,10|2,0:1|0:0,0:0:0:0:
351,183,109664,1,0,0:0:0:0:
351,183,109752,2,0,P|343:213|339:245,2,40,10|2|0,0:0|0:0|0:0,0:0:0:0:
434,134,110105,5,10,0:1:0:0:
506,197,110282,1,2,0:0:0:0:
468,284,110458,2,0,P|428:290|389:299,1,80,10|2,0:0|0:0,0:0:0:0:
389,299,110723,1,0,0:0:0:0:
389,299,110811,1,10,0:1:0:0:
339,381,110988,1,2,0:0:0:0:
254,335,111164,2,0,P|257:315|263:296,2,40,10|2|2,0:0|0:0|0:0,0:0:0:0:
152,372,111517,6,0,P|156:332|139:297,1,80,8|0,0:1|0:0,0:0:0:0:
60,242,111870,1,10,0:0:0:0:
98,158,112047,1,2,0:0:0:0:
98,158,112135,1,0,0:0:0:0:
98,158,112223,2,0,P|95:138|89:119,3,40,10|0|2|0,0:1|0:0|0:0|0:0,0:0:0:0:
120,82,112576,2,0,P|123:62|129:43,2,40,10|2|0,0:0|0:0|0:0,0:0:0:0:
222,83,112929,6,0,P|262:87|297:70,1,80,10|2,0:1|0:0,0:0:0:0:
368,134,113282,2,0,P|407:129|442:146,1,80,10|2,0:0|0:0,0:0:0:0:
389,226,113635,1,10,0:1:0:0:
391,237,113724,1,8,0:1:0:0:
393,249,113812,1,10,0:1:0:0:
395,261,113900,1,8,0:1:0:0:
397,273,113988,2,0,P|358:264|318:258,1,80,10|10,0:0|0:1,0:0:0:0:
251,358,114341,6,0,B|168:382|189:306|93:334,1,160,12|10,0:1|0:0,0:0:0:0:
41,255,114870,1,2,0:0:0:0:
98,177,115047,2,0,P|137:182|176:191,1,80,10|2,0:1|0:0,0:0:0:0:
237,265,115399,2,0,P|277:269|312:252,1,80,10|2,0:0|0:0,0:0:0:0:
311,252,115664,1,2,0:0:0:0:
311,252,115752,1,10,0:1:0:0:
394,203,115929,5,2,0:0:0:0:
356,127,116105,2,0,P|361:88|370:49,1,80,10|2,0:0|0:0,0:0:0:0:
370,48,116370,1,2,0:0:0:0:
370,48,116458,2,0,P|350:50|331:56,3,40,10|0|2|2,0:1|0:0|0:0|0:0,0:0:0:0:
291,28,116811,2,0,P|271:22|252:20,2,40,10|0|2,0:0|0:0|0:0,0:0:0:0:
239,109,117164,6,0,P|203:126|164:121,1,80,10|2,0:1|0:0,0:0:0:0:
96,190,117517,2,0,P|60:172|21:177,1,80,10|2,0:0|0:0,0:0:0:0:
47,269,117870,2,0,P|52:288|54:307,3,40,10|2|2|2,0:1|0:0|0:0|0:0,0:0:0:0:
39,354,118223,1,10,0:0:0:0:
159,302,118399,5,2,0:0:0:0:
159,302,118488,1,2,0:0:0:0:
159,302,118576,2,0,P|216:289|264:322,2,120,12|12|12,0:1|0:1|0:1,0:0:0:0:
103,223,119282,1,10,0:1:0:0:
100,205,119370,1,8,0:1:0:0:
97,188,119458,1,10,0:1:0:0:
94,172,119546,1,8,0:1:0:0:
91,156,119635,2,0,P|121:164|153:168,3,40,10|8|10|10,0:1|0:1|0:1|0:1,0:0:0:0:
162,134,119988,6,0,P|257:133|260:219,1,192,14|0,0:1|0:0,0:0:0:0:
336,266,120694,2,0,P|324:321|317:375,2,96
447,270,121399,6,0,B|409:167|498:181|469:82,1,192,14|0,0:1|0:0,0:0:0:0:
417,16,122105,2,0,P|378:-10|332:-1,2,96
356,98,122811,6,0,B|272:113|272:113|256:123|256:123|170:139,1,192,14|0,0:1|0:0,0:0:0:0:
86,105,123517,2,0,P|94:59|68:20,2,96
13,177,124223,6,0,P|27:239|35:302,1,128,14|0,0:1|0:0,0:0:0:0:
107,356,124752,2,0,P|144:306|130:246,1,128,12|8,0:1|0:1,0:0:0:0:
197,186,125282,2,0,P|228:191|259:199,1,64,12|0,0:0|0:0,0:0:0:0:
327,282,125635,6,0,P|379:255|434:275,2,106.666666666667,12|8|8,0:1|0:1|0:1,0:0:0:0:
259,199,126341,2,0,P|207:226|152:206,2,106.666666666667,8|8|8,0:1|0:1|0:1,0:0:0:0:
195,112,127047,6,0,P|201:59|212:7,2,106.666666666667,12|8|8,0:1|0:1|0:1,0:0:0:0:
91,136,127752,2,0,P|38:142|-13:153,2,106.666666666667,8|8|8,0:1|0:1|0:1,0:0:0:0:
163,215,128458,6,0,B|171:262|171:262|175:273|175:273|184:330,2,106.666666666667,12|8|8,0:1|0:1|0:1,0:0:0:0:
257,165,129164,2,0,B|264:119|264:119|268:107|268:107|277:60,2,106.666666666667,8|8|8,0:1|0:1|0:1,0:0:0:0:
348,221,129870,6,0,P|406:232|454:199,2,120,12|12|12,0:1|0:1|0:1,0:0:0:0:
387,140,130576,1,2,0:0:0:0:
53,329,131282,6,0,B|136:353|115:277|211:305,1,160,14|8,0:1|0:0,0:0:0:0:
280,361,131811,1,0,0:0:0:0:
365,316,131988,2,0,P|398:267|386:210,1,120,10|2,0:1|0:0,0:0:0:0:
344,185,132341,2,0,P|349:145|358:106,1,80,8|2,0:0|0:0,0:0:0:0:
240,156,132694,6,0,P|160:166|82:182,1,160,10|8,0:1|0:0,0:0:0:0:
18,77,133223,1,2,0:0:0:0:
18,77,133311,1,0,0:0:0:0:
18,77,133400,2,0,P|75:89|123:56,1,120,10|2,0:1|0:0,0:0:0:0:
116,8,133752,2,0,P|156:13|195:22,1,80,8|2,0:0|0:0,0:0:0:0:
288,0,134105,6,0,P|305:36|300:75,1,80,10|0,0:1|0:0,0:0:0:0:
242,151,134458,1,8,0:0:0:0:
312,216,134635,1,2,0:0:0:0:
277,320,134811,2,0,P|335:306|394:298,1,120,10|2,0:1|0:0,0:0:0:0:
439,317,135164,2,0,P|444:277|453:238,1,80,8|2,0:0|0:0,0:0:0:0:
470,125,135517,6,0,B|428:121|396:149|396:149|375:108|335:103,1,160,10|10,0:1|0:0,0:0:0:0:
274,27,136047,1,2,0:0:0:0:
274,27,136135,1,2,0:0:0:0:
274,27,136223,2,0,P|234:31|195:40,1,80,10|10,0:1|0:1,0:0:0:0:
112,90,136576,1,12,0:0:0:0:
100,88,136664,1,8,0:1:0:0:
88,86,136752,1,8,0:1:0:0:
76,84,136840,1,8,0:1:0:0:
65,82,136929,6,0,P|31:130|43:187,2,120,12|12|12,0:1|0:1|0:1,0:0:0:0:
133,149,137635,2,0,P|191:135|250:128,2,120,12|12|12,0:1|0:1|0:1,0:0:0:0:
118,244,138341,6,0,P|104:302|97:361,2,120,12|12|12,0:1|0:1|0:1,0:0:0:0:
42,186,139047,2,0,P|35:166|32:147,3,40,8|8|8|8,0:1|0:1|0:1|0:1,0:0:0:0:
57,106,139399,2,0,P|114:117|162:84,1,120,12|0,0:0|0:0,0:0:0:0:
209,94,139752,6,0,P|200:132|195:172,1,80,12|0,0:1|0:0,0:0:0:0:
256,260,140105,2,0,P|295:264|330:247,1,80,10|2,0:0|0:0,0:0:0:0:
330,247,140370,1,0,0:0:0:0:
330,247,140458,2,0,P|369:242|404:259,1,80,10|0,0:1|0:0,0:0:0:0:
475,194,140811,2,0,P|470:154|460:115,1,80,8|2,0:0|0:0,0:0:0:0:
502,28,141164,6,0,P|445:80|359:47,1,160,10|8,0:1|0:0,0:0:0:0:
296,122,141694,1,0,0:0:0:0:
203,96,141870,2,0,P|185:131|190:170,1,80,10|0,0:1|0:0,0:0:0:0:
133,248,142223,2,0,P|154:280|191:296,1,80,8|2,0:0|0:0,0:0:0:0:
311,281,142576,6,0,P|305:307|302:333,1,53.3333333333333,12|0,0:1|0:0,0:0:0:0:
336,374,142811,2,0,P|362:368|388:365,3,53.3333333333333,10|10|10|10,0:1|0:1|0:1|0:1,0:0:0:0:
438,383,143282,5,12,0:1:0:0:
491,291,143517,2,0,P|487:264|481:238,3,53.3333333333333,10|10|10|10,0:1|0:1|0:1|0:1,0:0:0:0:
506,190,143988,5,12,0:1:0:0:
440,106,144223,2,0,P|443:79|449:53,3,53.3333333333333,10|10|10|10,0:1|0:1|0:1|0:1,0:0:0:0:
425,5,144694,5,12,0:1:0:0:
333,58,144929,2,0,P|306:57|282:46,1,53.3333333333333,10|10,0:1|0:1,0:0:0:0:
239,77,145164,2,0,P|212:77|188:88,1,53.3333333333333,10|10,0:1|0:1,0:0:0:0:
180,141,145399,6,0,P|104:100|57:308,1,384,14|0,0:1|0:0,0:0:0:0:
207,284,146784,6,0,B|310:246|296:335|395:306,1,192,14|0,0:1|0:0,0:0:0:0:
448,240,147502,2,0,P|435:153|348:162,1,192,2|0,0:0|0:0,0:0:0:0:
282,89,148221,5,12,0:1:0:0:
186,41,148456,2,0,P|159:41|135:52,1,53.3333333333333,10|10,0:1|0:1,0:0:0:0:
82,46,148691,2,0,P|69:69|66:95,1,53.3333333333333,10|10,0:1|0:1,0:0:0:0:
95,140,148926,5,12,0:1:0:0:
25,221,149162,2,0,P|31:247|34:273,1,53.3333333333333,10|10,0:1|0:1,0:0:0:0:
81,297,149397,2,0,P|75:323|72:349,1,53.3333333333333,10|10,0:1|0:1,0:0:0:0:
113,383,149632,5,12,0:1:0:0:
207,331,149868,2,0,P|234:331|258:320,1,53.3333333333333,10|10,0:1|0:1,0:0:0:0:
311,326,150103,2,0,P|324:303|327:277,1,53.3333333333333,10|10,0:1|0:1,0:0:0:0:
353,230,150338,6,0,P|379:233|405:239,2,53.3333333333333,12|10|10,0:1|0:1|0:1,0:0:0:0:
326,183,150691,2,0,P|299:186|273:192,2,53.3333333333333,10|10|10,0:1|0:1|0:1,0:0:0:0:
368,113,151044,5,12,0:1:0:0:
