osu file format v14

[General]
AudioFilename: audio.mp3
AudioLeadIn: 0
PreviewTime: 57076
Countdown: 0
SampleSet: Soft
StackLeniency: 0.7
Mode: 0
LetterboxInBreaks: 0
WidescreenStoryboard: 1

[Editor]
DistanceSpacing: 0.9
BeatDivisor: 4
GridSize: 32
TimelineZoom: 2.5

[Metadata]
Title:Lost Desire
TitleUnicode:Lost Desire
Artist:Powerless feat. Sennzai
ArtistUnicode:Powerless feat. Sennzai
Creator:Pentori
Version:Easy
Source:Arcaea
Tags:無力p muryokup video game orchestral japanese lowiro black fate mikan -mikan
BeatmapID:2476526
BeatmapSetID:1187717

[Difficulty]
HPDrainRate:2
CircleSize:3
OverallDifficulty:2
ApproachRate:4
SliderMultiplier:1.1
SliderTickRate:1

[Events]
//Background and Video events
0,0,"abcde.jpg",0,0
//Break Periods
2,80658,84785
//Storyboard Layer 0 (Background)
//Storyboard Layer 1 (Fail)
//Storyboard Layer 2 (Pass)
//Storyboard Layer 3 (Foreground)
//Storyboard Layer 4 (Overlay)
//Storyboard Sound Samples

[TimingPoints]
1400,352.941176470588,4,2,1,70,1,0
12694,-100,4,2,1,50,0,0
23282,-100,4,2,1,40,0,0
23988,-100,4,2,1,60,0,0
34576,-100,4,2,1,50,0,0
35282,-100,4,2,1,60,0,0
55047,-100,4,2,1,80,0,0
56458,-100,4,2,1,40,0,0
57870,-100,4,2,1,80,0,1
80458,-100,4,2,1,80,0,0
86105,-100,4,2,1,30,0,0
97399,-100,4,2,1,60,0,0
103047,-100,4,2,1,70,0,0
108694,-100,4,2,1,80,0,1
119988,-100,4,2,1,70,0,0
130576,-100,4,2,1,60,0,0
131282,-100,4,2,1,80,0,1
142576,-100,4,2,1,70,0,0
146784,359.281437125748,4,2,1,70,1,0
148221,352.941176470588,4,2,1,70,1,0

[Colours]
Combo1 : 211,168,255
Combo2 : 248,211,129
Combo3 : 170,224,240

[HitObjects]
27,61,1400,6,0,P|117:45|120:169,1,220,14|10,0:1|0:1,0:0:0:0:
87,233,2458,1,10,0:0:0:0:
137,317,2811,2,0,P|189:306|248:300,1,110,10|10,0:1|0:0,0:0:0:0:
323,238,3517,2,0,P|377:266|432:253,1,110,10|10,0:1|0:0,0:0:0:0:
487,181,4223,6,0,P|492:126|503:72,2,110,10|10|10,0:1|0:0|0:1,0:0:0:0:
388,165,5282,1,10,0:0:0:0:
342,76,5635,2,0,B|222:34|250:143|125:106,1,220,10|10,0:1|0:1,0:0:0:0:
123,306,7047,6,0,P|69:313|22:287,1,110,14|10,0:1|0:0,0:0:0:0:
88,214,7752,2,0,P|141:203|196:198,1,110,10|10,0:1|0:0,0:0:0:0:
286,240,8458,1,10,0:1:0:0:
342,158,8811,1,10,0:0:0:0:
439,177,9164,2,0,P|465:224|458:278,1,110,10|10,0:1|0:0,0:0:0:0:
401,360,9870,6,0,P|348:349|293:344,1,110,10|10,0:1|0:0,0:0:0:0:
208,291,10576,2,0,P|153:295|99:307,1,110,10|10,0:1|0:0,0:0:0:0:
17,250,11282,2,0,P|36:104|50:20,1,220,12|10,0:1|0:1,0:0:0:0:
246,26,12694,5,12,0:1:0:0:
348,196,13399,2,0,P|278:148|203:173,2,165,8|8|8,0:0|0:1|0:1,0:0:0:0:
447,196,14811,2,0,P|435:249|430:304,1,110,8|2,0:0|0:0,0:0:0:0:
363,377,15517,5,8,0:1:0:0:
173,318,16223,2,0,P|159:214|149:154,2,165,8|8|8,0:0|0:1|0:1,0:0:0:0:
247,383,17635,2,0,P|273:335|266:281,1,110,8|2,0:0|0:0,0:0:0:0:
334,210,18341,5,8,0:1:0:0:
213,52,19047,2,0,B|104:36|104:36|52:68,2,165,8|8|8,0:0|0:1|0:1,0:0:0:0:
278,126,20458,2,0,P|331:114|386:109,1,110,8|2,0:0|0:0,0:0:0:0:
471,57,21164,5,8,0:1:0:0:
426,250,21870,2,0,P|356:298|281:273,2,165,8|8|8,0:0|0:1|0:1,0:0:0:0:
344,193,23282,1,2,0:0:0:0:
162,271,23988,6,0,P|169:217|142:169,1,110,12|8,0:1|0:1,0:0:0:0:
81,92,24694,2,0,P|134:80|189:75,1,110,8|8,0:0|0:1,0:0:0:0:
256,2,25399,2,0,B|376:-40|348:69|473:32,1,220,8|8,0:1|0:0,0:0:0:0:
509,122,26458,1,8,0:0:0:0:
423,172,26811,6,0,P|396:219|404:273,1,110,8|8,0:1|0:1,0:0:0:0:
328,338,27517,2,0,P|280:311|226:319,1,110,8|8,0:0|0:1,0:0:0:0:
137,276,28223,2,0,P|124:329|119:384,2,110,8|8|8,0:1|0:1|0:0,0:0:0:0:
98,184,29282,1,8,0:0:0:0:
174,121,29635,6,0,P|190:31|66:28,1,220,8|8,0:1|0:0,0:0:0:0:
48,99,30694,1,8,0:1:0:0:
98,184,31047,2,0,B|197:168|197:168|216:172|216:172|332:156,1,220,8|8,0:1|0:0,0:0:0:0:
387,90,32105,1,8,0:0:0:0:
480,123,32458,6,0,P|487:69|460:22,1,110,8|8,0:1|0:1,0:0:0:0:
363,0,33164,2,0,P|308:4|254:17,1,110,8|8,0:0|0:1,0:0:0:0:
179,81,33870,2,0,P|100:10|0:37,1,220,8|10,0:1|0:0,0:0:0:0:
62,225,35282,6,0,P|115:212|170:207,1,110,12|8,0:1|0:1,0:0:0:0:
251,149,35988,2,0,P|397:168|481:182,1,220,8|8,0:0|0:1,0:0:0:0:
511,269,37047,1,8,0:1:0:0:
447,344,37399,2,0,P|399:370|346:363,1,110,8|8,0:0|0:0,0:0:0:0:
247,365,38105,6,0,P|242:310|228:256,1,110,8|8,0:1|0:1,0:0:0:0:
197,162,38811,2,0,P|276:233|376:206,1,220,8|8,0:0|0:1,0:0:0:0:
421,116,39870,1,8,0:1:0:0:
344,53,40223,2,0,P|290:66|235:71,1,110,8|8,0:0|0:0,0:0:0:0:
197,162,40929,6,0,P|107:146|104:270,1,220,8|8,0:1|0:0,0:0:0:0:
124,341,41988,1,8,0:1:0:0:
214,301,42341,2,0,P|267:293|314:320,1,110,8|8,0:1|0:1,0:0:0:0:
390,257,43047,2,0,P|385:202|371:148,1,110,8|8,0:0|0:0,0:0:0:0:
469,136,43752,6,0,P|473:81|487:28,1,110,8|8,0:1|0:1,0:0:0:0:
391,0,44458,2,0,P|338:-8|291:19,1,110,8|8,0:0|0:1,0:0:0:0:
215,84,45164,2,0,B|158:75|135:16|135:16|83:56|33:42,1,220,8|10,0:1|0:1,0:0:0:0:
149,202,46576,6,0,P|202:188|256:184,1,110,12|8,0:1|0:1,0:0:0:0:
231,280,47282,2,0,P|152:350|50:323,1,220,8|8,0:0|0:1,0:0:0:0:
0,238,48341,1,8,0:1:0:0:
64,162,48694,2,0,P|59:107|45:53,1,110,8|8,0:0|0:0,0:0:0:0:
132,7,49399,6,0,P|185:0|232:26,1,110,8|8,0:1|0:1,0:0:0:0:
288,108,50105,2,0,B|387:123|387:123|403:133|403:133|502:148,1,220,8|8,0:0|0:1,0:0:0:0:
461,238,51164,1,8,0:1:0:0:
497,329,51517,2,0,P|443:335|396:309,1,110,8|8,0:0|0:0,0:0:0:0:
315,366,52223,6,0,P|260:371|206:385,2,110,8|8|8,0:1|0:1|0:0,0:0:0:0:
299,267,53282,1,8,0:1:0:0:
373,202,53635,2,0,P|378:147|392:93,1,110,8|8,0:1|0:1,0:0:0:0:
349,4,54341,2,0,P|295:-2|248:23,1,110,8|8,0:0|0:0,0:0:0:0:
205,113,55047,6,0,B|92:148|123:33|-12:83,2,220,12|12|2,0:1|0:1|0:0,0:0:0:0:
412,341,57870,6,0,P|417:286|428:232,1,110,14|8,0:1|0:0,0:0:0:0:
375,148,58576,1,10,0:1:0:0:
281,180,58929,1,8,0:0:0:0:
207,113,59282,2,0,B|150:122|127:181|127:181|75:141|25:155,1,220,10|10,0:1|0:1,0:0:0:0:
54,249,60341,1,8,0:0:0:0:
18,342,60694,6,0,P|72:348|120:322,1,110,10|8,0:1|0:0,0:0:0:0:
199,380,61399,2,0,P|252:369|307:364,1,110,10|8,0:1|0:0,0:0:0:0:
379,295,62105,2,0,P|404:247|398:193,1,110,10|8,0:1|0:0,0:0:0:0:
311,147,62811,1,10,0:1:0:0:
231,205,63164,1,8,0:0:0:0:
141,163,63517,6,0,P|146:108|157:54,1,110,10|8,0:1|0:0,0:0:0:0:
253,31,64223,2,0,P|332:102|432:75,1,220,14|10,0:1|0:1,0:0:0:0:
505,141,65282,1,8,0:0:0:0:
468,232,65635,2,0,B|369:216|369:216|350:220|350:220|234:204,1,220,14|10,0:1|0:1,0:0:0:0:
180,276,66694,5,8,0:0:0:0:
86,243,67047,2,0,P|60:195|66:141,1,110,10|10,0:1|0:0,0:0:0:0:
122,59,67752,2,0,B|242:17|214:126|339:89,1,220,12|10,0:1|0:1,0:0:0:0:
435,258,69164,6,0,P|387:232|333:238,1,110,14|8,0:1|0:0,0:0:0:0:
249,291,69870,1,10,0:1:0:0:
193,209,70223,1,8,0:0:0:0:
100,244,70576,2,0,P|81:98|67:14,1,220,10|10,0:1|0:1,0:0:0:0:
167,40,71635,1,8,0:0:0:0:
264,57,71988,6,0,P|319:62|373:73,1,110,10|8,0:1|0:0,0:0:0:0:
468,48,72694,2,0,P|493:95|487:149,1,110,10|8,0:1|0:0,0:0:0:0:
408,209,73399,2,0,P|306:181|228:252,1,220,10|10,0:1|0:1,0:0:0:0:
161,326,74458,1,12,0:0:0:0:
70,286,74811,6,0,B|56:236|96:184|96:184|37:161|28:104,1,220,12|12,0:1|0:1,0:0:0:0:
222,64,76223,2,0,B|236:114|196:166|196:166|255:189|264:246,1,220,12|8,0:1|0:1,0:0:0:0:
339,310,77282,1,12,0:0:0:0:
428,266,77635,6,0,P|433:211|444:157,1,110,12|10,0:1|0:0,0:0:0:0:
395,70,78341,1,10,0:1:0:0:
299,96,78694,1,8,0:0:0:0:
244,13,79047,2,0,P|190:6|142:31,1,110,8|8,0:1|0:1,0:0:0:0:
43,20,79752,2,0,P|17:67|24:121,1,110,8|8,0:1|0:1,0:0:0:0:
85,199,80458,5,4,0:0:0:0:
449,127,86105,6,0,P|275:99|100:77,1,330,14|2,1:0|0:0,0:0:0:0:
44,17,87517,1,0,0:0:0:0:
19,213,88223,2,0,P|72:201|127:197,1,110,2|2,1:0|1:0,0:0:0:0:
218,237,88929,6,0,P|305:190|351:360,1,330,2|2,1:0|0:0,0:0:0:0:
259,331,90341,2,0,P|204:334|150:346,1,110,0|2,0:0|1:0,0:0:0:0:
57,310,91047,2,0,P|51:256|77:208,1,110,2|2,1:0|1:0,0:0:0:0:
175,213,91752,6,0,B|160:114|160:114|150:98|150:98|135:-1,2,220,2|0|2,1:0|0:0|0:0,0:0:0:0:
364,153,93870,2,0,P|418:156|472:168,1,110,2|2,1:0|1:0,0:0:0:0:
451,71,94576,6,0,P|303:9|276:141,1,330,2|2,1:0|1:0,0:0:0:0:
302,227,95988,2,0,B|189:262|220:147|85:197,1,220,0|2,0:0|1:0,0:0:0:0:
32,268,97047,1,2,1:0:0:0:
79,354,97399,6,0,P|132:341|187:338,1,110,12|8,0:1|0:1,0:0:0:0:
265,277,98105,2,0,P|319:280|373:292,1,110,8|8,0:1|0:1,0:0:0:0:
466,258,98811,2,0,B|508:138|399:166|436:41,1,220,8|10,0:1|0:1,0:0:0:0:
347,0,99870,1,10,0:1:0:0:
277,70,100223,6,0,P|223:76|175:50,2,110,8|8|8,0:1|0:1|0:1,0:0:0:0:
325,156,101282,1,8,0:1:0:0:
250,220,101635,2,0,P|148:192|70:263,1,220,8|10,0:1|0:1,0:0:0:0:
2,190,102694,1,10,0:1:0:0:
63,112,103047,6,0,P|59:57|47:3,1,110,8|8,0:1|0:1,0:0:0:0:
145,19,103752,2,0,P|198:25|246:0,1,110,8|8,0:1|0:1,0:0:0:0:
325,59,104458,2,0,P|378:53|426:78,1,110,8|8,0:1|0:1,0:0:0:0:
390,170,105164,1,10,0:1:0:0:
469,229,105517,1,10,0:1:0:0:
427,318,105870,6,0,B|328:333|328:333|312:343|312:343|213:358,1,220,12|12,0:1|0:1,0:0:0:0:
87,204,107282,2,0,B|186:189|186:189|202:179|202:179|301:164,1,220,12|12,0:1|0:1,0:0:0:0:
371,93,108341,1,12,0:0:0:0:
468,112,108694,6,0,P|493:159|487:213,1,110,12|10,0:1|0:0,0:0:0:0:
421,286,109399,2,0,P|367:274|312:270,1,110,10|10,0:1|0:0,0:0:0:0:
236,206,110105,1,10,0:1:0:0:
173,282,110458,1,10,0:0:0:0:
81,245,110811,2,0,P|77:190|65:136,1,110,10|10,0:1|0:0,0:0:0:0:
0,61,111517,6,0,P|47:36|101:42,1,110,8|10,0:1|0:0,0:0:0:0:
174,109,112223,2,0,P|221:134|275:128,1,110,10|10,0:1|0:0,0:0:0:0:
363,80,112929,1,10,0:1:0:0:
419,161,113282,1,10,0:0:0:0:
508,119,113635,1,10,0:1:0:0:
396,282,114341,6,0,P|371:329|377:383,1,110,12|10,0:1|0:0,0:0:0:0:
470,348,115047,2,0,P|451:202|437:118,1,220,10|10,0:1|0:1,0:0:0:0:
351,84,116105,1,10,0:0:0:0:
280,154,116458,1,10,0:1:0:0:
186,120,116811,1,10,0:0:0:0:
119,193,117164,6,0,P|65:181|10:177,1,110,10|10,0:1|0:0,0:0:0:0:
6,77,117870,2,0,P|53:52|107:58,1,110,10|10,0:1|0:0,0:0:0:0:
186,120,118576,2,0,B|306:78|278:187|403:150,1,220,12|10,0:1|0:1,0:0:0:0:
472,331,119988,5,14,0:1:0:0:
85,247,121399,1,14,0:1:0:0:
472,163,122811,1,14,0:1:0:0:
85,79,124223,2,0,P|162:99|226:52,2,165,14|12|12,0:1|0:1|0:0,0:0:0:0:
13,147,125635,6,0,B|-21:261|87:233|45:353,1,220,12|8,0:1|0:1,0:0:0:0:
212,243,127047,2,0,B|170:124|279:152|245:37,1,220,12|8,0:1|0:1,0:0:0:0:
424,122,128458,6,0,B|389:236|498:208|456:328,1,220,12|8,0:1|0:1,0:0:0:0:
371,377,129517,1,0,0:0:0:0:
294,313,129870,2,0,B|244:327|192:287|192:287|169:346|112:355,1,220,12|2,0:1|0:0,0:0:0:0:
15,181,131282,6,0,P|68:187|116:162,1,110,14|8,0:1|0:0,0:0:0:0:
175,82,131988,1,10,0:1:0:0:
262,128,132341,1,8,0:0:0:0:
315,44,132694,2,0,P|405:28|408:152,1,220,10|10,0:1|0:1,0:0:0:0:
492,208,133752,1,8,0:0:0:0:
441,292,134105,6,0,P|387:280|332:276,1,110,10|8,0:1|0:0,0:0:0:0:
271,197,134811,2,0,P|216:201|162:212,1,110,10|8,0:1|0:0,0:0:0:0:
104,293,135517,2,0,P|56:267|2:274,2,110,10|10|10,0:1|0:0|0:1,0:0:0:0:
165,370,136576,1,12,0:0:0:0:
261,346,136929,6,0,B|295:290|295:290|272:137,1,220,12|12,0:1|0:1,0:0:0:0:
460,72,138341,2,0,B|437:225|437:225|471:280,1,220,12|8,0:1|0:1,0:0:0:0:
415,361,139399,1,12,0:0:0:0:
320,331,139752,6,0,P|265:335|211:346,1,110,12|10,0:1|0:0,0:0:0:0:
141,275,140458,2,0,P|87:281|39:256,1,110,10|8,0:1|0:0,0:0:0:0:
0,164,141164,2,0,P|79:93|179:120,1,220,10|10,0:1|0:1,0:0:0:0:
268,76,142223,1,8,0:0:0:0:
307,166,142576,6,0,B|420:201|389:86|524:136,1,220,12|12,0:1|0:1,0:0:0:0:
458,322,143988,2,0,B|345:357|376:242|241:292,1,220,12|12,0:1|0:1,0:0:0:0:
105,156,145399,5,14,0:1:0:0:
468,18,146784,2,0,B|453:117|453:117|443:133|443:133|428:232,1,220,14|2,0:1|0:0,0:0:0:0:
248,333,148221,6,0,B|191:324|168:265|168:265|116:305|66:291,1,220,12|12,0:1|0:1,0:0:0:0:
143,108,149632,2,0,B|200:99|223:40|223:40|275:80|325:66,1,220,12|12,0:1|0:1,0:0:0:0:
413,20,150691,1,10,0:1:0:0:
480,92,151044,5,12,0:1:0:0:
