osu file format v14

[General]
AudioFilename: audio.mp3
AudioLeadIn: 0
PreviewTime: 16291
Countdown: 0
SampleSet: Soft
StackLeniency: 0.3
Mode: 0
LetterboxInBreaks: 0
WidescreenStoryboard: 0

[Editor]
Bookmarks: 31758,46758,61758,91758,106758,136758,151758,181758,211758,226760
DistanceSpacing: 0.3
BeatDivisor: 16
GridSize: 16
TimelineZoom: 2.3

[Metadata]
Title:Soleil
TitleUnicode:Soleil
Artist:Powerless
ArtistUnicode:Powerless
Creator:handsome
Version:#1: handsome & pishifat
Source:
Tags:pishifat milan- appleeaterx _dt3 dtm9 nowa AD AD: House 04 house modhelp mapping contest 3.5 mmc
BeatmapID:1523514
BeatmapSetID:721494

[Difficulty]
HPDrainRate:5
CircleSize:4.6
OverallDifficulty:9
ApproachRate:9.3
SliderMultiplier:2.8
SliderTickRate:1

[Events]
//Background and Video events
0,0,"soleil.jpg",0,0
//Break Periods
2,106958,113704
2,151958,158704
//Storyboard Layer 0 (Background)
//Storyboard Layer 1 (Fail)
//Storyboard Layer 2 (Pass)
//Storyboard Layer 3 (Foreground)
//Storyboard Sound Samples

[TimingPoints]
1758,468.75,4,2,0,50,1,0
1758,-166.666666666667,4,2,0,50,0,0
1875,-166.666666666667,4,2,0,30,0,0
3281,-166.666666666667,4,2,0,40,0,0
3633,-166.666666666667,4,2,0,30,0,0
5156,-166.666666666667,4,2,0,40,0,0
5508,-166.666666666667,4,2,0,30,0,0
7031,-166.666666666667,4,2,0,40,0,0
7383,-166.666666666667,4,2,0,30,0,0
8906,-166.666666666667,4,2,0,40,0,0
9258,-125,4,2,1,60,0,0
9375,-125,4,2,1,50,0,0
11015,-125,4,2,1,5,0,0
11133,-125,4,2,1,50,0,0
12890,-125,4,2,1,5,0,0
13008,-125,4,2,1,50,0,0
14765,-125,4,2,1,5,0,0
14883,-125,4,2,1,50,0,0
16523,-125,4,2,0,50,0,0
16601,-125,4,2,0,60,0,0
16679,-125,4,2,0,70,0,0
16758,-83.3333333333333,4,1,1,80,0,1
17109,-166.666666666667,4,1,7,80,0,1
17461,-100,4,1,7,80,0,1
17578,-100,4,1,7,5,0,1
17695,-100,4,1,7,80,0,1
17988,-100,4,1,7,5,0,1
18047,-100,4,1,7,80,0,1
18222,-100,4,1,7,5,0,1
18281,-100,4,1,7,80,0,1
18457,-100,4,1,7,5,0,1
18516,-100,4,1,7,80,0,1
18633,-83.3333333333333,4,1,7,80,0,1
18984,-166.666666666667,4,1,7,80,0,1
19336,-62.5,4,1,7,80,0,1
19453,-62.5,4,1,7,5,0,1
19570,-100,4,1,7,80,0,1
19863,-100,4,1,7,5,0,1
19922,-100,4,1,7,80,0,1
20097,-100,4,1,7,5,0,1
20156,-100,4,1,7,80,0,1
20332,-100,4,1,7,5,0,1
20390,-100,4,1,7,80,0,1
20508,-83.3333333333333,4,1,7,80,0,1
20859,-166.666666666667,4,1,7,80,0,1
21211,-100,4,1,7,80,0,1
21328,-100,4,1,7,5,0,1
21445,-100,4,1,7,80,0,1
21738,-100,4,1,7,5,0,1
21797,-100,4,1,7,80,0,1
21972,-100,4,1,7,5,0,1
22031,-100,4,1,7,80,0,1
22265,-100,4,1,7,5,0,1
22383,-100,4,1,7,80,0,1
23320,-55.5555555555556,4,1,7,80,0,1
24140,-55.5555555555556,4,1,7,5,0,1
24258,-83.3333333333333,4,1,7,80,0,1
24609,-166.666666666667,4,1,7,80,0,1
24961,-100,4,1,7,80,0,1
25078,-100,4,1,7,5,0,1
25195,-100,4,1,7,80,0,1
25488,-100,4,1,7,5,0,1
25547,-100,4,1,7,80,0,1
25722,-100,4,1,7,5,0,1
25781,-100,4,1,7,80,0,1
25957,-100,4,1,7,5,0,1
26015,-100,4,1,7,80,0,1
26133,-83.3333333333333,4,1,7,80,0,1
26367,-166.666666666667,4,1,7,80,0,1
26836,-62.5,4,1,7,80,0,1
26953,-62.5,4,1,7,5,0,1
27070,-100,4,1,7,80,0,1
27363,-100,4,1,7,5,0,1
27422,-100,4,1,7,80,0,1
27597,-100,4,1,7,5,0,1
27656,-62.5,4,1,7,80,0,1
27890,-62.5,4,1,7,5,0,1
28008,-71.4285714285714,4,1,7,80,0,1
28066,-71.4285714285714,4,2,0,80,0,1
28242,-71.4285714285714,4,1,7,80,0,1
28300,-71.4285714285714,4,2,0,80,0,1
28359,-71.4285714285714,4,1,7,80,0,1
28769,-71.4285714285714,4,2,0,80,0,1
28945,-71.4285714285714,4,1,7,80,0,1
29003,-71.4285714285714,4,2,0,80,0,1
29062,-71.4285714285714,4,1,7,80,0,1
30058,-71.4285714285714,4,1,7,5,0,1
30117,-71.4285714285714,4,1,7,80,0,1
30234,-125,4,1,7,80,0,1
31172,-125,4,2,0,40,0,0
31406,-125,4,2,0,50,0,0
31523,-125,4,2,0,60,0,0
31582,-125,4,2,0,70,0,0
31758,-83.3333333333333,4,1,1,80,0,1
32109,-166.666666666667,4,1,7,80,0,1
32461,-100,4,1,7,80,0,1
32578,-100,4,1,7,5,0,1
32695,-100,4,1,7,80,0,1
32988,-100,4,1,7,5,0,1
33047,-100,4,1,7,80,0,1
33222,-100,4,1,7,5,0,1
33281,-100,4,1,7,80,0,1
33457,-100,4,1,7,5,0,1
33516,-100,4,1,7,80,0,1
33633,-83.3333333333333,4,1,7,80,0,1
33984,-166.666666666667,4,1,7,80,0,1
34336,-62.5,4,1,7,80,0,1
34453,-62.5,4,1,7,5,0,1
34570,-100,4,1,7,80,0,1
34863,-100,4,1,7,5,0,1
34922,-100,4,1,7,80,0,1
35097,-100,4,1,7,5,0,1
35156,-100,4,1,7,80,0,1
35332,-100,4,1,7,5,0,1
35390,-100,4,1,7,80,0,1
35508,-83.3333333333333,4,1,7,80,0,1
35859,-166.666666666667,4,1,7,80,0,1
36211,-100,4,1,7,80,0,1
36328,-100,4,1,7,5,0,1
36445,-100,4,1,7,80,0,1
36738,-100,4,1,7,5,0,1
36797,-100,4,1,7,80,0,1
36972,-100,4,1,7,5,0,1
37031,-100,4,1,7,80,0,1
37265,-100,4,1,7,5,0,1
37383,-100,4,1,7,80,0,1
38320,-55.5555555555556,4,1,7,80,0,1
39140,-55.5555555555556,4,1,7,5,0,1
39258,-83.3333333333333,4,1,1,80,0,1
39609,-166.666666666667,4,1,7,80,0,1
39961,-100,4,1,7,80,0,1
40078,-100,4,1,7,5,0,1
40195,-100,4,1,7,80,0,1
40488,-100,4,1,7,5,0,1
40547,-100,4,1,7,80,0,1
40722,-100,4,1,7,5,0,1
40781,-100,4,1,7,80,0,1
40957,-100,4,1,7,5,0,1
41015,-100,4,1,7,80,0,1
41133,-83.3333333333333,4,1,7,80,0,1
41367,-166.666666666667,4,1,7,80,0,1
41836,-62.5,4,1,7,80,0,1
41953,-62.5,4,1,7,5,0,1
42070,-62.5,4,1,7,80,0,1
42187,-100,4,1,7,80,0,1
42363,-100,4,1,7,5,0,1
42422,-100,4,1,7,80,0,1
42597,-100,4,1,7,5,0,1
42656,-62.5,4,1,7,80,0,1
43008,-71.4285714285714,4,1,7,80,0,1
43066,-71.4285714285714,4,2,0,80,0,1
43242,-71.4285714285714,4,1,7,80,0,1
43300,-71.4285714285714,4,2,0,80,0,1
43359,-71.4285714285714,4,1,7,80,0,1
43769,-71.4285714285714,4,2,0,80,0,1
43945,-71.4285714285714,4,1,7,80,0,1
44003,-71.4285714285714,4,2,0,80,0,1
44062,-71.4285714285714,4,1,7,80,0,1
44648,-62.5,4,1,7,80,0,1
44883,-62.5,4,1,1,80,0,1
45058,-62.5,4,1,7,5,0,1
45117,-62.5,4,1,7,80,0,1
45234,-125,4,1,7,80,0,1
46172,-83.3333333333333,4,1,7,50,0,1
46406,-100,4,1,7,50,0,1
46640,-125,4,1,7,50,0,1
46758,-125,4,2,0,60,0,0
46875,-125,4,2,8,60,0,0
57363,-125,4,2,8,60,0,0
57422,-125,4,2,8,60,0,0
57656,-125,4,2,8,60,0,0
57715,-125,4,2,8,60,0,0
57812,-125,4,2,8,5,0,0
58008,-125,4,2,8,60,0,0
61758,-125,4,2,0,60,0,0
61875,-125,4,2,8,60,0,0
63633,-100,4,2,8,60,0,0
64570,-100,4,2,8,60,0,0
64922,-111.111111111111,4,2,8,60,0,0
65273,-125,4,2,8,60,0,0
69258,-125,4,2,0,60,0,0
69375,-125,4,2,8,60,0,0
73008,-166.666666666667,4,2,0,70,0,0
73125,-166.666666666667,4,2,8,70,0,0
74883,-142.857142857143,4,2,8,70,0,0
75586,-125,4,2,8,70,0,0
75820,-111.111111111111,4,2,8,70,0,0
76054,-100,4,2,8,70,0,0
76523,-100,4,2,0,50,0,0
76601,-100,4,2,0,60,0,0
76679,-100,4,2,0,70,0,0
76758,-83.3333333333333,4,1,1,80,0,1
77109,-166.666666666667,4,1,7,80,0,1
77461,-100,4,1,7,80,0,1
77578,-100,4,1,7,5,0,1
77695,-100,4,1,7,80,0,1
77988,-100,4,1,7,5,0,1
78047,-100,4,1,7,80,0,1
78222,-100,4,1,7,5,0,1
78281,-100,4,1,7,80,0,1
78457,-100,4,1,7,5,0,1
78516,-100,4,1,7,80,0,1
78633,-83.3333333333333,4,1,7,80,0,1
78984,-166.666666666667,4,1,7,80,0,1
79336,-62.5,4,1,7,80,0,1
79453,-62.5,4,1,7,5,0,1
79570,-100,4,1,7,80,0,1
79863,-100,4,1,7,5,0,1
79922,-100,4,1,7,80,0,1
80097,-100,4,1,7,5,0,1
80156,-100,4,1,7,80,0,1
80332,-100,4,1,7,5,0,1
80390,-100,4,1,7,80,0,1
80508,-83.3333333333333,4,1,7,80,0,1
80859,-166.666666666667,4,1,7,80,0,1
81211,-100,4,1,7,80,0,1
81328,-100,4,1,7,5,0,1
81445,-100,4,1,7,80,0,1
81738,-100,4,1,7,5,0,1
81797,-100,4,1,7,80,0,1
81972,-100,4,1,7,5,0,1
82031,-100,4,1,7,80,0,1
82265,-100,4,1,7,5,0,1
82383,-125,4,1,7,80,0,1
83320,-166.666666666667,4,1,7,80,0,1
83789,-125,4,1,7,80,0,1
84023,-55.5555555555556,4,1,7,80,0,1
84140,-55.5555555555556,4,1,7,5,0,1
84258,-83.3333333333333,4,1,7,80,0,1
84609,-166.666666666667,4,1,7,80,0,1
84961,-100,4,1,7,80,0,1
85078,-100,4,1,7,5,0,1
85195,-100,4,1,7,80,0,1
85488,-100,4,1,7,5,0,1
85547,-100,4,1,7,80,0,1
85722,-100,4,1,7,5,0,1
85781,-100,4,1,7,80,0,1
85957,-100,4,1,7,5,0,1
86015,-100,4,1,7,80,0,1
86133,-83.3333333333333,4,1,7,80,0,1
86367,-166.666666666667,4,1,7,80,0,1
86836,-62.5,4,1,7,80,0,1
86953,-62.5,4,1,7,5,0,1
87070,-100,4,1,7,80,0,1
87363,-100,4,1,7,5,0,1
87422,-100,4,1,7,80,0,1
87597,-100,4,1,7,5,0,1
87656,-62.5,4,1,7,80,0,1
87890,-62.5,4,1,7,5,0,1
88008,-71.4285714285714,4,1,7,80,0,1
88066,-71.4285714285714,4,2,0,80,0,1
88242,-71.4285714285714,4,1,7,80,0,1
88300,-71.4285714285714,4,2,0,80,0,1
88359,-71.4285714285714,4,1,7,80,0,1
88769,-71.4285714285714,4,2,0,80,0,1
88945,-71.4285714285714,4,1,7,80,0,1
89003,-71.4285714285714,4,2,0,80,0,1
89062,-71.4285714285714,4,1,7,80,0,1
90058,-71.4285714285714,4,1,7,5,0,1
90117,-71.4285714285714,4,1,7,80,0,1
90234,-125,4,1,7,80,0,1
91172,-125,4,2,0,40,0,0
91406,-125,4,2,0,50,0,0
91523,-125,4,2,0,60,0,0
91582,-125,4,2,0,70,0,0
91758,-83.3333333333333,4,1,1,80,0,1
92109,-166.666666666667,4,1,7,80,0,1
92461,-100,4,1,7,80,0,1
92578,-100,4,1,7,5,0,1
92695,-100,4,1,7,80,0,1
92988,-100,4,1,7,5,0,1
93047,-100,4,1,7,80,0,1
93222,-100,4,1,7,5,0,1
93281,-100,4,1,7,80,0,1
93457,-100,4,1,7,5,0,1
93516,-100,4,1,7,80,0,1
93633,-83.3333333333333,4,1,7,80,0,1
93984,-166.666666666667,4,1,7,80,0,1
94336,-62.5,4,1,7,80,0,1
94453,-62.5,4,1,7,5,0,1
94570,-100,4,1,7,80,0,1
94863,-100,4,1,7,5,0,1
94922,-100,4,1,7,80,0,1
95097,-100,4,1,7,5,0,1
95156,-100,4,1,7,80,0,1
95332,-100,4,1,7,5,0,1
95390,-100,4,1,7,80,0,1
95508,-83.3333333333333,4,1,7,80,0,1
95859,-166.666666666667,4,1,7,80,0,1
96211,-100,4,1,7,80,0,1
96328,-100,4,1,7,5,0,1
96445,-100,4,1,7,80,0,1
96738,-100,4,1,7,5,0,1
96797,-100,4,1,7,80,0,1
96972,-100,4,1,7,5,0,1
97031,-100,4,1,7,80,0,1
97265,-100,4,1,7,5,0,1
97383,-125,4,1,7,80,0,1
98320,-166.666666666667,4,1,7,80,0,1
98789,-125,4,1,7,80,0,1
99023,-55.5555555555556,4,1,7,80,0,1
99140,-55.5555555555556,4,1,7,5,0,1
99258,-83.3333333333333,4,1,1,80,0,1
99609,-166.666666666667,4,1,7,80,0,1
99961,-100,4,1,7,80,0,1
100078,-100,4,1,7,5,0,1
100195,-100,4,1,7,80,0,1
100488,-100,4,1,7,5,0,1
100547,-100,4,1,7,80,0,1
100722,-100,4,1,7,5,0,1
100781,-100,4,1,7,80,0,1
100957,-100,4,1,7,5,0,1
101015,-100,4,1,7,80,0,1
101133,-83.3333333333333,4,1,7,80,0,1
101484,-166.666666666667,4,1,7,80,0,1
101836,-62.5,4,1,7,80,0,1
101953,-62.5,4,1,7,5,0,1
102070,-100,4,1,7,80,0,1
102363,-100,4,1,7,5,0,1
102422,-100,4,1,7,80,0,1
102597,-100,4,1,7,5,0,1
102656,-62.5,4,1,7,80,0,1
103008,-71.4285714285714,4,1,7,80,0,1
103066,-71.4285714285714,4,2,0,80,0,1
103242,-71.4285714285714,4,1,7,80,0,1
103300,-71.4285714285714,4,2,0,80,0,1
103359,-71.4285714285714,4,1,7,80,0,1
103769,-71.4285714285714,4,2,0,80,0,1
103945,-71.4285714285714,4,1,7,80,0,1
104003,-71.4285714285714,4,2,0,80,0,1
104062,-71.4285714285714,4,1,7,80,0,1
104883,-62.5,4,1,1,80,0,1
105058,-62.5,4,1,7,5,0,1
105117,-62.5,4,1,7,80,0,1
105234,-83.3333333333333,4,1,7,80,0,1
106172,-55.5555555555556,4,1,7,50,0,1
106289,-62.5,4,1,7,50,0,1
106406,-71.4285714285714,4,1,7,50,0,1
106523,-83.3333333333333,4,1,7,50,0,1
106640,-100,4,1,7,50,0,0
114258,-166.666666666667,4,2,0,50,0,0
114492,-166.666666666667,4,2,8,50,0,0
118008,-125,4,2,8,50,0,0
118359,-125,4,2,3,50,0,0
118476,-125,4,2,8,50,0,0
119297,-125,4,2,3,50,0,0
119414,-125,4,2,8,50,0,0
119883,-125,4,2,3,50,0,0
120000,-125,4,2,3,50,0,0
120586,-125,4,2,3,50,0,0
121758,-117.647058823529,4,2,8,50,0,0
131601,-111.111111111111,4,2,8,50,0,0
132070,-105.263157894737,4,2,8,50,0,0
132539,-117.647058823529,4,2,8,50,0,0
135820,-117.647058823529,4,2,3,50,0,0
136758,-100,4,2,8,60,0,0
137695,-166.666666666667,4,2,8,60,0,0
138164,-166.666666666667,4,2,8,50,0,0
138867,-166.666666666667,4,2,8,40,0,0
139570,-166.666666666667,4,2,8,30,0,0
140508,-100,4,2,8,60,0,0
142851,-100,4,2,8,50,0,0
143203,-100,4,2,8,40,0,0
143554,-100,4,2,8,30,0,0
143906,-100,4,2,8,60,0,0
144258,-100,4,2,0,60,0,0
144492,-100,4,2,8,60,0,0
145898,-100,4,2,8,50,0,0
146601,-100,4,2,8,40,0,0
147070,-100,4,2,8,30,0,0
147304,-100,4,2,8,40,0,0
147539,-100,4,2,8,50,0,0
147773,-62.5,4,2,8,60,0,0
148008,-100,4,2,8,70,0,0
149883,-100,4,2,0,70,0,0
150117,-100,4,2,8,70,0,0
159258,-125,4,2,1,60,0,0
159375,-125,4,2,1,50,0,0
161015,-125,4,2,1,5,0,0
161133,-125,4,2,1,50,0,0
162890,-125,4,2,1,5,0,0
163008,-125,4,2,1,50,0,0
164765,-125,4,2,1,5,0,0
164883,-125,4,2,1,50,0,0
166523,-125,4,2,0,50,0,0
166601,-125,4,2,0,60,0,0
166679,-125,4,2,0,70,0,0
166758,-83.3333333333333,4,1,1,80,0,1
167109,-166.666666666667,4,1,7,80,0,1
167461,-100,4,1,7,80,0,1
167578,-100,4,1,7,5,0,1
167695,-100,4,1,7,80,0,1
167988,-100,4,1,7,5,0,1
168047,-100,4,1,7,80,0,1
168222,-100,4,1,7,5,0,1
168281,-100,4,1,7,80,0,1
168457,-100,4,1,7,5,0,1
168516,-100,4,1,7,80,0,1
168633,-83.3333333333333,4,1,7,80,0,1
168984,-166.666666666667,4,1,7,80,0,1
169336,-62.5,4,1,7,80,0,1
169453,-62.5,4,1,7,5,0,1
169570,-100,4,1,7,80,0,1
169863,-100,4,1,7,5,0,1
169922,-100,4,1,7,80,0,1
170097,-100,4,1,7,5,0,1
170156,-100,4,1,7,80,0,1
170332,-100,4,1,7,5,0,1
170390,-100,4,1,7,80,0,1
170508,-83.3333333333333,4,1,7,80,0,1
170859,-166.666666666667,4,1,7,80,0,1
171211,-100,4,1,7,80,0,1
171328,-100,4,1,7,5,0,1
171445,-100,4,1,7,80,0,1
171738,-100,4,1,7,5,0,1
171797,-100,4,1,7,80,0,1
171972,-100,4,1,7,5,0,1
172031,-100,4,1,7,80,0,1
172265,-100,4,1,7,5,0,1
172383,-125,4,1,7,80,0,1
173320,-166.666666666667,4,1,7,80,0,1
173789,-83.3333333333333,4,1,7,80,0,1
174023,-55.5555555555556,4,1,7,80,0,1
174140,-55.5555555555556,4,1,7,5,0,1
174258,-83.3333333333333,4,1,7,80,0,1
174609,-166.666666666667,4,1,7,80,0,1
174961,-100,4,1,7,80,0,1
175078,-100,4,1,7,5,0,1
175195,-100,4,1,7,80,0,1
175488,-100,4,1,7,5,0,1
175547,-100,4,1,7,80,0,1
175722,-100,4,1,7,5,0,1
175781,-100,4,1,7,80,0,1
175957,-100,4,1,7,5,0,1
176015,-100,4,1,7,80,0,1
176133,-83.3333333333333,4,1,7,80,0,1
176484,-166.666666666667,4,1,7,80,0,1
176836,-62.5,4,1,7,80,0,1
176953,-62.5,4,1,7,5,0,1
177070,-100,4,1,7,80,0,1
177363,-100,4,1,7,5,0,1
177422,-100,4,1,7,80,0,1
177597,-100,4,1,7,5,0,1
177656,-62.5,4,1,7,80,0,1
177890,-62.5,4,1,7,5,0,1
178008,-71.4285714285714,4,1,7,80,0,1
178066,-71.4285714285714,4,2,0,80,0,1
178242,-71.4285714285714,4,1,7,80,0,1
178300,-71.4285714285714,4,2,0,80,0,1
178359,-71.4285714285714,4,1,7,80,0,1
178769,-71.4285714285714,4,2,0,80,0,1
178945,-71.4285714285714,4,1,7,80,0,1
179003,-71.4285714285714,4,2,0,80,0,1
179062,-71.4285714285714,4,1,7,80,0,1
179883,-62.5,4,1,7,80,0,1
180058,-62.5,4,1,7,5,0,1
180117,-62.5,4,1,7,80,0,1
180234,-125,4,1,7,80,0,1
181172,-125,4,2,0,40,0,0
181289,-111.111111111111,4,2,0,40,0,0
181406,-100,4,2,0,50,0,0
181523,-90.9090909090909,4,2,0,60,0,0
181582,-90.9090909090909,4,2,0,70,0,0
181640,-83.3333333333333,4,2,0,70,0,0
181758,-83.3333333333333,4,1,1,80,0,1
182109,-166.666666666667,4,1,7,80,0,1
182461,-100,4,1,7,80,0,1
182578,-100,4,1,7,5,0,1
182695,-100,4,1,7,80,0,1
182988,-100,4,1,7,5,0,1
183047,-100,4,1,7,80,0,1
183222,-100,4,1,7,5,0,1
183281,-100,4,1,7,80,0,1
183457,-100,4,1,7,5,0,1
183516,-100,4,1,7,80,0,1
183633,-83.3333333333333,4,1,7,80,0,1
183984,-166.666666666667,4,1,7,80,0,1
184336,-62.5,4,1,7,80,0,1
184453,-62.5,4,1,7,5,0,1
184570,-100,4,1,7,80,0,1
184863,-100,4,1,7,5,0,1
184922,-100,4,1,7,80,0,1
185097,-100,4,1,7,5,0,1
185156,-100,4,1,7,80,0,1
185332,-100,4,1,7,5,0,1
185390,-100,4,1,7,80,0,1
185508,-83.3333333333333,4,1,7,80,0,1
185859,-166.666666666667,4,1,7,80,0,1
186211,-100,4,1,7,80,0,1
186328,-100,4,1,7,5,0,1
186445,-100,4,1,7,80,0,1
186738,-100,4,1,7,5,0,1
186797,-100,4,1,7,80,0,1
186972,-100,4,1,7,5,0,1
187031,-100,4,1,7,80,0,1
187265,-100,4,1,7,5,0,1
187383,-125,4,1,7,80,0,1
188320,-125,4,1,7,80,0,1
188789,-83.3333333333333,4,1,7,80,0,1
189023,-55.5555555555556,4,1,7,80,0,1
189140,-55.5555555555556,4,1,7,5,0,1
189258,-83.3333333333333,4,1,1,80,0,1
189609,-166.666666666667,4,1,7,80,0,1
189961,-100,4,1,7,80,0,1
190078,-100,4,1,7,5,0,1
190195,-100,4,1,7,80,0,1
190488,-100,4,1,7,5,0,1
190547,-100,4,1,7,80,0,1
190722,-100,4,1,7,5,0,1
190781,-100,4,1,7,80,0,1
190957,-100,4,1,7,5,0,1
191015,-100,4,1,7,80,0,1
191133,-83.3333333333333,4,1,7,80,0,1
191484,-166.666666666667,4,1,7,80,0,1
191836,-62.5,4,1,7,80,0,1
191953,-62.5,4,1,7,5,0,1
192070,-100,4,1,7,80,0,1
192363,-100,4,1,7,5,0,1
192422,-100,4,1,7,80,0,1
192597,-100,4,1,7,5,0,1
192656,-62.5,4,1,7,80,0,1
193008,-71.4285714285714,4,1,7,80,0,1
193066,-71.4285714285714,4,2,0,80,0,1
193242,-71.4285714285714,4,1,7,80,0,1
193300,-71.4285714285714,4,2,0,80,0,1
193359,-71.4285714285714,4,1,7,80,0,1
193769,-71.4285714285714,4,2,0,80,0,1
193945,-71.4285714285714,4,1,7,80,0,1
194003,-71.4285714285714,4,2,0,80,0,1
194062,-71.4285714285714,4,1,7,80,0,1
194883,-62.5,4,1,1,80,0,1
195058,-62.5,4,1,7,5,0,1
195117,-62.5,4,1,7,80,0,1
195234,-83.3333333333333,4,1,7,80,0,1
196172,-55.5555555555556,4,1,7,50,0,1
196289,-62.5,4,1,7,50,0,1
196406,-71.4285714285714,4,1,7,50,0,1
196523,-83.3333333333333,4,1,7,50,0,1
196640,-100,4,1,7,50,0,1
196758,-100,4,2,0,70,0,0
196992,-100,4,2,8,70,0,0
197812,-71.4285714285714,4,2,8,70,0,0
198047,-83.3333333333333,4,2,8,70,0,0
199453,-100,4,2,8,70,0,0
199687,-71.4285714285714,4,2,8,70,0,0
199922,-83.3333333333333,4,2,8,70,0,0
200508,-100,4,2,8,70,0,0
204258,-71.4285714285714,4,2,8,70,0,0
208008,-100,4,2,8,70,0,0
209883,-71.4285714285714,4,2,0,70,0,0
210234,-62.5,4,2,0,70,0,0
210586,-55.5555555555556,4,2,0,70,0,0
210937,-50,4,2,0,70,0,0
211289,-58.8235294117647,4,2,8,50,0,0
211406,-71.4285714285714,4,2,8,70,0,0
211523,-90.9090909090909,4,2,8,70,0,0
211640,-125,4,2,8,70,0,0
211758,-71.4285714285714,4,2,0,80,0,1
211875,-71.4285714285714,4,2,8,80,0,1
212109,-100,4,2,8,80,0,1
212343,-71.4285714285714,4,2,8,80,0,1
212578,-83.3333333333333,4,2,8,80,0,1
212812,-100,4,2,8,80,0,1
213047,-125,4,2,8,80,0,1
213222,-125,4,2,0,5,0,1
213281,-125,4,2,8,80,0,1
213398,-100,4,2,8,80,0,1
213633,-62.5,4,2,8,80,0,1
213808,-62.5,4,2,0,5,0,1
213867,-66.6666666666667,4,2,8,80,0,1
213984,-100,4,2,8,80,0,1
214218,-71.4285714285714,4,2,8,80,0,1
214453,-83.3333333333333,4,2,8,80,0,1
214687,-100,4,2,8,80,0,1
214922,-62.5,4,2,0,80,0,1
215097,-62.5,4,2,0,5,0,1
215156,-62.5,4,2,8,80,0,1
215273,-83.3333333333333,4,2,8,80,0,1
215508,-71.4285714285714,4,2,8,80,0,1
215683,-71.4285714285714,4,2,0,5,0,1
215742,-71.4285714285714,4,2,8,80,0,1
215859,-100,4,2,8,80,0,1
216093,-71.4285714285714,4,2,8,80,0,1
216328,-83.3333333333333,4,2,8,80,0,1
216562,-100,4,2,8,80,0,1
216797,-125,4,2,8,80,0,1
216972,-125,4,2,0,5,0,1
217031,-125,4,2,8,80,0,1
217383,-71.4285714285714,4,2,8,80,0,1
218789,-166.666666666667,4,2,8,80,0,1
219023,-62.5,4,2,8,80,0,1
219258,-71.4285714285714,4,2,0,80,0,1
219375,-71.4285714285714,4,2,8,80,0,1
219726,-125,4,2,8,80,0,1
220078,-100,4,2,8,80,0,1
220312,-83.3333333333333,4,2,8,80,0,1
220547,-71.4285714285714,4,2,8,80,0,1
220722,-71.4285714285714,4,2,0,5,0,1
220781,-71.4285714285714,4,2,8,80,0,1
221133,-71.4285714285714,4,2,8,80,0,1
221308,-71.4285714285714,4,2,0,5,0,1
221367,-71.4285714285714,4,2,8,80,0,1
221425,-100,4,2,8,80,0,1
221660,-100,4,2,0,5,0,1
221718,-100,4,2,8,80,0,1
221894,-100,4,2,0,5,0,1
221953,-111.111111111111,4,2,8,80,0,1
222539,-90.9090909090909,4,2,8,80,0,1
222773,-76.9230769230769,4,2,8,80,0,1
225234,-200,4,2,8,80,0,1
226172,-125,4,2,8,80,0,1
226760,500,4,2,0,40,1,0
228760,555.555555555556,4,2,0,40,1,0
229037,540.540540540541,4,2,0,40,1,0
229307,476.190476190476,4,2,0,40,1,0
229783,588.235294117647,4,2,0,40,1,0
230371,540.540540540541,4,2,0,40,1,0
230911,576.923076923077,4,2,0,40,1,0
231487,468.75,4,2,0,40,1,0
231721,405.405405405405,4,2,0,40,1,0
231822,454.545454545455,4,2,0,40,1,0
232049,670.391061452514,4,2,0,40,1,0
232384,805.369127516779,4,2,0,40,1,0
232786,810.810810810811,4,2,0,40,1,0
233191,606.060606060606,4,2,0,40,1,0

[Colours]
Combo1 : 138,187,236
Combo2 : 244,240,181
Combo3 : 208,241,163
Combo4 : 150,245,217
Combo5 : 165,250,169
Combo6 : 217,189,242

[HitObjects]
256,192,820,12,0,1523,0:0:0:0:
26,25,1758,6,0,L|109:36,1,83.9999974365235,6|0,0:2|0:0,0:0:0:0:
182,46,2109,1,0,0:0:0:0:
271,118,2343,1,0,0:0:0:0:
299,193,2578,1,0,0:0:0:0:
289,247,2812,1,0,0:0:0:0:
264,276,3047,1,0,0:0:0:0:
238,284,3281,5,2,0:0:0:0:
218,279,3398,1,2,0:0:0:0:
218,279,3633,70,0,L|201:184,1,83.9999974365235,2|0,0:3|0:0,0:0:0:0:
190,125,3984,1,0,0:0:0:0:
282,192,4218,1,0,0:0:0:0:
362,199,4453,1,0,0:0:0:0:
411,176,4687,1,0,0:0:0:0:
433,144,4922,1,0,0:0:0:0:
434,117,5156,5,2,0:0:0:0:
424,99,5273,1,2,0:0:0:0:
424,99,5508,70,0,L|338:85,1,83.9999974365235,2|0,0:3|0:0,0:0:0:0:
271,77,5859,1,0,0:0:0:0:
283,190,6093,1,0,0:0:0:0:
249,263,6328,1,0,0:0:0:0:
204,294,6562,1,0,0:0:0:0:
166,297,6797,1,0,0:0:0:0:
142,284,7031,5,2,0:0:0:0:
131,267,7148,1,2,0:0:0:0:
131,267,7383,70,0,L|145:352,1,83.9999974365235,2|0,0:3|0:0,0:0:0:0:
71,223,7734,1,0,0:0:0:0:
66,203,7968,1,0,0:0:0:0:
74,177,8202,1,0,0:0:0:0:
103,152,8437,1,0,0:0:0:0:
157,142,8671,1,0,0:0:0:0:
232,170,8906,5,2,0:0:0:0:
304,259,9023,1,2,0:0:0:0:
128,229,9258,70,0,P|182:226|221:264,1,112,6|0,0:0|0:0,0:0:0:0:
243,333,9609,1,8,0:0:0:0:
229,262,9726,2,0,P|243:209|292:184,1,112,0|0,3:0|0:0,0:0:0:0:
472,33,10429,5,0,0:0:0:0:
493,105,10547,1,8,0:0:0:0:
479,27,10664,1,0,3:0:0:0:
454,166,10898,2,0,L|390:158,1,56,0|0,0:0|0:0,0:0:0:0:
263,18,11133,70,0,L|285:135,1,112,2|0,0:0|0:0,0:0:0:0:
331,180,11484,1,8,0:0:0:0:
277,134,11601,2,0,L|166:113,1,112,0|0,3:0|0:0,0:0:0:0:
158,374,12304,5,0,0:0:0:0:
63,349,12422,1,8,0:0:0:0:
162,366,12539,1,0,3:0:0:0:
24,284,12773,2,0,L|36:218,1,56,0|0,0:0|0:0,0:0:0:0:
158,41,13008,70,0,P|100:59|78:120,1,112,2|0,0:0|0:0,0:0:0:0:
9,122,13359,1,8,0:0:0:0:
80,113,13476,2,0,P|129:136|180:117,1,112,0|0,3:0|0:0,0:0:0:0:
383,344,14179,5,0,0:0:0:0:
416,255,14297,1,8,0:0:0:0:
390,352,14414,1,0,3:0:0:0:
369,202,14648,2,0,L|306:208,1,56,0|0,0:0|0:0,0:0:0:0:
227,319,14883,69,2,3:2:0:0:
234,289,15000,1,2,3:2:0:0:
241,259,15117,5,8,3:2:0:0:
205,202,15234,1,8,3:2:0:0:
250,25,15468,69,10,3:2:0:0:
234,91,15586,1,12,3:2:0:0:
256,192,15703,12,0,16289,0:0:0:0:
137,327,16523,37,2,0:0:0:0:
135,315,16601,69,2,0:0:0:0:
133,304,16679,5,2,0:0:0:0:
168,240,16758,70,0,B|211:224|243:259|243:259|273:295|318:279,1,167.999994873047,6|0,0:2|0:0,0:0:0:0:
465,248,17109,6,0,P|485:251|503:262,2,41.9999987182618,2|4|0,3:0|0:0|3:0,0:0:0:0:
399,308,17461,2,0,L|383:224,1,70,2|0,0:0|0:0,0:0:0:0:
376,70,17695,69,6,0:0:0:0:
440,105,17812,2,0,P|424:142|354:160,1,105,2|0,0:0|0:0,0:0:0:0:
362,154,18047,2,0,P|331:128|261:145,1,105,2|0,0:0|0:0,0:0:0:0:
263,143,18281,2,0,P|247:192|274:235,1,105,2|0,0:0|0:0,0:0:0:0:
284,235,18515,5,2,0:0:0:0:
334,319,18633,2,0,P|252:313|185:361,1,167.999994873047,4|0,0:0|0:0,0:0:0:0:
38,311,18984,70,0,P|18:308|0:297,2,41.9999987182618,2|4|0,3:0|0:0|3:0,0:0:0:0:
111,345,19336,2,0,L|118:233,1,112,2|0,0:0|0:0,0:0:0:0:
118,70,19570,5,6,0:0:0:0:
54,105,19687,2,0,P|70:142|140:160,1,105,2|0,0:0|0:0,0:0:0:0:
132,154,19922,2,0,P|163:128|233:145,1,105,2|0,0:0|0:0,0:0:0:0:
231,143,20156,2,0,P|246:192|219:235,1,105,2|0,0:0|0:0,0:0:0:0:
210,235,20390,69,2,0:0:0:0:
185,304,20508,2,0,P|273:352|341:318,1,167.999994873047,4|0,0:0|0:0,0:0:0:0:
465,271,20859,6,0,P|484:279|498:294,2,41.9999987182618,2|4|0,3:0|0:0|3:0,0:0:0:0:
394,364,21211,2,0,P|403:330|394:297,1,70,2|0,0:0|0:0,0:0:0:0:
378,154,21445,69,6,0:0:0:0:
403,220,21562,2,0,P|362:224|311:175,1,105,2|0,0:0|0:0,0:0:0:0:
310,176,21797,2,0,P|271:140|221:145,1,105,2|0,0:0|0:0,0:0:0:0:
218,154,22031,5,0,3:0:0:0:
252,222,22148,2,0,P|265:251|258:296,1,70,2|0,0:0|0:0,0:0:0:0:
21,367,22383,70,0,P|90:291|191:266,2,210,6|2|2,0:0|0:0|0:0,0:0:0:0:
22,243,23320,5,4,0:0:0:0:
24,225,23437,1,2,0:2:0:0:
110,190,23672,69,2,0:2:0:0:
124,258,23789,1,4,0:0:0:0:
220,290,24023,6,0,L|236:143,1,125.999996154785,2|0,0:0|0:0,0:0:0:0:
168,136,24258,70,0,P|165:81|279:65,1,167.999994873047,6|0,0:0|0:0,0:0:0:0:
413,73,24609,6,0,P|432:65|446:50,2,41.9999987182618,2|4|0,3:0|0:0|3:0,0:0:0:0:
331,27,24961,2,0,L|340:96,1,70,2|0,0:0|0:0,0:0:0:0:
435,265,25195,69,6,0:0:0:0:
483,207,25312,2,0,P|467:169|397:153,1,105,2|0,0:0|0:0,0:0:0:0:
400,151,25547,2,0,P|362:184|361:235,1,105,2|0,0:0|0:0,0:0:0:0:
365,244,25781,2,0,P|318:264|272:243,1,105,2|0,0:0|0:0,0:0:0:0:
274,232,26015,5,2,0:0:0:0:
292,161,26133,2,0,B|246:165|223:123|223:123|203:81|155:85,1,167.999994873047,4|0,0:0|0:0,0:0:0:0:
6,103,26484,70,8,P|-1:83|-1:63,2,41.9999987182618,2|4|0,3:0|0:0|3:0,0:0:0:0:
158,11,26836,2,0,P|91:40|78:91,1,112,2|0,0:0|0:0,0:0:0:0:
77,265,27070,5,6,0:0:0:0:
29,207,27187,2,0,P|45:169|115:153,1,105,2|0,0:0|0:0,0:0:0:0:
112,151,27422,2,0,P|150:184|151:235,1,105,2|0,0:0|0:0,0:0:0:0:
147,244,27656,69,0,3:0:0:0:
208,294,27773,2,0,B|221:309|221:309|279:274|261:214,1,112,2|0,0:0|0:0,0:0:0:0:
225,120,28008,6,0,P|230:141|216:194,5,48.9999985046387,2|0|0|0|0|0,0:0|0:0|0:0|0:0|0:0|0:0,0:0:0:0:
217,110,28359,2,0,P|264:117|307:96,1,97.9999970092774,2|4,0:0|0:0,0:0:0:0:
452,68,28593,69,2,0:2:0:0:
375,132,28711,6,0,P|380:110|366:57,5,48.9999985046387,2|0|0|0|4|0,0:0|0:0|0:0|0:0|0:0|0:0,0:0:0:0:
367,142,29062,2,0,P|414:134|457:155,1,97.9999970092774,2|0,0:0|0:0,0:0:0:0:
503,248,29297,69,2,3:2:0:0:
433,233,29414,1,6,0:2:0:0:
368,259,29531,1,2,3:2:0:0:
326,315,29648,1,2,0:2:0:0:
322,384,29765,1,2,3:2:0:0:
314,312,29883,6,0,P|261:265|186:254,1,146.999995513916,6|0,0:0|0:0,0:0:0:0:
174,259,30117,1,0,0:0:0:0:
97,253,30234,70,0,L|83:171,1,56,2|4,0:2|0:0,0:0:0:0:
24,269,30468,2,0,L|10:187,1,56,2|0,0:2|0:0,0:0:0:0:
150,73,30703,6,0,L|140:128,1,56,2|4,0:2|0:0,0:0:0:0:
222,89,30937,2,0,L|212:144,1,56,2|0,0:2|0:0,0:0:0:0:
174,259,31172,69,2,0:2:0:0:
170,242,31289,2,0,L|164:214,7,28,2|2|2|2|2|2|2|2,0:2|0:2|0:2|0:2|0:2|0:2|0:2|0:2,0:0:0:0:
161,199,31758,6,0,B|203:184|235:219|235:219|266:252|314:236,1,167.999994873047,6|0,0:2|0:0,0:0:0:0:
376,149,32109,70,0,P|353:153|329:181,2,41.9999987182618,2|4|0,3:0|0:0|3:0,0:0:0:0:
456,94,32461,2,0,L|445:185,1,70,2|0,0:0|0:0,0:0:0:0:
457,355,32695,5,6,0:0:0:0:
497,292,32812,2,0,P|472:247|422:237,1,105,2|0,0:0|0:0,0:0:0:0:
414,242,33046,2,0,P|378:278|381:329,1,105,2|0,0:0|0:0,0:0:0:0:
387,338,33281,2,0,P|350:373|299:371,1,105,2|0,0:0|0:0,0:0:0:0:
294,364,33515,69,2,0:0:0:0:
308,253,33633,2,0,P|312:184|268:97,1,167.999994873047,4|0,0:0|0:0,0:0:0:0:
166,126,33984,6,0,P|187:131|213:151,2,41.9999987182618,2|4|0,3:0|0:0|3:0,0:0:0:0:
102,52,34336,2,0,L|88:171,1,112,2|0,0:0|0:0,0:0:0:0:
55,355,34570,69,6,0:0:0:0:
15,292,34687,2,0,P|39:247|89:237,1,105,2|0,0:0|0:0,0:0:0:0:
98,241,34921,2,0,P|133:277|130:328,1,105,2|0,0:0|0:0,0:0:0:0:
125,338,35156,2,0,P|161:373|212:371,1,105,2|0,0:0|0:0,0:0:0:0:
218,364,35390,5,2,0:0:0:0:
253,296,35508,2,0,B|282:262|328:276|328:276|345:323|393:326,1,167.999994873047,4|0,0:0|0:0,0:0:0:0:
432,232,35859,70,0,P|413:240|398:256,2,41.9999987182618,2|4|0,3:0|0:0|3:0,0:0:0:0:
506,343,36211,2,0,P|475:327|455:272,1,70,2|0,0:0|0:0,0:0:0:0:
449,159,36445,5,6,0:0:0:0:
508,117,36562,2,0,P|483:72|433:62,1,105,2|0,0:0|0:0,0:0:0:0:
423,67,36796,2,0,P|394:109|343:116,1,105,2|0,0:0|0:0,0:0:0:0:
335,108,37031,69,0,3:0:0:0:
260,74,37148,2,0,L|268:159,1,70,2|0,0:0|0:0,0:0:0:0:
295,287,37383,6,0,P|230:209|128:191,2,210,6|2|2,0:0|0:0|0:0,0:0:0:0:
192,376,38320,69,4,0:0:0:0:
174,374,38437,1,2,0:2:0:0:
96,295,38672,5,2,0:2:0:0:
28,309,38789,1,4,0:0:0:0:
165,81,39023,70,0,P|126:129|128:190,1,125.999996154785,2|0,0:0|0:0,0:0:0:0:
203,276,39258,6,0,B|251:292|282:259|282:259|314:224|356:239,1,167.999994873047,6|0,0:2|0:0,0:0:0:0:
351,344,39609,70,0,P|326:341|304:323,2,41.9999987182618,2|4|0,3:0|0:0|3:0,0:0:0:0:
428,374,39961,2,0,L|417:296,1,70,2|0,0:0|0:0,0:0:0:0:
512,202,40195,5,6,0:0:0:0:
456,245,40312,2,0,P|439:196|462:150,1,105,2|0,0:0|0:0,0:0:0:0:
470,145,40547,2,0,P|493:99|475:52,1,105,2|0,0:0|0:0,0:0:0:0:
468,44,40781,2,0,P|418:32|376:62,1,105,2|0,0:0|0:0,0:0:0:0:
382,71,41015,69,2,0:0:0:0:
373,166,41133,2,0,P|309:112|227:102,1,167.999994873047,4|0,0:0|0:0,0:0:0:0:
160,133,41484,6,0,L|151:91,2,41.9999987182618,2|4|0,3:0|0:0|3:0,0:0:0:0:
286,255,41836,2,0,P|267:203|219:176,1,112,2|0,0:0|0:0,0:0:0:0:
0,202,42070,69,6,0:0:0:0:
56,245,42187,2,0,P|72:196|49:150,1,105,2|0,0:0|0:0,0:0:0:0:
43,143,42422,2,0,P|19:97|37:50,1,105,2|0,0:0|0:0,0:0:0:0:
46,44,42656,5,0,3:0:0:0:
113,69,42773,1,2,0:0:0:0:
171,28,42890,1,0,0:0:0:0:
238,86,43008,70,0,P|268:98|306:95,5,48.9999985046387,2|0|0|0|0|0,0:0|0:0|0:0|0:0|0:0|0:0,0:0:0:0:
231,94,43359,2,0,P|264:128|342:112,1,97.9999970092774,2|4,0:0|0:0,0:0:0:0:
462,160,43593,5,2,0:2:0:0:
425,49,43711,70,0,P|418:80|427:117,5,48.9999985046387,2|0|0|0|4|0,0:0|0:0|0:0|0:0|0:0|0:0,0:0:0:0:
416,42,44062,2,0,P|388:80|417:154,1,97.9999970092774,2|0,0:0|0:0,0:0:0:0:
407,324,44297,5,2,3:2:0:0:
389,248,44414,1,6,0:2:0:0:
331,194,44531,1,2,3:2:0:0:
255,178,44648,1,2,0:2:0:0:
181,209,44765,1,2,3:2:0:0:
263,170,44883,70,0,B|284:130|254:93|254:93|227:58|250:13,1,167.999994873047,6|0,0:2|0:0,0:0:0:0:
259,3,45117,1,0,0:0:0:0:
143,35,45234,6,0,L|77:26,1,56,2|4,0:2|0:0,0:0:0:0:
116,114,45468,2,0,L|50:105,1,56,2|0,0:2|0:0,0:0:0:0:
369,35,45703,70,0,L|435:26,1,56,2|4,0:2|0:0,0:0:0:0:
396,114,45937,2,0,L|462:105,1,56,2|0,0:2|0:0,0:0:0:0:
232,111,46172,6,0,L|221:152,1,41.9999987182618,2|0,0:2|0:0,0:0:0:0:
279,111,46289,2,0,L|290:152,1,41.9999987182618,2|2,0:2|0:2,0:0:0:0:
241,163,46406,70,0,L|234:206,1,35,2|2,0:2|0:2,0:0:0:0:
271,163,46523,2,0,L|276:213,1,35,2|2,0:2|0:2,0:0:0:0:
256,192,46640,6,0,L|256:241,1,28,2|2,0:2|0:2,0:0:0:0:
256,296,46758,38,0,P|213:329|159:328,1,112,4|0,0:0|0:0,0:0:0:0:
144,259,47109,1,2,0:0:0:0:
79,235,47343,1,0,0:0:0:0:
132,189,47578,1,0,0:0:0:0:
67,165,47812,1,0,0:0:0:0:
234,36,47988,5,2,0:0:0:0:
234,36,48047,2,0,L|249:153,1,112,2|0,0:0|0:0,0:0:0:0:
251,163,48398,2,0,P|215:184|184:179,1,56,2|0,0:0|0:0,0:0:0:0:
313,80,48633,70,0,P|367:88|404:129,1,112,2|0,0:0|0:0,0:0:0:0:
355,181,48984,2,0,L|340:298,1,112,0|0,0:0|0:0,0:0:0:0:
330,361,49336,1,2,0:0:0:0:
480,239,49570,1,2,0:0:0:0:
475,219,49687,6,0,P|439:198|408:203,1,56,2|0,0:0|0:0,0:0:0:0:
281,150,49922,2,0,L|272:219,1,56,2|4,0:0|0:0,0:0:0:0:
89,217,50156,2,0,L|211:201,1,112,2|0,0:0|0:0,0:0:0:0:
355,181,50508,69,6,0:0:0:0:
201,347,50742,1,2,0:0:0:0:
213,335,50859,5,2,0:0:0:0:
282,315,51093,1,2,0:0:0:0:
231,266,51328,1,2,0:0:0:0:
480,192,51562,69,2,0:1:0:0:
231,118,51796,5,2,0:0:0:0:
282,69,52031,1,2,0:0:0:0:
213,49,52265,1,2,0:0:0:0:
201,37,52383,70,0,P|154:44|107:104,1,112,6|0,0:0|0:0,0:0:0:0:
133,159,52734,1,2,0:0:0:0:
154,228,52968,1,2,0:0:0:0:
166,235,53086,5,2,0:0:0:0:
337,223,53320,2,0,L|322:147,2,56,6|2|2,0:0|0:0|0:0,0:0:0:0:
341,238,53672,1,2,0:0:0:0:
457,129,53906,69,0,0:0:0:0:
443,125,54024,2,0,L|388:113,1,56,2|0,0:0|0:0,0:0:0:0:
55,254,54258,6,8,P|67:200|111:167,1,112,6|0,0:0|0:0,0:0:0:0:
181,186,54609,1,2,0:0:0:0:
250,206,54843,1,0,0:0:0:0:
307,161,55078,1,0,0:0:0:0:
376,181,55312,1,0,0:0:0:0:
164,313,55488,69,2,0:0:0:0:
164,313,55547,2,0,L|179:196,1,112,2|0,0:0|0:0,0:0:0:0:
181,186,55898,2,0,L|117:199,1,56,2|0,0:0|0:0,0:0:0:0:
326,364,56133,6,0,P|272:353|240:309,1,112,6|0,0:0|0:0,0:0:0:0:
285,252,56484,2,0,L|409:226,1,112,2|0,0:0|0:0,0:0:0:0:
429,164,56836,1,2,0:0:0:0:
405,17,57070,69,0,0:0:0:0:
133,139,57363,2,0,L|130:168,1,28,2|0,0:0|0:0,0:0:0:0:
60,130,57656,2,0,L|57:159,1,28,2|0,0:0|0:0,0:0:0:0:
355,203,58008,5,6,0:0:0:0:
355,3,58242,1,2,0:0:0:0:
343,15,58359,69,2,0:0:0:0:
323,84,58593,1,2,0:0:0:0:
303,153,58828,1,2,0:0:0:0:
256,344,59062,5,2,0:1:0:0:
209,153,59297,69,2,0:0:0:0:
189,84,59532,1,2,0:0:0:0:
169,15,59766,1,2,0:0:0:0:
157,3,59883,6,0,P|110:10|63:70,1,112,6|0,0:0|0:0,0:0:0:0:
13,102,60234,1,2,0:0:0:0:
51,163,60468,1,0,0:0:0:0:
89,224,60703,1,0,0:0:0:0:
302,108,60937,70,0,P|301:80|293:53,1,56,2|0,0:0|0:0,0:0:0:0:
379,70,61171,2,0,L|395:8,1,56,2|0,0:0|0:0,0:0:0:0:
427,141,61406,2,0,P|441:117|461:98,1,56,2|0,0:0|0:0,0:0:0:0:
321,286,61640,1,2,0:0:0:0:
372,238,61758,6,0,L|260:252,1,112,6|0,0:0|0:0,0:0:0:0:
205,203,62109,2,0,P|151:213|115:255,1,112,2|0,0:0|0:0,0:0:0:0:
164,308,62461,1,2,0:0:0:0:
16,378,62636,69,2,0:0:0:0:
16,378,62695,2,0,B|-15:339|8:288|8:288|34:285|58:302,2,149.333333333333,6|2|2,0:0|0:0|0:0,0:0:0:0:
260,252,63633,2,0,B|298:203|269:139|269:139|236:136|207:158,2,186.666666666667,6|2|2,0:0|0:0|0:0,0:0:0:0:
14,44,64570,6,0,P|79:62|115:120,1,140,6|0,0:0|0:0,0:0:0:0:
74,178,64922,2,0,L|56:316,1,125.999996154785,2|0,0:0|0:0,0:0:0:0:
49,372,65273,2,0,P|83:389|114:387,1,56,2|0,0:0|0:0,0:0:0:0:
226,357,65508,69,2,0:0:0:0:
182,147,65742,1,2,0:0:0:0:
192,134,65859,5,2,0:0:0:0:
249,180,66093,1,2,0:0:0:0:
265,112,66269,69,2,0:0:0:0:
265,112,66328,2,0,L|421:134,1,112,2|0,0:0|0:0,0:0:0:0:
323,361,66797,2,0,L|318:333,1,28,2|0,0:0|0:0,0:0:0:0:
334,370,66914,6,0,P|388:362|425:321,1,112,6|0,0:0|0:0,0:0:0:0:
395,247,67265,2,0,L|399:219,1,28,2|0,0:0|0:0,0:0:0:0:
384,260,67383,70,0,P|329:261|285:228,1,112,6|0,0:0|0:0,0:0:0:0:
275,158,67734,1,2,0:0:0:0:
196,249,67968,1,0,0:0:0:0:
208,260,68086,6,0,L|218:200,1,56,2|0,0:0|0:0,0:0:0:0:
159,83,68320,1,6,0:0:0:0:
148,70,68437,70,0,P|190:44|216:45,1,56,2|0,0:0|0:0,0:0:0:0:
336,124,68672,2,0,L|224:110,2,112,2|0|0,0:0|0:0|0:0,0:0:0:0:
482,85,69258,6,0,P|448:128|450:183,1,112,6|0,0:0|0:0,0:0:0:0:
511,215,69609,2,0,L|398:229,1,112,0|0,0:0|0:0,0:0:0:0:
331,238,69961,1,0,0:0:0:0:
194,50,70195,70,0,P|227:93|225:148,1,112,6|0,0:0|0:0,0:0:0:0:
158,167,70547,1,2,0:0:0:0:
141,233,70781,1,0,0:0:0:0:
91,184,71015,1,2,0:0:0:0:
77,193,71133,6,0,L|63:305,1,112,6|0,0:0|0:0,0:0:0:0:
110,356,71484,2,0,P|164:357|208:324,1,112,2|0,0:0|0:0,0:0:0:0:
229,259,71836,1,2,0:0:0:0:
336,192,72070,70,0,L|350:304,1,112,6|0,0:0|0:0,0:0:0:0:
411,340,72422,1,2,0:0:0:0:
381,79,72656,2,0,P|337:45|282:47,1,112,2|0,0:0|0:0,0:0:0:0:
203,91,73008,6,0,L|151:82,2,41.9999987182618,6|0|0,0:0|0:0|0:0,0:0:0:0:
270,116,73359,1,2,0:0:0:0:
301,180,73593,1,0,0:0:0:0:
293,249,73828,1,2,0:0:0:0:
284,261,73945,70,0,L|325:254,2,41.9999987182618,6|0|0,0:0|0:0|0:0,0:0:0:0:
229,307,74297,2,0,P|169:315|112:271,1,125.999996154785,2|2,0:0|0:0,0:0:0:0:
50,171,74883,1,2,3:2:0:0:
58,185,75000,6,0,L|118:193,1,48.9999985046387,2|0,3:2|0:0,0:0:0:0:
169,151,75234,2,0,L|266:138,1,97.9999970092774,0|0,3:0|0:0,0:0:0:0:
327,101,75586,1,2,3:2:0:0:
341,108,75703,1,2,3:2:0:0:
355,115,75820,70,0,P|354:187|408:229,1,125.999996154785,2|0,3:0|0:0,0:0:0:0:
478,212,76172,1,2,0:0:0:0:
464,219,76289,6,0,L|459:253,3,35,2|2|2|2,0:0|0:0|0:0|0:0,0:0:0:0:
495,316,76523,5,2,0:0:0:0:
486,319,76601,5,2,0:0:0:0:
477,322,76679,69,2,0:0:0:0:
408,301,76758,6,0,B|366:286|334:321|334:321|303:354|255:338,1,167.999994873047,6|0,0:2|0:0,0:0:0:0:
183,206,77109,70,0,P|194:183|223:166,1,41.9999987182618,2|4,3:0|0:0,0:0:0:0:
189,316,77343,1,0,3:0:0:0:
127,286,77461,2,0,P|111:260|113:213,1,70,2|0,0:0|0:0,0:0:0:0:
84,28,77695,5,6,0:0:0:0:
53,97,77812,2,0,P|84:136|135:137,1,105,2|0,0:0|0:0,0:0:0:0:
145,133,78047,2,0,P|174:92|162:43,1,105,2|0,0:0|0:0,0:0:0:0:
156,34,78281,2,0,P|205:22|245:52,1,105,2|0,0:0|0:0,0:0:0:0:
246,64,78515,69,2,0:0:0:0:
214,169,78633,2,0,P|284:126|366:133,1,167.999994873047,4|0,0:0|0:0,0:0:0:0:
471,266,78984,6,0,P|450:265|430:258,1,41.9999987182618,2|4,3:0|0:0,0:0:0:0:
466,196,79218,1,0,3:0:0:0:
381,312,79336,2,0,P|339:247|339:202,1,112,2|0,0:0|0:0,0:0:0:0:
428,28,79570,69,6,0:0:0:0:
459,97,79687,2,0,P|425:138|360:127,1,105,2|0,0:0|0:0,0:0:0:0:
367,134,79922,2,0,P|337:90|364:30,1,105,2|0,0:0|0:0,0:0:0:0:
356,35,80156,2,0,P|307:22|266:53,1,105,2|0,0:0|0:0,0:0:0:0:
266,64,80390,5,2,0:0:0:0:
256,135,80508,2,0,B|210:132|193:85|193:85|147:71|118:105,1,167.999994873047,4|0,0:0|0:0,0:0:0:0:
79,228,80859,70,0,L|90:284,1,41.9999987182618,2|4,3:0|0:0,0:0:0:0:
227,206,81093,1,0,3:0:0:0:
160,164,81211,2,0,L|152:238,1,70,2|0,0:0|0:0,0:0:0:0:
226,370,81445,5,6,0:0:0:0:
238,301,81562,2,0,P|272:260|337:271,1,105,2|0,0:0|0:0,0:0:0:0:
328,267,81797,2,0,P|367:298|417:288,1,105,2|0,0:0|0:0,0:0:0:0:
424,280,82031,69,0,3:0:0:0:
504,371,82148,2,0,L|492:289,1,70,2|0,0:0|0:0,0:0:0:0:
468,197,82383,6,0,B|443:155|403:159|403:159|381:183,1,112,6|0,0:0|0:0,0:0:0:0:
329,265,82735,2,0,B|376:264|393:227|393:227|383:196,1,112,2|0,0:0|0:0,0:0:0:0:
337,109,83086,2,0,B|313:150|337:183|337:183|369:190,1,112,2|4,0:0|0:0,0:0:0:0:
468,197,83437,70,0,P|479:180|486:148,1,41.9999987182618,2|0,0:2|0:0,0:0:0:0:
435,65,83672,5,2,0:2:0:0:
497,33,83789,1,4,0:0:0:0:
334,108,84023,70,0,L|196:80,1,125.999996154785,2|0,0:0|0:0,0:0:0:0:
165,26,84258,6,0,P|87:37|75:115,1,167.999994873047,6|0,0:0|0:0,0:0:0:0:
187,206,84609,70,0,P|199:187|206:159,1,41.9999987182618,2|4,3:0|0:0,0:0:0:0:
92,245,84843,1,0,3:0:0:0:
142,296,84961,2,0,P|174:296|213:268,1,70,2|0,0:0|0:0,0:0:0:0:
334,108,85195,5,6,0:0:0:0:
404,126,85312,2,0,P|418:174|389:216,1,105,2|0,0:0|0:0,0:0:0:0:
384,207,85546,2,0,P|341:178|292:192,1,105,2|0,0:0|0:0,0:0:0:0:
287,201,85781,2,0,P|270:249|297:292,1,105,2|0,0:0|0:0,0:0:0:0:
305,297,86015,69,2,0:0:0:0:
431,326,86133,2,0,B|389:311|357:346|357:346|326:379|278:363,1,167.999994873047,4|0,0:0|0:0,0:0:0:0:
145,286,86484,6,0,P|110:302|99:318,1,41.9999987182618,2|4,3:0|0:0,0:0:0:0:
75,365,86718,1,0,3:0:0:0:
208,384,86836,2,0,L|219:259,1,112,2|0,0:0|0:0,0:0:0:0:
178,108,87070,69,6,0:0:0:0:
108,126,87187,2,0,P|93:174|122:216,1,105,2|0,0:0|0:0,0:0:0:0:
128,207,87421,2,0,P|170:178|219:192,1,105,2|0,0:0|0:0,0:0:0:0:
225,202,87656,5,0,3:0:0:0:
217,272,87773,2,0,B|237:294|237:294|296:289|323:212,1,112,2|0,0:0|0:0,0:0:0:0:
427,61,88008,70,0,P|423:35|410:13,5,48.9999985046387,2|0|0|0|0|0,0:0|0:0|0:0|0:0|0:0|0:0,0:0:0:0:
421,68,88359,2,0,P|390:32|343:27,1,97.9999970092774,2|4,0:0|0:0,0:0:0:0:
156,54,88593,5,2,0:2:0:0:
286,80,88711,70,0,P|282:106|269:128,5,48.9999985046387,2|0|0|0|4|0,0:0|0:0|0:0|0:0|0:0|0:0,0:0:0:0:
280,73,89062,2,0,P|249:108|202:113,1,97.9999970092774,2|0,0:0|0:0,0:0:0:0:
31,160,89297,5,2,3:2:0:0:
98,147,89414,1,6,0:2:0:0:
163,173,89531,1,2,3:2:0:0:
203,230,89648,1,2,0:2:0:0:
206,302,89765,1,2,3:2:0:0:
217,230,89883,70,0,P|262:172|346:170,1,146.999995513916,6|0,0:0|0:0,0:0:0:0:
343,169,90117,5,0,0:0:0:0:
400,212,90234,2,0,P|414:187|414:160,1,56,2|4,0:2|0:0,0:0:0:0:
473,119,90468,2,0,P|455:98|428:89,1,56,2|0,0:2|0:0,0:0:0:0:
408,20,90703,2,0,P|383:31|367:53,1,56,2|4,0:2|0:0,0:0:0:0:
296,51,90937,2,0,P|300:78|316:101,1,56,2|0,0:2|0:0,0:0:0:0:
343,169,91172,70,0,L|388:141,1,28,2|0,0:2|0:0,0:0:0:0:
414,160,91289,2,0,L|402:108,1,28,2|2,0:2|0:2,0:0:0:0:
428,89,91406,2,0,L|376:85,1,28,2|2,0:2|0:2,0:0:0:0:
367,53,91523,2,0,L|353:103,1,28,2|2,0:2|0:2,0:0:0:0:
316,101,91640,2,0,L|357:135,1,28,2|2,0:2|0:2,0:0:0:0:
343,169,91758,6,0,P|272:135|172:171,1,167.999994873047,6|0,0:2|0:0,0:0:0:0:
234,254,92109,70,0,L|239:213,1,41.9999987182618,2|4,3:0|0:0,0:0:0:0:
133,109,92343,1,0,3:0:0:0:
72,144,92461,2,0,L|79:226,1,70,2|0,0:0|0:0,0:0:0:0:
12,345,92695,5,6,0:0:0:0:
42,277,92812,2,0,P|90:293|133:266,1,105,2|0,0:0|0:0,0:0:0:0:
138,256,93047,2,0,P|151:305|197:325,1,105,2|0,0:0|0:0,0:0:0:0:
208,324,93281,2,0,P|249:294|253:244,1,105,2|0,0:0|0:0,0:0:0:0:
246,234,93515,69,2,0:0:0:0:
192,186,93633,2,0,B|220:149|266:162|266:162|311:177|341:140,1,167.999994873047,4|0,0:0|0:0,0:0:0:0:
409,48,93984,6,0,P|424:61|433:80,1,41.9999987182618,2|4,3:0|0:0,0:0:0:0:
335,68,94218,1,0,3:0:0:0:
495,124,94336,2,0,P|442:177|431:226,1,112,2|0,0:0|0:0,0:0:0:0:
500,345,94570,69,6,0:0:0:0:
470,277,94687,2,0,P|422:293|379:266,1,105,2|0,0:0|0:0,0:0:0:0:
374,256,94922,2,0,P|361:305|315:325,1,105,2|0,0:0|0:0,0:0:0:0:
304,324,95156,2,0,P|263:294|259:244,1,105,2|0,0:0|0:0,0:0:0:0:
266,234,95390,5,2,0:0:0:0:
329,193,95508,2,0,P|347:114|271:67,1,167.999994873047,4|0,0:0|0:0,0:0:0:0:
186,21,95859,70,0,L|228:14,1,41.9999987182618,2|4,3:0|0:0,0:0:0:0:
170,167,96093,1,0,3:0:0:0:
220,102,96211,2,0,L|138:87,1,70,2|0,0:0|0:0,0:0:0:0:
0,8,96445,5,6,0:0:0:0:
89,42,96562,2,0,P|43:65|33:115,1,105,2|0,0:0|0:0,0:0:0:0:
43,120,96797,2,0,P|88:143|98:193,1,105,2|0,0:0|0:0,0:0:0:0:
90,200,97031,69,0,3:0:0:0:
68,268,97148,2,0,P|37:251|23:220,1,70,2|0,0:0|0:0,0:0:0:0:
170,167,97383,6,0,P|237:177|268:213,1,112,6|0,0:0|0:0,0:0:0:0:
269,322,97734,2,0,P|244:258|259:214,1,112,2|0,0:0|0:0,0:0:0:0:
354,159,98086,2,0,P|311:212|265:220,1,112,2|4,0:0|0:0,0:0:0:0:
284,121,98437,70,0,P|269:107|261:80,1,41.9999987182618,2|0,0:2|0:0,0:0:0:0:
432,158,98672,5,2,0:2:0:0:
465,92,98789,1,4,0:0:0:0:
506,297,99023,70,0,P|479:257|379:239,1,125.999996154785,2|0,0:0|0:0,0:0:0:0:
212,159,99258,6,0,B|250:181|244:229|244:229|201:254|206:300,1,167.999994873047,6|0,0:2|0:0,0:0:0:0:
299,336,99609,70,0,P|285:320|279:301,1,41.9999987182618,2|4,3:0|0:0,0:0:0:0:
400,278,99843,1,0,3:0:0:0:
334,244,99961,2,0,P|336:208|360:176,1,70,2|0,0:0|0:0,0:0:0:0:
419,44,100195,5,6,0:0:0:0:
481,85,100312,2,0,P|476:138|417:166,1,105,2|0,0:0|0:0,0:0:0:0:
427,169,100547,2,0,P|377:150|364:85,1,105,2|0,0:0|0:0,0:0:0:0:
365,94,100781,2,0,P|318:73|272:95,1,105,2|0,0:0|0:0,0:0:0:0:
267,104,101015,69,2,0:0:0:0:
302,172,101133,2,0,P|227:207|175:306,1,167.999994873047,4|0,0:0|0:0,0:0:0:0:
222,378,101484,6,0,L|232:319,1,41.9999987182618,2|4,3:0|0:0,0:0:0:0:
268,274,101718,1,0,3:0:0:0:
146,341,101836,2,0,P|110:302|112:245,1,112,2|0,0:0|0:0,0:0:0:0:
93,44,102070,69,6,0:0:0:0:
31,85,102187,2,0,P|35:138|94:166,1,105,2|0,0:0|0:0,0:0:0:0:
85,169,102422,2,0,P|134:150|147:85,1,105,2|0,0:0|0:0,0:0:0:0:
147,94,102656,5,0,3:0:0:0:
221,127,102773,1,2,0:0:0:0:
229,207,102890,1,0,0:0:0:0:
94,292,103008,70,0,P|106:271|111:247,5,48.9999985046387,2|0|0|0|0|0,0:0|0:0|0:0|0:0|0:0|0:0,0:0:0:0:
85,300,103359,2,0,P|137:314|178:364,1,97.9999970092774,2|4,0:0|0:0,0:0:0:0:
297,172,103593,5,2,0:2:0:0:
227,297,103711,70,0,P|239:317|244:341,5,48.9999985046387,2|0|0|0|4|0,0:0|0:0|0:0|0:0|0:0|0:0,0:0:0:0:
218,289,104062,2,0,P|270:275|311:225,1,97.9999970092774,2|0,0:0|0:0,0:0:0:0:
497,173,104297,5,2,3:2:0:0:
436,212,104414,1,6,0:2:0:0:
363,209,104531,1,2,3:2:0:0:
305,166,104648,1,2,0:2:0:0:
283,97,104765,1,2,3:2:0:0:
296,171,104883,70,0,P|230:124|149:138,1,168,6|0,0:2|0:0,0:0:0:0:
143,151,105117,1,0,0:0:0:0:
138,59,105234,6,0,P|188:68|219:115,1,83.9999974365235,2|4,0:2|0:0,0:0:0:0:
273,368,105468,2,0,P|238:332|240:276,1,83.9999974365235,2|0,0:2|0:0,0:0:0:0:
346,38,105703,2,0,P|352:89|317:133,1,83.9999974365235,2|4,0:2|0:0,0:0:0:0:
93,263,105937,2,0,P|117:218|171:203,1,83.9999974365235,2|0,0:2|0:0,0:0:0:0:
429,230,106172,70,0,P|404:248|373:249,1,62.9999980773926,2|0,0:2|0:0,0:0:0:0:
404,260,106289,2,0,P|373:263|345:248,1,56,2|2,0:2|0:2,0:0:0:0:
372,278,106406,2,0,P|346:267|329:245,1,48.9999985046387,2|2,0:2|0:2,0:0:0:0:
338,280,106523,2,0,P|322:261|316:237,1,41.9999987182618,2|2,0:2|0:2,0:0:0:0:
308,268,106640,2,0,P|303:247|307:226,1,35,2|2,0:2|0:2,0:0:0:0:
353,184,106758,5,2,0:2:0:0:
256,356,114258,37,6,0:0:0:0:
256,356,114492,2,0,L|256:300,2,41.9999987182618,2|0|0,0:0|0:0|0:0,0:0:0:0:
256,202,114961,6,0,L|256:258,1,41.9999987182618,2|0,0:0|0:0,0:0:0:0:
316,280,115195,2,0,L|440:297,2,125.999996154785,2|2|2,0:0|0:0|0:0,0:0:0:0:
196,280,116133,2,0,L|72:297,1,125.999996154785,2|2,0:0|0:0,0:0:0:0:
256,244,116836,69,2,0:0:0:0:
256,176,117304,1,2,0:0:0:0:
256,108,117773,1,2,0:0:0:0:
458,60,118008,6,0,P|461:114|423:153,1,112,6|0,0:0|0:0,0:0:0:0:
354,175,118359,1,10,0:0:0:0:
425,161,118476,2,0,P|478:175|503:224,1,112,4|2,0:0|0:0,0:0:0:0:
256,372,118945,69,6,0:0:0:0:
280,188,119179,1,0,0:0:0:0:
301,260,119297,1,10,0:0:0:0:
287,182,119414,1,4,0:0:0:0:
114,313,119648,2,0,L|58:306,1,56,2|0,0:0|0:0,0:0:0:0:
33,205,119883,5,8,0:0:0:0:
95,237,120000,2,0,B|138:227|138:227|149:206|149:206|221:190,2,112,8|8|8,0:0|0:0|0:0,0:0:0:0:
33,205,120586,2,0,L|-9:196,2,28,8|8|8,0:0|0:0|0:0,0:0:0:0:
93,167,120820,69,8,0:0:0:0:
40,21,121054,5,8,0:0:0:0:
70,14,121171,1,0,0:0:0:0:
100,7,121288,69,8,0:0:0:0:
157,43,121405,1,8,0:0:0:0:
223,25,121523,5,8,0:0:0:0:
251,100,121640,1,8,0:0:0:0:
327,68,121758,70,0,P|408:69|449:100,1,119.000002269745,6|0,0:0|0:0,0:0:0:0:
407,152,122109,2,0,L|401:211,1,59.5000011348725,0|4,0:0|0:0,0:0:0:0:
474,264,122343,1,0,0:0:0:0:
463,251,122461,6,0,P|382:252|341:283,1,119.000002269745,0|4,0:0|0:0,0:0:0:0:
104,331,122929,1,0,0:0:0:0:
170,352,123047,1,0,0:0:0:0:
98,338,123164,1,4,0:0:0:0:
207,155,123340,69,2,0:0:0:0:
207,155,123398,2,0,L|193:62,1,89.2500017023087,2|0,0:0|0:0,0:0:0:0:
188,60,123633,6,0,B|149:27|89:45|89:45|87:72|110:100,2,158.666669692993,6|2|2,0:0|0:0|0:0,0:0:0:0:
47,178,124570,2,0,B|4:205|3:266|3:266|27:277|61:263,2,158.666669692993,6|2|2,0:0|0:0|0:0,0:0:0:0:
42,372,125449,69,2,0:0:0:0:
42,372,125508,2,0,L|143:357,1,89.2500017023087,6|0,0:0|0:0,0:0:0:0:
135,353,125742,2,0,P|174:335|206:340,1,59.5000011348725,0|0,0:0|0:0,0:0:0:0:
257,363,125976,2,0,P|338:362|379:331,1,119.000002269745,4|0,0:0|0:0,0:0:0:0:
399,276,126328,5,0,0:0:0:0:
205,148,126562,1,0,0:0:0:0:
307,148,126797,69,0,0:0:0:0:
113,276,127031,1,0,0:0:0:0:
17,64,127265,1,0,0:0:0:0:
26,50,127383,5,4,0:0:0:0:
26,50,127617,2,0,P|81:83|141:90,1,119.000002269745,2|0,0:0|0:0,0:0:0:0:
106,166,127968,2,0,P|164:156|214:125,1,119.000002269745,2|0,0:0|0:0,0:0:0:0:
486,50,128320,2,0,P|431:83|371:90,1,119.000002269745,6|0,0:0|0:0,0:0:0:0:
406,166,128671,2,0,P|347:156|297:125,1,119.000002269745,2|0,0:0|0:0,0:0:0:0:
256,8,129023,2,0,L|256:88,1,59.5000011348725,2|0,0:0|0:0,0:0:0:0:
179,189,129258,70,0,P|153:241|159:300,1,119.000002269745,6|0,0:0|0:0,0:0:0:0:
202,360,129609,1,0,0:0:0:0:
168,297,129726,1,4,0:0:0:0:
437,238,129902,5,2,0:0:0:0:
437,238,129961,2,0,P|378:241|330:276,1,119.000002269745,2|4,0:0|0:0,0:0:0:0:
297,340,130312,1,0,0:0:0:0:
505,263,130547,1,0,0:0:0:0:
335,122,130781,1,0,0:0:0:0:
270,160,130898,2,0,L|263:90,1,59.5000011348725,0|0,0:0|0:0,0:0:0:0:
328,35,131133,70,0,P|360:56|426:39,2,79.3333348464966,6|2|2,0:0|0:0|0:0,0:0:0:0:
190,138,131601,2,0,P|179:174|222:232,2,83.9999974365235,6|2|2,0:0|0:0|0:0,0:0:0:0:
71,11,132070,2,0,P|32:12|-14:75,1,88.6666642990113,6|2,0:0|0:0,0:0:0:0:
69,137,132383,1,2,0:0:0:0:
52,261,132539,5,6,0:0:0:0:
397,166,132773,2,0,L|322:154,1,59.5000011348725,0|0,0:0|0:0,0:0:0:0:
324,60,133008,70,0,B|363:27|423:45|423:45|425:72|402:100,2,158.666669692993,6|2|2,0:0|0:0|0:0,0:0:0:0:
465,178,133945,2,0,B|508:205|509:266|509:266|485:277|451:263,1,158.666669692993,6|2,0:0|0:0,0:0:0:0:
344,327,134414,2,0,P|402:321|455:347,1,119.000002269745,4|0,0:0|0:0,0:0:0:0:
198,364,134883,5,6,0:0:0:0:
273,212,135117,1,0,0:0:0:0:
206,227,135234,1,0,0:0:0:0:
278,204,135351,1,6,0:0:0:0:
161,96,135586,1,0,0:0:0:0:
99,355,135820,69,2,3:2:0:0:
141,297,135937,1,2,3:2:0:0:
101,239,136054,1,8,3:2:0:0:
122,176,136172,1,8,3:2:0:0:
70,131,136289,1,2,3:2:0:0:
257,215,136523,5,8,3:2:0:0:
350,197,136640,1,8,3:2:0:0:
405,248,136758,69,6,0:0:0:0:
475,234,136875,2,0,L|488:141,1,70,2|0,0:0|0:0,0:0:0:0:
501,74,137109,1,0,0:0:0:0:
488,62,137226,5,6,0:0:0:0:
432,101,137344,1,0,0:0:0:0:
364,94,137461,1,2,0:1:0:0:
319,42,137578,1,0,0:0:0:0:
355,101,137695,69,6,0:0:0:0:
207,218,137929,1,2,0:0:0:0:
179,31,138164,5,6,0:1:0:0:
249,158,138398,1,2,0:0:0:0:
174,282,138633,1,6,0:0:0:0:
24,124,138867,69,2,0:1:0:0:
92,111,139101,1,6,0:0:0:0:
160,98,139336,1,2,0:0:0:0:
290,216,139570,5,6,0:1:0:0:
288,222,139804,1,2,0:0:0:0:
286,228,140039,1,6,0:0:0:0:
305,294,140156,1,2,0:0:0:0:
324,360,140273,1,2,0:0:0:0:
98,165,140508,70,0,B|135:169|160:142|160:142|186:114|223:119,1,140,6|0,0:0|0:0,0:0:0:0:
288,161,140859,2,0,P|296:197|254:252,1,70,2|0,0:0|0:0,0:0:0:0:
98,165,141093,2,0,P|62:153|36:90,1,70,0|0,0:0|0:0,0:0:0:0:
207,48,141328,5,2,0:0:0:0:
224,119,141445,1,6,0:0:0:0:
211,38,141562,2,0,P|281:23|354:74,1,140,2|0,0:0|0:0,0:0:0:0:
400,95,141914,2,0,P|430:76|438:24,1,70,6|0,0:0|0:0,0:0:0:0:
211,38,142148,70,0,B|195:95|195:95|205:117|205:117|185:198,1,140,2|4,0:0|0:0,0:0:0:0:
152,236,142500,5,2,0:1:0:0:
257,207,142617,1,2,0:0:0:0:
263,213,142851,69,6,0:1:0:0:
327,194,142968,1,2,0:0:0:0:
333,200,143203,5,2,0:1:0:0:
365,190,143320,1,2,0:0:0:0:
371,196,143554,69,2,0:1:0:0:
387,191,143672,2,0,L|381:261,1,70,0|6,0:0|0:0,0:0:0:0:
366,348,143906,5,2,0:0:0:0:
432,337,144023,1,2,0:0:0:0:
467,278,144140,1,2,0:0:0:0:
381,260,144258,69,6,0:0:0:0:
220,357,144492,1,2,0:0:0:0:
217,340,144609,1,2,0:0:0:0:
95,184,144843,5,2,0:0:0:0:
256,281,145077,1,2,0:0:0:0:
259,264,145194,1,4,0:0:0:0:
212,211,145312,69,2,0:0:0:0:
223,145,145429,1,2,0:0:0:0:
408,98,145664,1,6,0:0:0:0:
356,281,145898,5,2,0:1:0:0:
295,151,146133,1,6,0:0:0:0:
376,34,146367,1,2,0:0:0:0:
512,224,146601,69,6,0:1:0:0:
442,218,146836,1,2,0:0:0:0:
372,212,147070,2,0,L|362:159,5,46.6666666666667,6|2|2|2|2|2,0:0|0:0|0:0|0:0|0:0|0:0,0:0:0:0:
323,268,147539,5,6,0:0:0:0:
310,284,147617,69,2,0:0:0:0:
274,307,147695,5,2,0:0:0:0:
223,321,147773,69,2,0:0:0:0:
154,312,147851,5,2,0:0:0:0:
97,268,147929,69,2,0:0:0:0:
63,187,148008,5,2,0:0:0:0:
321,88,148242,2,0,L|215:78,1,70,2|0,0:0|0:0,0:0:0:0:
75,61,148476,1,6,0:0:0:0:
100,125,148593,1,2,0:0:0:0:
321,88,148828,70,0,P|288:99|266:126,1,70,2|4,0:0|0:0,0:0:0:0:
396,174,149062,2,0,P|364:159|330:162,1,70,2|0,0:0|0:0,0:0:0:0:
208,80,149297,6,0,P|193:111|196:145,1,70,2|4,0:0|0:0,0:0:0:0:
388,287,149531,2,0,P|376:254|349:232,1,70,2|0,0:0|0:0,0:0:0:0:
86,298,149765,1,2,0:0:0:0:
101,283,149883,70,0,L|193:292,1,70,6|0,0:0|0:0,0:0:0:0:
222,339,150117,5,2,0:0:0:0:
276,295,150234,1,2,0:0:0:0:
264,226,150351,1,6,0:0:0:0:
205,183,150468,69,2,0:0:0:0:
217,114,150585,1,2,0:0:0:0:
229,45,150703,1,2,0:0:0:0:
286,5,150820,5,6,0:0:0:0:
355,17,150938,1,2,0:0:0:0:
393,75,151054,5,2,0:0:0:0:
484,90,151172,1,2,0:0:0:0:
375,223,151288,5,6,0:0:0:0:
342,136,151406,1,2,0:0:0:0:
512,165,151522,69,2,0:0:0:0:
453,236,151640,1,2,0:0:0:0:
426,154,151758,5,2,0:3:0:0:
474,352,159258,38,0,P|427:303|364:321,1,112,6|0,0:0|0:0,0:0:0:0:
317,325,159609,1,8,0:0:0:0:
382,297,159726,2,0,P|430:250|412:187,1,112,0|0,3:0|0:0,0:0:0:0:
428,210,160429,5,0,0:0:0:0:
400,142,160547,1,8,0:0:0:0:
437,206,160664,1,0,3:0:0:0:
317,325,160898,2,0,L|243:314,1,56,0|0,0:0|0:0,0:0:0:0:
38,352,161133,70,0,P|85:303|148:321,1,112,2|0,0:0|0:0,0:0:0:0:
195,325,161484,1,8,0:0:0:0:
130,297,161601,2,0,P|82:250|100:187,1,112,0|0,3:0|0:0,0:0:0:0:
84,210,162304,5,0,0:0:0:0:
112,142,162422,1,8,0:0:0:0:
75,206,162539,1,0,3:0:0:0:
195,325,162773,2,0,L|269:314,1,56,0|0,0:0|0:0,0:0:0:0:
325,265,163008,70,0,L|345:154,1,112,2|0,0:0|0:0,0:0:0:0:
406,111,163359,1,8,0:0:0:0:
341,145,163476,2,0,L|230:165,1,112,0|0,3:0|0:0,0:0:0:0:
230,165,164179,5,0,0:0:0:0:
158,148,164296,1,8,0:0:0:0:
225,175,164413,1,0,3:0:0:0:
73,295,164648,2,0,L|56:211,1,56,0|0,0:0|0:0,0:0:0:0:
36,100,164883,69,2,3:2:0:0:
66,107,165000,1,2,3:2:0:0:
96,114,165117,5,8,3:2:0:0:
153,78,165234,1,8,3:2:0:0:
313,228,165468,69,10,3:2:0:0:
256,192,165585,1,12,3:2:0:0:
256,192,165703,12,0,166289,0:0:0:0:
482,140,166523,37,2,0:0:0:0:
475,133,166601,69,2,0:0:0:0:
466,129,166679,5,2,0:0:0:0:
492,215,166758,70,0,P|462:147|379:176,1,167.999994873047,6|0,0:2|0:0,0:0:0:0:
395,271,167109,5,2,3:0:0:0:
407,266,167226,1,4,0:0:0:0:
338,225,167343,69,0,3:0:0:0:
291,283,167461,2,0,P|249:282|206:251,1,70,2|0,0:0|0:0,0:0:0:0:
210,83,167695,5,6,0:0:0:0:
249,191,167812,2,0,B|212:201|212:201|181:192|167:156,1,105,2|0,0:0|0:0,0:0:0:0:
163,146,168047,2,0,B|149:110|118:101|118:101|81:111,1,105,2|0,0:0|0:0,0:0:0:0:
71,115,168281,2,0,B|35:130|35:130|17:157|30:193,1,105,2|0,0:0|0:0,0:0:0:0:
36,202,168515,69,2,0:0:0:0:
0,281,168633,2,0,B|42:266|74:301|74:301|105:334|153:318,1,167.999994873047,4|0,0:0|0:0,0:0:0:0:
259,280,168984,5,2,3:0:0:0:
262,268,169101,1,4,0:0:0:0:
190,256,169218,69,0,3:0:0:0:
242,380,169336,2,0,P|307:368|356:323,1,112,2|0,0:0|0:0,0:0:0:0:
302,83,169570,5,6,0:0:0:0:
263,191,169687,2,0,B|300:201|300:201|331:192|345:156,1,105,2|0,0:0|0:0,0:0:0:0:
349,146,169922,2,0,B|363:110|394:101|394:101|431:111,1,105,2|0,0:0|0:0,0:0:0:0:
441,115,170156,2,0,B|477:130|477:130|495:157|482:193,1,105,2|0,0:0|0:0,0:0:0:0:
476,202,170390,69,2,0:0:0:0:
512,279,170508,2,0,P|436:282|348:346,1,167.999994873047,4|0,0:0|0:0,0:0:0:0:
240,367,170859,5,2,3:0:0:0:
236,354,170976,1,4,0:0:0:0:
292,305,171093,69,0,3:0:0:0:
274,234,171211,2,0,P|216:214|177:223,1,70,2|0,0:0|0:0,0:0:0:0:
33,244,171445,5,6,0:0:0:0:
77,338,171562,2,0,B|113:324|122:293|122:293|112:256,1,105,2|0,0:0|0:0,0:0:0:0:
107,246,171797,2,0,B|97:209|97:209|106:178|142:164,1,105,2|0,0:0|0:0,0:0:0:0:
153,166,172031,69,0,3:0:0:0:
130,86,172148,2,0,L|219:99,1,70,2|0,0:0|0:0,0:0:0:0:
339,111,172383,5,6,0:0:0:0:
339,111,172734,2,0,P|321:78|321:54,1,56,2|0,0:0|0:0,0:0:0:0:
511,42,172968,1,0,0:0:0:0:
500,52,173086,70,0,B|455:62|455:62|439:54|439:54|379:67,1,112,2|4,0:0|0:0,0:0:0:0:
470,141,173437,2,0,L|429:129,1,41.9999987182618,2|0,0:2|0:0,0:0:0:0:
476,263,173672,5,2,0:2:0:0:
434,204,173789,2,0,L|348:221,1,83.9999974365235,4|0,0:0|0:0,0:0:0:0:
336,384,174023,70,0,B|371:377|377:365|377:365|366:314|305:304,1,125.999996154785,2|0,0:0|0:0,0:0:0:0:
282,247,174258,6,0,B|240:232|208:267|208:267|177:300|129:284,1,167.999994873047,6|0,0:0|0:0,0:0:0:0:
159,208,174609,69,2,3:0:0:0:
155,220,174726,1,4,0:0:0:0:
85,226,174843,5,0,3:0:0:0:
30,181,174961,2,0,P|29:147|52:113,1,70,2|0,0:0|0:0,0:0:0:0:
213,0,175195,69,6,0:0:0:0:
175,86,175312,2,0,B|208:104|238:91|238:91|260:60,1,105,2|0,0:0|0:0,0:0:0:0:
266,50,175547,2,0,B|287:18|287:18|317:5|351:24,1,105,2|0,0:0|0:0,0:0:0:0:
360,29,175781,2,0,B|389:54|386:86|386:86|364:118,1,105,2|0,0:0|0:0,0:0:0:0:
355,124,176015,5,2,0:0:0:0:
326,189,176133,2,0,B|367:209|405:177|405:177|452:188|460:232,1,167.999994873047,4|0,0:0|0:0,0:0:0:0:
398,278,176484,69,2,3:0:0:0:
395,264,176601,1,4,0:0:0:0:
467,304,176718,5,0,3:0:0:0:
349,331,176836,2,0,P|296:313|249:261,1,112,2|0,0:0|0:0,0:0:0:0:
299,0,177070,69,6,0:0:0:0:
337,86,177187,2,0,B|304:104|274:91|274:91|252:60,1,105,2|0,0:0|0:0,0:0:0:0:
246,50,177422,2,0,B|225:18|225:18|195:5|161:24,1,105,2|0,0:0|0:0,0:0:0:0:
152,29,177656,5,0,3:0:0:0:
74,0,177773,2,0,L|88:161,1,112,2|0,0:0|0:0,0:0:0:0:
15,291,178008,70,0,P|-4:314|-47:331,5,48.9999985046387,2|0|0|0|0|0,0:0|0:0|0:0|0:0|0:0|0:0,0:0:0:0:
22,280,178359,2,0,P|77:237|125:233,1,97.9999970092774,2|4,0:0|0:0,0:0:0:0:
298,257,178593,1,2,0:2:0:0:
216,272,178711,6,0,P|202:253|182:240,5,48.9999985046387,2|0|0|0|4|0,0:0|0:0|0:0|0:0|0:0|0:0,0:0:0:0:
224,284,179062,2,0,P|258:317|305:332,1,97.9999970092774,2|0,0:0|0:0,0:0:0:0:
451,229,179297,69,2,3:2:0:0:
463,306,179414,1,6,0:2:0:0:
466,229,179531,5,2,3:2:0:0:
448,306,179649,1,2,0:2:0:0:
480,235,179766,69,2,3:2:0:0:
434,300,179883,2,0,P|403:254|411:101,1,168,6|0,0:0|0:0,0:0:0:0:
397,135,180117,1,0,0:0:0:0:
298,96,180234,6,0,P|269:96|245:109,1,56,2|4,0:2|0:0,0:0:0:0:
316,212,180468,2,0,P|307:184|287:165,1,56,2|0,0:2|0:0,0:0:0:0:
214,265,180703,2,0,P|237:247|249:223,1,56,2|4,0:2|0:0,0:0:0:0:
119,178,180937,69,2,0:2:0:0:
182,204,181054,1,0,0:0:0:0:
174,135,181172,1,2,0:2:0:0:
49,175,181289,6,0,P|50:193|63:220,1,31.4999990386963,2|2,0:2|0:2,0:0:0:0:
51,224,181406,2,0,P|67:245|92:258,1,35,2|2,0:2|0:2,0:0:0:0:
84,271,181523,70,0,P|114:279|152:271,1,38.5000011749268,2|2,0:2|0:2,0:0:0:0:
145,294,181640,2,0,P|174:282|199:250,1,41.9999987182618,2|2,0:2|0:2,0:0:0:0:
245,313,181758,6,0,B|270:276|244:236|244:236|220:197|248:155,1,167.999994873047,6|0,0:2|0:0,0:0:0:0:
371,159,182109,69,2,3:0:0:0:
377,149,182226,1,4,0:0:0:0:
311,110,182343,5,0,3:0:0:0:
312,203,182461,2,0,P|340:225|396:222,1,70,2|0,0:0|0:0,0:0:0:0:
454,374,182695,69,6,0:0:0:0:
509,232,182812,2,0,B|471:229|450:254|450:254|442:292,1,105,2|0,0:0|0:0,0:0:0:0:
441,303,183047,2,0,B|435:341|435:341|413:365|374:362,1,105,2|0,0:0|0:0,0:0:0:0:
364,359,183281,2,0,B|327:349|316:319|316:319|322:280,1,105,2|0,0:0|0:0,0:0:0:0:
328,271,183515,5,2,0:0:0:0:
368,183,183633,2,0,P|288:201|213:166,1,167.999994873047,4|0,0:0|0:0,0:0:0:0:
201,91,183984,69,2,3:0:0:0:
141,136,184101,1,4,0:0:0:0:
204,80,184218,5,0,3:0:0:0:
98,72,184336,2,8,P|63:134|93:195,1,112,2|0,0:0|0:0,0:0:0:0:
58,374,184570,69,6,0:0:0:0:
3,232,184687,2,0,B|41:229|62:254|62:254|70:292,1,105,2|0,0:0|0:0,0:0:0:0:
71,303,184922,2,0,B|77:341|77:341|99:365|138:362,1,105,2|0,0:0|0:0,0:0:0:0:
148,359,185156,2,0,B|185:349|196:319|196:319|190:280,1,105,2|0,0:0|0:0,0:0:0:0:
184,271,185390,5,2,0:0:0:0:
155,204,185508,2,0,B|196:184|234:216|234:216|281:205|289:161,1,167.999994873047,4|0,0:0|0:0,0:0:0:0:
225,116,185859,69,2,3:0:0:0:
221,129,185976,1,4,0:0:0:0:
156,92,186093,5,0,3:0:0:0:
226,44,186211,2,0,P|259:50|284:74,1,70,2|0,0:0|0:0,0:0:0:0:
493,151,186445,69,6,0:0:0:0:
425,47,186562,2,0,B|387:44|366:69|366:69|358:107,1,105,2|0,0:0|0:0,0:0:0:0:
356,118,186797,2,0,B|394:126|394:126|419:147|416:185,1,105,2|0,0:0|0:0,0:0:0:0:
411,195,187031,5,0,3:0:0:0:
374,265,187148,2,0,L|301:277,1,70,2|0,0:0|0:0,0:0:0:0:
102,308,187383,69,6,0:0:0:0:
102,308,187734,2,0,P|124:291|158:287,1,56,2|0,0:0|0:0,0:0:0:0:
254,343,187968,1,0,0:0:0:0:
243,356,188086,6,0,L|219:241,1,112,2|4,0:0|0:0,0:0:0:0:
258,180,188437,2,0,P|290:191|313:217,1,56,2|0,0:2|0:0,0:0:0:0:
114,147,188672,69,2,0:2:0:0:
148,81,188789,2,0,P|179:58|237:61,1,83.9999974365235,4|0,0:0|0:0,0:0:0:0:
0,26,189023,6,0,L|20:167,1,125.999996154785,2|0,0:0|0:0,0:0:0:0:
180,177,189258,70,0,P|99:189|40:247,1,167.999994873047,6|0,0:2|0:0,0:0:0:0:
29,323,189609,5,2,3:0:0:0:
37,337,189726,1,4,0:0:0:0:
113,329,189843,69,0,3:0:0:0:
146,251,189961,2,0,P|161:278|209:298,1,70,2|0,0:0|0:0,0:0:0:0:
302,130,190195,5,6,0:0:0:0:
218,225,190312,2,0,B|242:196|275:198|275:198|307:220,1,105,2|0,0:0|0:0,0:0:0:0:
315,227,190547,2,0,B|347:248|347:248|380:251|404:222,1,105,2|0,0:0|0:0,0:0:0:0:
413,213,190781,2,0,B|431:179|416:150|416:150|385:127,1,105,2|0,0:0|0:0,0:0:0:0:
376,121,191015,69,2,0:0:0:0:
330,62,191133,2,0,P|351:10|452:59,1,167.999994873047,4|0,0:0|0:0,0:0:0:0:
493,84,191484,5,2,3:0:0:0:
451,142,191601,1,4,0:0:0:0:
499,91,191718,69,0,3:0:0:0:
476,220,191836,2,0,L|342:199,1,112,2|0,0:0|0:0,0:0:0:0:
210,130,192070,5,6,0:0:0:0:
294,225,192187,2,0,B|269:196|236:198|236:198|204:220,1,105,2|0,0:0|0:0,0:0:0:0:
197,227,192422,2,0,B|164:248|164:248|131:251|107:222,1,105,2|0,0:0|0:0,0:0:0:0:
99,213,192656,69,0,3:0:0:0:
44,264,192773,2,0,P|21:214|42:163,1,112,2|0,0:0|0:0,0:0:0:0:
162,9,193008,6,0,L|223:24,5,48.9999985046387,2|0|0|0|0|0,0:0|0:0|0:0|0:0|0:0|0:0,0:0:0:0:
150,5,193359,2,0,B|167:133,1,97.9999970092774,2|4,0:0|0:0,0:0:0:0:
172,184,193593,69,2,0:2:0:0:
279,126,193711,6,0,L|218:141,5,48.9999985046387,2|0|0|0|4|0,0:0|0:0|0:0|0:0|0:0|0:0,0:0:0:0:
291,122,194062,2,0,B|274:250,1,97.9999970092774,2|0,0:0|0:0,0:0:0:0:
267,297,194297,69,2,3:2:0:0:
188,341,194414,1,6,0:2:0:0:
271,308,194531,5,2,3:2:0:0:
184,330,194648,1,2,0:2:0:0:
272,320,194765,69,2,3:2:0:0:
183,318,194883,2,0,B|226:323|251:281|251:281|274:242|324:248,1,167.999994873047,6|0,0:2|0:0,0:0:0:0:
335,254,195117,1,0,0:0:0:0:
411,247,195234,6,0,P|393:203|345:177,1,83.9999974365235,2|4,0:2|0:0,0:0:0:0:
311,37,195468,2,0,P|267:54|241:102,1,83.9999974365235,2|0,0:2|0:0,0:0:0:0:
101,137,195703,2,0,P|118:180|166:206,1,83.9999974365235,2|4,0:2|0:0,0:0:0:0:
201,347,195937,69,2,0:2:0:0:
265,300,196054,1,0,0:0:0:0:
270,220,196172,6,2,P|250:195|250:163,1,62.9999980773926,2|0,0:2|0:0,0:0:0:0:
239,195,196289,2,2,P|234:163|250:135,1,56,2|2,0:2|0:2,0:0:0:0:
221,162,196406,2,2,P|231:135|252:118,1,48.9999985046387,2|2,0:2|0:2,0:0:0:0:
219,129,196523,2,2,P|237:113|260:107,1,41.9999987182618,2|2,0:2|0:2,0:0:0:0:
231,99,196640,2,2,P|251:94|272:97,1,35,2|2,0:2|0:2,0:0:0:0:
316,146,196758,22,0,L|411:134,1,70,6|0,0:0|0:0,0:0:0:0:
512,99,196992,1,2,0:0:0:0:
438,85,197109,1,2,0:0:0:0:
463,157,197226,1,6,0:0:0:0:
471,112,197343,1,2,0:0:0:0:
316,146,197578,70,0,P|347:161|368:190,1,70,2|4,0:0|0:0,0:0:0:0:
412,257,197812,2,0,P|442:219|444:171,1,97.9999970092774,2|0,0:0|0:0,0:0:0:0:
350,305,198047,6,0,B|307:290|275:325|275:325|244:359|196:342,1,167.999994873047,2|0,0:0|0:0,0:0:0:0:
46,262,198398,1,2,0:0:0:0:
162,235,198515,1,2,0:0:0:0:
129,349,198633,1,6,0:0:0:0:
112,281,198749,1,2,0:0:0:0:
282,203,198984,69,2,0:0:0:0:
231,250,199101,1,6,0:0:0:0:
214,183,199219,1,2,0:0:0:0:
352,191,199453,6,0,P|388:191|437:224,1,70,2|4,0:0|0:0,0:0:0:0:
301,126,199687,2,0,P|325:84|367:61,1,97.9999970092774,2|0,0:0|0:0,0:0:0:0:
207,81,199922,70,0,P|206:123|228:158,1,83.9999974365235,2|4,0:0|0:0,0:0:0:0:
352,191,200156,1,2,0:0:0:0:
79,332,200390,5,2,0:0:0:0:
119,272,200508,2,0,P|170:241|326:265,1,210,6|0,0:0|0:0,0:0:0:0:
468,342,200976,1,6,0:0:0:0:
352,369,201093,1,2,0:0:0:0:
385,255,201211,1,2,0:0:0:0:
402,323,201327,1,2,0:0:0:0:
426,194,201562,69,2,0:0:0:0:
326,89,201797,5,2,0:0:0:0:
311,156,201914,1,6,0:0:0:0:
378,137,202032,1,2,0:0:0:0:
57,89,202265,69,2,0:0:0:0:
124,115,202383,2,0,P|140:143|139:183,1,70,6|0,0:1|0:0,0:0:0:0:
8,283,202617,5,2,0:0:0:0:
53,228,202734,2,0,P|102:212|202:255,1,140,2|0,0:1|0:0,0:0:0:0:
251,215,203086,69,2,0:0:0:0:
235,285,203203,2,0,P|248:318|281:339,1,70,2|4,0:1|0:0,0:0:0:0:
414,290,203437,2,0,P|425:257|453:236,2,70,2|0|0,0:0|0:0|0:0,0:0:0:0:
359,341,203789,69,6,0:0:0:0:
340,307,203867,69,2,0:0:0:0:
333,269,203945,5,2,0:0:0:0:
338,230,204023,69,2,0:0:0:0:
355,196,204101,5,2,0:0:0:0:
383,169,204179,69,2,0:0:0:0:
417,152,204258,6,0,P|452:171|515:157,2,97.9999970092774,6|0|0,0:1|0:0|0:0,0:0:0:0:
369,89,204609,69,2,0:1:0:0:
391,46,204726,1,6,0:0:0:0:
380,0,204843,1,2,0:0:0:0:
308,136,204961,6,0,P|272:116|209:130,2,97.9999970092774,2|2|6,0:1|0:0|0:0,0:0:0:0:
354,198,205313,69,2,0:1:0:0:
333,240,205430,1,2,0:0:0:0:
343,287,205547,1,2,0:0:0:0:
417,152,205664,5,6,0:1:0:0:
369,89,205781,1,2,0:0:0:0:
308,136,205898,1,2,0:1:0:0:
354,198,206015,1,2,0:0:0:0:
417,152,206133,69,6,0:1:0:0:
435,199,206250,1,2,0:0:0:0:
414,246,206367,1,2,0:0:0:0:
476,367,206484,5,2,0:1:0:0:
425,359,206601,1,6,0:0:0:0:
395,317,206718,1,2,0:0:0:0:
260,310,206836,69,2,0:1:0:0:
292,269,206953,1,2,0:0:0:0:
343,264,207070,1,6,0:0:0:0:
343,264,207304,37,2,0:1:0:0:
264,166,207422,2,0,P|216:162|174:185,1,97.9999970092774,2|4,0:0|0:0,0:0:0:0:
72,226,207656,2,0,P|118:239|149:276,1,97.9999970092774,2|0,0:0|0:0,0:0:0:0:
162,365,207890,1,2,0:0:0:0:
170,348,208008,69,6,0:0:0:0:
269,244,208242,1,2,0:0:0:0:
290,332,208359,1,2,0:0:0:0:
274,237,208476,1,6,0:0:0:0:
402,367,208711,5,2,0:0:0:0:
433,232,208828,2,0,P|446:265|449:300,1,70,2|4,0:0|0:0,0:0:0:0:
402,367,209062,70,0,L|308:352,1,70,2|0,0:0|0:0,0:0:0:0:
209,313,209297,2,0,L|224:407,1,70,2|4,0:0|0:0,0:0:0:0:
26,321,209531,2,0,P|95:268|167:279,1,140,2|0,0:0|0:0,0:0:0:0:
209,313,209883,5,6,0:1:0:0:
214,235,210000,2,0,B|249:238|249:238|266:257|266:257|301:260,1,97.9999970092774,0|0,0:0|0:0,0:0:0:0:
405,235,210234,69,6,0:1:0:0:
407,158,210351,2,0,B|366:161|366:161|347:183|347:183|306:187,1,112,0|0,0:0|0:0,0:0:0:0:
204,157,210586,5,6,0:1:0:0:
195,80,210703,2,0,B|241:84|241:84|262:109|262:109|308:113,1,125.999996154785,0|0,0:0|0:0,0:0:0:0:
418,81,210937,69,6,0:1:0:0:
431,2,211054,2,0,B|379:6|379:6|356:34|356:34|305:38,1,140,0|0,0:0|0:0,0:0:0:0:
305,187,211289,6,0,L|315:268,1,59.5000011348725,2|2,0:0|0:0,0:0:0:0:
242,250,211406,2,0,L|236:202,1,48.9999985046387,2|2,0:0|0:0,0:0:0:0:
166,217,211523,2,0,L|172:265,1,38.5000011749268,2|2,0:0|0:0,0:0:0:0:
100,260,211640,2,0,L|96:232,1,28,2|2,0:0|0:0,0:0:0:0:
24,262,211758,70,0,B|56:243|90:268|90:268|90:312|127:329,1,146.999995513916,6|0,0:0|0:0,0:0:0:0:
139,331,211992,5,2,0:0:0:0:
272,349,212109,2,0,P|238:347|209:365,1,70,0|4,0:1|0:0,0:0:0:0:
489,252,212343,70,0,P|507:222|507:142,1,97.9999970092774,2|0,0:1|0:0,0:0:0:0:
299,283,212578,2,0,P|269:264|189:265,1,83.9999974365235,2|4,0:1|0:0,0:0:0:0:
420,230,212812,2,0,P|421:201|387:144,1,70,2|0,0:1|0:0,0:0:0:0:
268,167,213047,6,0,P|330:201|346:228,1,84,2|0,0:1|0:0,0:0:0:0:
343,221,213281,69,2,0:0:0:0:
407,90,213398,2,0,P|343:122|333:142,1,70,2|0,0:1|0:0,0:0:0:0:
234,282,213633,6,0,B|186:298|155:265|155:265|123:230|81:245,1,167.999994873047,6|0,0:0|0:0,0:0:0:0:
70,249,213867,69,2,0:0:0:0:
42,90,213984,2,0,P|75:142|111:154,1,70,2|4,0:1|0:0,0:0:0:0:
244,56,214218,6,0,P|201:78|178:121,1,97.9999970092774,2|0,0:1|0:0,0:0:0:0:
144,365,214453,2,0,P|165:321|158:273,1,83.9999974365235,2|4,0:1|0:0,0:0:0:0:
2,248,214687,2,0,P|49:254|93:234,1,70,2|0,0:1|0:0,0:0:0:0:
341,183,214922,70,0,B|345:226|310:249|310:249|278:206|230:209,1,168,6|0,0:1|0:0,0:0:0:0:
221,214,215156,5,2,0:0:0:0:
292,317,215273,2,0,P|348:310|379:272,1,83.9999974365235,2|0,0:1|0:0,0:0:0:0:
512,104,215508,70,0,P|454:78|398:141,1,146.999995513916,6|0,0:1|0:0,0:0:0:0:
403,140,215742,5,2,0:0:0:0:
341,62,215859,2,0,P|311:44|277:47,1,70,2|4,0:1|0:0,0:0:0:0:
0,220,216093,70,0,P|42:199|66:157,1,97.9999970092774,2|0,0:1|0:0,0:0:0:0:
252,120,216328,2,0,P|289:138|313:173,1,83.9999974365235,2|4,0:1|0:0,0:0:0:0:
136,185,216562,2,0,P|138:219|125:251,1,70,2|0,0:1|0:0,0:0:0:0:
254,266,216797,6,0,P|246:225|221:191,1,84,2|0,0:1|0:0,0:0:0:0:
211,186,217031,1,2,0:0:0:0:
185,300,217148,69,2,0:0:0:0:
182,314,217265,1,2,0:0:0:0:
230,382,217383,6,0,P|285:310|488:298,2,293.999991027832,6|2|2,0:1|0:1|0:1,0:0:0:0:
136,235,218320,69,4,0:0:0:0:
123,238,218437,1,2,0:0:0:0:
20,146,218672,5,2,0:0:0:0:
91,159,218789,2,0,L|149:166,1,41.9999987182618,4|0,0:0|0:0,0:0:0:0:
258,76,219023,70,0,L|147:90,1,112,2|0,0:1|0:0,0:0:0:0:
93,304,219258,6,0,B|142:321|179:280|179:280|215:241|272:260,1,195.999994018555,6|0,0:0|0:0,0:0:0:0:
398,314,219609,69,2,0:0:0:0:
347,363,219726,2,0,P|330:336|332:288,1,56,2|0,0:0|0:0,0:0:0:0:
383,201,219961,5,2,0:0:0:0:
500,217,220078,2,0,P|503:251|491:283,1,70,2|4,0:1|0:0,0:0:0:0:
370,126,220312,2,0,P|417:136|444:157,1,83.9999974365235,2|0,0:0|0:0,0:0:0:0:
184,187,220547,2,0,P|208:144|332:93,1,146.999995513916,2|0,0:0|0:0,0:0:0:0:
299,101,220781,69,2,0:0:0:0:
360,32,220898,2,0,L|232:10,1,97.9999970092774,2|0,0:1|0:0,0:0:0:0:
164,255,221133,6,0,B|205:268|233:240|233:240|261:209|297:222,1,146.999995513916,6|0,0:1|0:0,0:0:0:0:
305,231,221367,69,0,0:1:0:0:
399,369,221484,2,0,P|363:332|378:258,1,105,2|0,0:1|0:0,0:0:0:0:
368,271,221718,2,0,P|418:258|474:308,1,105,2|0,0:1|0:0,0:0:0:0:
468,295,221953,6,0,P|464:356|388:365,2,125.999996154785,2|2|2,0:1|0:0|0:0,0:0:0:0:
370,191,222539,70,0,P|370:152|388:119,1,77.0000023498536,6|0,0:1|0:0,0:0:0:0:
252,163,222773,2,0,P|275:212|308:231,1,90.9999958343508,2|0,0:0|0:0,0:0:0:0:
441,74,223008,69,2,0:1:0:0:
71,74,223359,69,2,0:0:0:0:
388,28,223711,5,2,0:1:0:0:
124,28,224062,69,2,0:0:0:0:
274,100,224297,5,2,0:0:0:0:
256,44,224414,1,2,0:0:0:0:
237,99,224531,1,2,0:0:0:0:
285,66,224648,1,2,0:0:0:0:
227,65,224765,1,2,0:0:0:0:
256,77,224883,69,2,0:0:0:0:
179,145,225117,5,2,0:0:0:0:
176,161,225234,2,0,L|164:240,1,70,2|2,3:0|3:0,0:0:0:0:
336,161,225703,2,0,L|348:240,1,70,2|2,3:0|3:0,0:0:0:0:
256,341,226172,70,0,L|225:353,1,28,2|2,0:0|0:0,0:0:0:0:
226,318,226289,2,0,L|205:292,1,28,2|2,0:0|0:0,0:0:0:0:
237,284,226406,2,0,L|255:256,1,28,2|2,0:0|0:0,0:0:0:0:
274,285,226523,2,0,L|306:293,1,28,2|2,0:0|0:0,0:0:0:0:
284,319,226640,2,0,L|285:352,1,28,2|2,0:0|0:0,0:0:0:0:
255,307,226758,69,4,0:1:0:0:
438,356,227510,1,2,0:0:0:0:
411,254,227760,69,2,0:0:0:0:
409,287,227885,1,2,0:0:0:0:
403,252,228010,1,2,0:0:0:0:
401,285,228135,1,2,0:0:0:0:
356,197,228385,5,2,0:0:0:0:
460,205,228635,1,2,0:0:0:0:
147,153,229783,69,2,0:0:0:0:
149,120,229930,1,2,0:0:0:0:
107,211,230224,5,2,0:0:0:0:
124,54,230506,1,2,0:0:0:0:
251,147,230911,1,2,0:0:0:0:
155,291,231721,69,2,0:0:0:0:
122,295,231822,1,2,0:0:0:0:
210,337,232049,5,2,0:0:0:0:
278,349,232384,69,2,0:0:0:0:
346,361,232786,5,2,0:0:0:0:
414,373,233191,69,4,0:1:0:0:
330,78,235615,53,2,0:0:0:0:
334,45,235728,1,0,0:0:0:0:
