osu file format v14

[General]
AudioFilename: audio.mp3
AudioLeadIn: 0
PreviewTime: 16291
Countdown: 0
SampleSet: None
StackLeniency: 0.3
Mode: 0
LetterboxInBreaks: 0
WidescreenStoryboard: 1

[Editor]
Bookmarks: 16758,31758,46758,54258,61763,69258,76758,91758,106758,114258,121758,136758,151758,166758,181755,196758,211758,226760
DistanceSpacing: 0.8
BeatDivisor: 8
GridSize: 8
TimelineZoom: 1.7

[Metadata]
Title:Soleil
TitleUnicode:Soleil
Artist:Powerless
ArtistUnicode:Powerless
Creator:Smokeman
Version:Smokeman_83 collab
Source:
Tags:AD AD: House 04 house modhelp mapping contest 3.5 mmc imbor bor b0r _83
BeatmapID:1523215
BeatmapSetID:721371

[Difficulty]
HPDrainRate:6
CircleSize:4
OverallDifficulty:8
ApproachRate:8.8
SliderMultiplier:2.17
SliderTickRate:1

[Events]
//Background and Video events
0,0,"cityscape 1920.jpg",0,0
//Break Periods
//Storyboard Layer 0 (Background)
//Storyboard Layer 1 (Fail)
//Storyboard Layer 2 (Pass)
//Storyboard Layer 3 (Foreground)
//Storyboard Sound Samples

[TimingPoints]
1758,468.75,4,2,9,50,1,0
1758,-100,4,2,9,50,0,0
1992,-250,4,2,9,30,0,0
2109,-250,4,2,9,50,0,0
2226,-250,4,2,9,6,0,0
2343,-250,4,2,9,50,0,0
2695,-250,4,2,9,6,0,0
2812,-250,4,2,9,50,0,0
2929,-250,4,2,9,6,0,0
3047,-250,4,2,9,50,0,0
3633,-100,4,2,9,50,0,0
3867,-100,4,2,9,30,0,0
3984,-250,4,2,9,50,0,0
4101,-250,4,2,9,6,0,0
4218,-250,4,2,9,50,0,0
4453,-250,4,2,9,50,0,0
4570,-250,4,2,9,6,0,0
4687,-250,4,2,9,50,0,0
4804,-250,4,2,9,6,0,0
4922,-250,4,2,9,50,0,0
5508,-100,4,2,9,50,0,0
5742,-100,4,2,9,30,0,0
5859,-250,4,2,9,50,0,0
5976,-250,4,2,9,6,0,0
6093,-250,4,2,9,50,0,0
6445,-250,4,2,9,6,0,0
6562,-250,4,2,9,50,0,0
6679,-250,4,2,9,6,0,0
6797,-250,4,2,9,50,0,0
7383,-100,4,2,9,50,0,0
7617,-100,4,2,9,30,0,0
7734,-250,4,2,9,50,0,0
7851,-250,4,2,9,6,0,0
7968,-250,4,2,9,50,0,0
8320,-250,4,2,9,6,0,0
8437,-250,4,2,9,50,0,0
8554,-250,4,2,9,6,0,0
8672,-250,4,2,9,50,0,0
9258,-100,4,2,9,55,0,0
11133,-100,4,2,7,55,0,0
11367,-100,4,2,9,55,0,0
13008,-100,4,2,7,55,0,0
13242,-100,4,2,9,55,0,0
16523,-55.5555555555556,4,2,9,50,0,0
16758,-76.9230769230769,4,2,1,65,0,0
31289,-100,4,2,9,65,0,0
31758,-71.4285714285714,4,2,1,65,0,0
31992,-76.9230769230769,4,2,1,65,0,0
39258,-71.4285714285714,4,2,1,65,0,0
39492,-76.9230769230769,4,2,1,65,0,0
45234,-76.9230769230769,4,2,9,65,0,0
46172,-62.5,4,2,9,65,0,0
46758,-100,4,2,3,45,0,0
53086,500,4,2,3,45,1,0
53586,468.75,4,2,3,45,1,0
53742,521.739130434783,4,2,3,45,1,0
54263,468.75,4,2,3,45,1,0
76177,-62.5,4,2,9,50,0,0
76758,-76.9230769230769,4,2,1,65,0,0
91289,-100,4,2,1,65,0,0
91758,-71.4285714285714,4,2,1,65,0,0
91997,-76.9230769230769,4,2,1,65,0,0
99263,-71.4285714285714,4,2,1,65,0,0
99497,-76.9230769230769,4,2,1,65,0,0
105239,-76.9230769230769,4,2,9,65,0,0
106177,-62.5,4,2,9,65,0,0
106758,-133.333333333333,4,2,9,40,0,0
113325,375,4,2,9,40,1,0
113418,428.571428571429,4,2,9,40,1,0
113632,468.75,4,2,9,40,1,0
113788,555.555555555556,4,2,9,40,1,0
113973,489.795918367347,4,2,9,40,1,0
114023,-100,4,2,9,40,0,0
114258,468.75,4,2,9,40,1,0
114258,-125,4,2,9,45,0,0
118008,-100,4,2,3,50,0,0
121640,-100,4,2,3,50,0,0
121758,-100,4,2,3,45,0,0
123398,491.803278688525,4,2,3,45,1,0
123561,461.538461538462,4,2,3,45,1,0
124253,451.127819548872,4,2,3,45,1,0
124854,504.201680672269,4,2,3,45,1,0
125190,468.75,4,2,3,45,1,0
125502,468.75,4,2,3,45,1,0
127962,454.545454545455,4,2,3,45,1,0
128302,486.61800486618,4,2,3,45,1,0
128666,468.75,4,2,3,45,1,0
129251,468.75,4,2,3,45,1,0
131204,454.545454545455,4,2,3,45,1,0
131431,508.474576271186,4,2,3,45,1,0
131600,468.75,4,2,3,45,1,0
131912,441.176470588235,4,2,3,45,1,0
132059,500,4,2,3,45,1,0
132225,468.75,4,2,3,45,1,0
132537,468.75,4,2,3,45,1,0
136523,-100,4,2,3,40,0,0
136755,468.75,4,2,9,50,1,0
136755,-100,4,2,3,55,0,0
144255,-100,4,2,3,55,0,0
147068,-100,4,2,3,40,0,0
147302,-100,4,2,3,45,0,0
147537,-100,4,2,3,50,0,0
147771,-100,4,2,3,60,0,0
148005,-100,4,2,3,55,0,0
151758,-100,4,2,9,50,0,0
152576,-200,4,2,9,50,0,0
153630,-100,4,2,9,50,0,0
154451,-200,4,2,9,50,0,0
155505,-100,4,2,9,50,0,0
156326,-200,4,2,9,50,0,0
158200,-100,4,2,9,50,0,0
159258,-100,4,2,9,55,0,0
161130,-100,4,2,7,55,0,0
161365,-100,4,2,9,55,0,0
163005,-100,4,2,7,55,0,0
163357,-100,4,2,9,55,0,0
166521,-55.5555555555556,4,2,9,50,0,0
166755,-71.4285714285714,4,2,9,50,0,0
166990,-76.9230769230769,4,2,1,65,0,0
181287,-100,4,2,1,65,0,0
181755,-71.4285714285714,4,2,1,65,0,0
181992,-76.9230769230769,4,2,1,65,0,0
196169,-62.5,4,2,9,65,0,0
196755,-83.3333333333333,4,2,3,65,0,1
209880,-83.3333333333333,4,2,3,50,0,1
210231,-83.3333333333333,4,2,3,50,0,0
210348,-83.3333333333333,4,2,3,55,0,1
210583,-83.3333333333333,4,2,3,55,0,0
210700,-83.3333333333333,4,2,3,60,0,1
210934,-83.3333333333333,4,2,3,60,0,0
211051,-83.3333333333333,4,2,3,70,0,1
211286,-58.8235294117647,4,2,3,65,0,0
211755,-71.4285714285714,4,2,3,70,0,1
214919,-50,4,2,3,70,0,1
215505,-71.4285714285714,4,2,3,70,0,1
221130,-50,4,2,3,70,0,1
221951,-71.4285714285714,4,2,3,70,0,1
222537,-58.8235294117647,4,2,3,70,0,1
223005,-50,4,2,3,75,0,1
226760,500,4,2,3,75,1,0
227510,-100,4,2,3,35,0,0
228760,555.555555555556,4,2,3,35,1,0
229037,540.540540540541,4,2,3,35,1,0
229307,476.190476190476,4,2,3,35,1,0
229783,588.235294117647,4,2,3,35,1,0
230371,540.540540540541,4,2,3,35,1,0
230911,576.923076923077,4,2,3,35,1,0
231487,468.75,4,2,3,35,1,0
231721,405.405405405405,4,2,3,35,1,0
231822,454.545454545455,4,2,3,35,1,0
232049,670.391061452514,4,2,3,45,1,0
232384,805.369127516779,4,2,3,35,1,0
232786,810.810810810811,4,2,3,35,1,0
233191,606.060606060606,4,2,3,35,1,0
235615,-100,4,2,3,30,0,0

[Colours]
Combo1 : 101,224,241
Combo2 : 243,204,86
Combo3 : 200,238,68
Combo4 : 255,186,104

[HitObjects]
13,190,1758,6,0,P|63:205|119:188,1,108.5,4|0,0:1|0:0,0:0:0:0:
194,157,2109,2,0,L|190:180,1,21.7,2|0,0:0|0:0,0:0:0:0:
272,197,2343,1,0,0:0:0:0:
349,270,2578,6,0,L|345:247,1,21.7,2|0,0:0|0:0,0:0:0:0:
418,225,2812,2,0,L|414:202,1,21.7,2|0,0:0|0:0,0:0:0:0:
487,180,3047,2,0,L|479:134,1,43.4,10|0,0:0|0:0,0:0:0:0:
508,68,3398,1,10,0:0:0:0:
432,310,3633,6,0,L|413:202,1,108.5,4|0,0:0|0:0,0:0:0:0:
354,116,3984,2,0,L|350:139,1,21.7,2|0,0:0|0:0,0:0:0:0:
285,71,4218,1,0,0:0:0:0:
174,60,4453,6,0,L|178:83,1,21.7,2|0,0:0|0:0,0:0:0:0:
105,105,4687,2,0,L|109:128,1,21.7,2|0,0:0|0:0,0:0:0:0:
36,150,4922,2,0,L|43:192,1,43.4,10|0,0:0|0:0,0:0:0:0:
89,251,5273,1,10,0:0:0:0:
196,351,5508,6,0,L|215:241,1,108.5,4|0,0:0|0:0,0:0:0:0:
334,181,5859,2,0,L|338:204,1,21.7,2|0,0:0|0:0,0:0:0:0:
403,136,6093,1,0,0:0:0:0:
352,334,6328,6,0,L|356:311,1,21.7,2|0,0:0|0:0,0:0:0:0:
283,289,6562,2,0,L|287:266,1,21.7,2|0,0:0|0:0,0:0:0:0:
214,244,6797,2,0,L|223:189,1,43.4,10|0,0:0|0:0,0:0:0:0:
268,133,7148,1,10,0:0:0:0:
441,223,7383,6,0,L|460:329,1,108.5,4|0,0:0|0:0,0:0:0:0:
475,124,7734,2,0,L|471:102,1,21.7,2|0,0:0|0:0,0:0:0:0:
403,148,7968,1,0,0:0:0:0:
268,133,8203,6,0,L|264:156,1,21.7,2|0,0:0|0:0,0:0:0:0:
199,88,8437,2,0,L|195:111,1,21.7,2|0,0:0|0:0,0:0:0:0:
103,192,8672,2,0,L|112:144,1,43.4,10|0,0:0|0:0,0:0:0:0:
20,78,9023,2,0,L|23:99,1,21.7,10|0,0:0|0:0,0:0:0:0:
72,311,9258,6,0,P|125:284|206:285,1,108.5,4|0,0:1|0:0,0:0:0:0:
244,308,9609,1,8,0:0:0:0:
501,268,9961,1,10,0:0:0:0:
169,320,10429,1,0,0:0:0:0:
244,308,10547,1,8,0:0:0:0:
381,357,10898,1,10,0:0:0:0:
316,191,11133,6,0,P|336:116|372:88,1,108.5,4|0,0:0|0:0,0:0:0:0:
434,77,11484,1,8,0:0:0:0:
183,11,11836,1,10,0:0:0:0:
512,97,12304,1,0,0:0:0:0:
434,77,12422,1,8,0:0:0:0:
316,191,12773,1,10,0:0:0:0:
198,305,13008,6,0,P|163:264|99:238,1,108.5,4|0,0:0|0:0,0:0:0:0:
67,305,13359,1,8,0:0:0:0:
359,289,13711,1,10,0:0:0:0:
67,305,14179,1,0,0:0:0:0:
98,377,14297,1,8,0:0:0:0:
216,207,14648,1,10,0:0:0:0:
105,50,14883,5,2,0:3:0:0:
64,95,15000,1,2,0:3:0:0:
56,155,15117,1,2,0:3:0:0:
81,210,15234,1,2,0:3:0:0:
302,64,15468,1,2,0:3:0:0:
293,10,15586,1,6,0:3:0:0:
361,127,16523,6,0,P|384:151|395:179,1,48.8249985099793,0|0,0:0|0:0,0:0:0:0:
364,144,16640,2,0,P|371:176|367:206,1,48.8249985099793,0|0,0:0|0:0,0:0:0:0:
330,271,16758,6,0,P|385:228|454:223,1,141.049993543244,4|0,0:1|0:0,0:0:0:0:
498,325,17109,1,2,0:0:0:0:
448,355,17226,2,0,L|305:324,1,141.049993543244,8|0,0:0|0:0,0:0:0:0:
79,315,17695,5,2,0:0:0:0:
48,358,17812,1,0,0:0:0:0:
97,211,18047,6,0,P|86:155|25:116,1,70.5249967716219,0|8,0:0|0:0,0:0:0:0:
3,274,18281,2,0,L|124:296,1,70.5249967716219,0|0,0:0|0:0,0:0:0:0:
191,327,18515,6,0,P|254:291|207:356,1,211.574990314866,4|0,0:0|0:0,0:0:0:0:
229,323,18984,1,2,0:0:0:0:
266,277,19101,1,8,0:0:0:0:
266,277,19336,6,0,P|279:195|265:168,1,70.5249967716219,2|0,0:0|0:0,0:0:0:0:
212,88,19570,1,2,0:0:0:0:
231,33,19687,1,0,0:0:0:0:
410,103,19922,6,0,P|462:88|514:94,1,70.5249967716219,0|8,0:0|0:0,0:0:0:0:
474,175,20156,2,0,P|446:225|417:314,1,141.049993543244,2|0,0:0|0:0,0:0:0:0:
503,379,20508,6,0,P|449:315|360:332,1,141.049993543244,2|0,0:0|0:0,0:0:0:0:
255,376,20859,1,2,0:0:0:0:
215,341,20976,1,8,0:0:0:0:
215,341,21211,6,0,P|177:351|149:364,1,70.5249967716219,0|0,0:0|0:0,0:0:0:0:
49,303,21445,1,2,0:0:0:0:
73,257,21562,2,0,P|70:220|49:156,1,70.5249967716219,0|0,0:0|0:0,0:0:0:0:
0,136,21797,6,0,P|45:148|136:87,1,141.049993543244,8|0,0:0|0:0,0:0:0:0:
148,36,22148,2,0,P|117:11|75:-4,1,70.5249967716219,8|0,0:0|0:0,0:0:0:0:
83,93,22383,6,0,P|119:156|192:170,1,141.049993543244,4|0,0:0|0:0,0:0:0:0:
285,150,22734,2,0,P|343:155|395:184,1,70.5249967716219,4|8,0:0|0:0,0:0:0:0:
271,271,22968,1,0,0:0:0:0:
271,271,23086,2,0,L|256:351,1,70.5249967716219,4|0,0:0|0:0,0:0:0:0:
258,340,23320,6,0,P|337:354|336:242,1,211.574990314866,6|0,0:0|0:0,0:0:0:0:
383,358,23789,2,0,P|426:367|472:385,1,70.5249967716219,8|0,0:0|0:0,0:0:0:0:
512,250,24023,2,0,P|488:216|469:162,1,70.5249967716219,4|0,0:0|0:0,0:0:0:0:
501,47,24258,6,0,P|502:118|422:172,1,141.049993543244,4|0,0:0|0:0,0:0:0:0:
314,78,24609,1,2,0:0:0:0:
283,33,24726,2,0,L|112:59,1,141.049993543244,8|0,0:0|0:0,0:0:0:0:
10,238,25195,5,2,0:0:0:0:
65,226,25312,1,0,0:0:0:0:
202,365,25547,2,0,P|172:355|116:346,1,70.5249967716219,0|8,0:0|0:0,0:0:0:0:
256,307,25781,2,0,P|288:307|330:293,1,70.5249967716219,0|0,0:0|0:0,0:0:0:0:
160,222,26015,6,0,P|107:298|186:275,1,211.574990314866,4|0,0:0|0:0,0:0:0:0:
141,263,26484,1,2,0:0:0:0:
94,288,26601,1,8,0:0:0:0:
94,288,26836,6,0,P|80:320|81:369,1,70.5249967716219,2|0,0:0|0:0,0:0:0:0:
251,384,27070,1,2,0:0:0:0:
301,376,27187,1,0,0:0:0:0:
316,218,27422,6,0,P|335:189|378:158,1,70.5249967716219,0|8,0:0|0:0,0:0:0:0:
450,128,27656,1,0,0:0:0:0:
490,90,27773,2,0,P|490:55|468:8,1,70.5249967716219,0|0,0:0|0:0,0:0:0:0:
316,12,28008,6,0,P|305:91|346:153,1,141.049993543244,6|0,0:0|0:0,0:0:0:0:
438,182,28359,1,2,0:0:0:0:
475,222,28476,1,8,0:0:0:0:
475,222,28711,6,0,P|492:267|492:317,1,70.5249967716219,6|0,0:0|0:0,0:0:0:0:
434,357,28945,1,6,0:0:0:0:
393,319,29062,2,0,L|294:329,1,70.5249967716219
206,283,29297,5,2,0:0:0:0:
172,328,29414,1,0,0:0:0:0:
128,292,29531,1,2,0:0:0:0:
94,337,29648,1,2,0:0:0:0:
49,303,29765,1,2,0:0:0:0:
15,349,29883,6,0,L|192:372,1,141.049993543244,4|0,0:0|0:0,0:0:0:0:
279,328,30234,1,0,0:0:0:0:
308,289,30351,2,0,P|308:253|274:205,1,70.5249967716219,8|0,0:0|0:0,0:0:0:0:
217,248,30586,2,0,L|92:241,1,70.5249967716219,2|0,0:0|0:0,0:0:0:0:
57,189,30820,5,2,0:0:0:0:
48,133,30937,1,2,0:3:0:0:
65,79,31054,1,2,0:3:0:0:
103,36,31172,1,2,0:3:0:0:
159,25,31289,6,0,L|225:36,2,36.1666666666667,0|0|0,0:0|0:0|0:0,0:0:0:0:
267,114,31523,2,0,L|232:120,2,36.1666666666667,0|0|0,0:0|0:0|0:0,0:0:0:0:
279,256,31758,6,0,L|307:107,1,151.89999536438,4|0,0:1|0:0,0:0:0:0:
438,52,32109,1,2,0:0:0:0:
451,68,32226,2,0,L|438:137,1,70.5249967716219,8|0,0:0|0:0,0:0:0:0:
408,8,32461,5,0,0:0:0:0:
431,295,32695,5,2,0:0:0:0:
376,278,32812,1,0,0:0:0:0:
156,220,33047,1,0,0:0:0:0:
211,237,33164,2,0,L|224:308,2,70.5249967716219,8|0|0,0:0|0:0|0:0,0:0:0:0:
169,144,33515,5,0,0:0:0:0:
224,161,33633,2,0,L|195:333,1,141.049993543244,4|0,0:0|0:0,0:0:0:0:
80,343,33984,1,2,0:0:0:0:
89,287,34101,1,8,0:0:0:0:
262,99,34336,6,0,B|286:145|276:206|238:237,1,141.049993543244,2|2,0:0|0:0,0:0:0:0:
143,102,34687,2,0,P|147:63|158:30,1,70.5249967716219,0|0,0:0|0:0,0:0:0:0:
366,49,34922,2,0,L|355:118,1,70.5249967716219,0|8,0:0|0:0,0:0:0:0:
267,167,35156,2,0,P|257:133|262:99,2,70.5249967716219,0|0|0,0:0|0:0|0:0,0:0:0:0:
452,342,35508,6,0,L|474:202,1,141.049993543244,2|0,0:0|0:0,0:0:0:0:
374,285,35859,1,2,0:0:0:0:
350,300,35976,2,0,L|280:311,2,70.5249967716219,8|0|0,0:0|0:0|0:0,0:0:0:0:
130,258,36445,5,2,0:0:0:0:
121,317,36562,1,0,0:0:0:0:
77,111,36797,1,0,0:0:0:0:
68,148,36914,2,0,P|143:161|181:72,1,141.049993543244,8|0,0:0|0:0,0:0:0:0:
436,61,37383,6,0,B|401:63|368:44|368:44|352:75|319:94,1,141.049993543244,4|0,0:0|0:0,0:0:0:0:
350,206,37734,2,0,B|385:204|418:223|418:223|434:192|467:173,1,141.049993543244,4|0,0:0|0:0,0:0:0:0:
426,348,38086,1,4,0:0:0:0:
407,335,38203,2,0,B|374:316|339:318,2,70.5249967716219,0|2|0,0:0|0:0|0:0,0:0:0:0:
270,254,38554,2,0,B|232:260|206:284,1,70.5249967716219,0|0,0:0|0:0,0:0:0:0:
169,353,38789,2,0,B|198:328|208:294,1,70.5249967716219,8|0,0:0|0:0,0:0:0:0:
183,185,39023,1,4,0:0:0:0:
53,139,39258,6,0,P|111:135|182:210,1,151.89999536438,4|0,0:1|0:0,0:0:0:0:
214,110,39609,1,2,0:0:0:0:
196,89,39726,2,0,P|166:70|130:60,1,70.5249967716219,8|0,0:0|0:0,0:0:0:0:
255,39,39961,5,0,0:0:0:0:
94,279,40195,5,2,0:0:0:0:
89,226,40312,1,0,0:0:0:0:
265,307,40547,1,0,0:0:0:0:
270,254,40664,2,0,P|279:212|291:183,2,70.5249967716219,8|0|0,0:0|0:0|0:0,0:0:0:0:
383,326,41015,1,0,0:0:0:0:
359,333,41133,6,0,P|352:264|386:204,1,141.049993543244,4|0,0:0|0:0,0:0:0:0:
473,101,41484,1,0,0:0:0:0:
468,154,41601,1,8,0:0:0:0:
262,46,41836,6,0,P|297:47|331:56,1,70.5249967716219,2|0,0:0|0:0,0:0:0:0:
468,154,42070,2,0,P|447:125|421:101,2,70.5249967716219,2|0|0,0:0|0:0|0:0,0:0:0:0:
386,204,42422,2,0,P|318:178|243:182,1,141.049993543244,8|0,0:0|0:0,0:0:0:0:
115,279,42773,2,0,P|133:249|158:224,1,70.5249967716219,8|0,0:0|0:0,0:0:0:0:
19,144,43008,6,0,B|-4:215|42:205|16:289,1,141.049993543244,4|0,0:0|0:0,0:0:0:0:
93,174,43359,2,0,P|100:139|90:105,1,70.5249967716219,0|8,0:0|0:0,0:0:0:0:
61,353,43711,6,0,B|117:379|117:379|249:360,1,141.049993543244,4|2,0:0|0:0,0:0:0:0:
276,342,44062,2,0,B|206:352,1,70.5249967716219
338,270,44297,1,2,0:0:0:0:
344,252,44414,2,0,B|274:262,1,70.5249967716219,8|0,0:0|0:0,0:0:0:0:
385,357,44648,2,0,B|454:346,1,70.5249967716219,4|0,0:0|0:0,0:0:0:0:
507,179,44883,6,0,B|451:153|451:153|319:172,1,141.049993543244,4|0,0:1|0:0,0:0:0:0:
204,93,45234,2,0,P|305:86|372:164,1,211.574990314866,2|0,0:0|0:0,0:0:0:0:
275,326,45820,1,2,0:3:0:0:
221,341,45937,1,2,0:3:0:0:
166,329,46054,1,2,0:3:0:0:
124,293,46172,6,0,P|125:251|130:238,1,43.4,2|0,0:0|0:0,0:0:0:0:
100,254,46289,6,0,P|119:243|140:239,1,43.4,2|0,0:0|0:0,0:0:0:0:
114,225,46406,6,0,P|136:226|156:232,1,43.4,2|0,0:0|0:0,0:0:0:0:
141,206,46523,22,0,P|159:218|173:234,1,43.4,2|0,0:0|0:0,0:0:0:0:
172,204,46640,6,0,P|182:224|186:245,1,43.4,2|2,0:0|0:0,0:0:0:0:
124,293,46758,6,0,P|61:273|-4:275,1,108.5,4|0,0:1|0:0,0:0:0:0:
10,149,47109,2,0,L|54:175,1,27.125,0|0,0:0|0:0,0:0:0:0:
47,172,47226,2,0,L|29:60,1,108.5,8|0,0:0|0:0,0:0:0:0:
123,11,47695,5,2,0:0:0:0:
123,11,47812,1,0,0:0:0:0:
123,11,47929,1,0,0:0:0:0:
188,57,48047,6,0,P|264:75|277:80,1,54.25,2|8,0:0|0:0,0:0:0:0:
272,87,48281,1,0,0:0:0:0:
350,51,48398,2,0,P|376:38|409:18,1,54.25,2|0,0:0|0:0,0:0:0:0:
460,85,48633,6,0,L|444:212,1,108.5,2|0,0:0|0:0,0:0:0:0:
481,271,48984,2,0,L|491:315,1,27.125,0|0,0:0|0:0,0:0:0:0:
490,317,49101,2,0,L|434:332,1,54.25,8|0,0:0|0:0,0:0:0:0:
370,384,49336,1,10,0:0:0:0:
308,253,49570,5,2,0:0:0:0:
238,285,49843,1,2,0:0:0:0:
203,356,50156,1,2,0:0:0:0:
249,295,50273,2,0,P|249:254|245:228,1,54.25,0|0,0:0|0:0,0:0:0:0:
191,173,50508,5,6,0:0:0:0:
10,220,50742,1,0,0:0:0:0:
67,163,50859,1,2,0:0:0:0:
146,164,51093,1,0,0:0:0:0:
219,131,51328,1,0,0:0:0:0:
219,131,51445,6,0,L|291:145,2,54.25,0|0|0,0:0|0:0|0:0,0:0:0:0:
178,57,51797,2,0,L|165:-4,1,54.25,0|8,0:0|0:0,0:0:0:0:
150,11,52031,2,0,L|84:25,1,54.25,2|0,0:0|0:0,0:0:0:0:
290,139,52383,6,0,L|413:165,1,108.5,2|0,0:0|0:0,0:0:0:0:
464,149,52734,2,0,L|395:154,1,54.25,0|8,0:0|0:0,0:0:0:0:
392,150,53086,2,0,L|345:154,1,27.125,2|0,0:0|0:0,0:0:0:0:
364,152,53336,5,10,0:0:0:0:
349,117,53461,1,2,0:0:0:0:
356,77,53586,1,2,0:0:0:0:
396,33,53742,1,2,0:0:0:0:
470,20,54002,1,2,0:0:0:0:
470,20,54263,5,4,0:0:0:0:
324,228,54614,2,0,L|374:219,1,27.125,0|0,0:0|0:0,0:0:0:0:
366,255,54731,2,0,L|243:244,1,108.5,8|0,0:0|0:0,0:0:0:0:
146,311,55200,5,2,0:0:0:0:
155,309,55317,1,0,0:0:0:0:
164,307,55434,1,0,0:0:0:0:
178,227,55552,6,0,P|153:221|124:216,1,54.25,2|8,0:0|0:0,0:0:0:0:
59,256,55786,1,0,0:0:0:0:
0,187,55903,2,0,P|24:181|53:176,1,54.25,2|0,0:0|0:0,0:0:0:0:
40,68,56138,6,0,L|157:91,1,108.5,6|0,0:0|0:0,0:0:0:0:
316,66,56489,2,0,L|326:110,1,27.125,0|0,0:0|0:0,0:0:0:0:
377,26,56606,2,0,L|324:40,1,54.25,8|0,0:0|0:0,0:0:0:0:
242,136,56841,1,2,0:0:0:0:
446,127,57075,6,0,L|393:141,1,54.25,2|0,0:0|0:0,0:0:0:0:
237,284,57427,2,0,P|264:274|290:268,1,54.25,2|8,0:0|0:0,0:0:0:0:
427,317,57661,2,0,P|400:304|374:301,1,54.25,2|0,0:0|0:0,0:0:0:0:
102,245,58013,6,0,B|85:303|119:290|100:353,1,108.5,6|0,0:0|0:0,0:0:0:0:
43,171,58364,1,0,0:0:0:0:
106,86,58598,1,0,0:0:0:0:
186,210,58833,1,2,0:0:0:0:
204,193,58950,6,0,L|211:139,2,54.25
294,266,59302,2,0,P|292:240|286:212,1,54.25,0|8,0:0|0:0,0:0:0:0:
295,84,59536,2,0,P|291:110|289:138,1,54.25,0|0,0:0|0:0,0:0:0:0:
232,325,59888,6,0,P|284:318|330:347,1,108.5,2|0,0:0|0:0,0:0:0:0:
451,274,60239,2,0,L|386:293,1,54.25,0|8,0:0|0:0,0:0:0:0:
303,344,60591,2,0,L|350:348,1,27.125,0|0,0:0|0:0,0:0:0:0:
330,346,60942,5,2,0:0:0:0:
383,182,61177,1,2,0:0:0:0:
243,80,61411,1,2,0:0:0:0:
251,54,61645,2,0,L|242:81,1,27.125,2|0,0:0|0:0,0:0:0:0:
230,115,61763,6,0,P|190:73|140:52,1,108.5,0|0,0:0|0:0,0:0:0:0:
123,71,62114,2,0,L|8:89,1,108.5,2|0,0:0|0:0,0:0:0:0:
0,70,62466,1,0,0:0:0:0:
15,217,62700,6,0,P|72:192|126:184,1,108.5,2|0,0:0|0:0,0:0:0:0:
196,213,63013,2,0,P|172:263|154:273,1,72.3333333333333,0|8,0:0|0:0,0:0:0:0:
91,281,63325,1,0,0:0:0:0:
188,103,63638,6,0,P|205:174|231:218,1,108.5,2|0,0:0|0:0,0:0:0:0:
298,236,63950,2,0,P|334:221|364:196,1,72.3333333333333,0|8,0:0|0:0,0:0:0:0:
420,109,64263,1,0,0:0:0:0:
420,109,64575,6,0,L|410:235,1,108.5,2|0,0:0|0:0,0:0:0:0:
409,321,64927,2,0,P|418:279|427:261,2,54.25,2|8|0,0:0|0:0|0:0,0:0:0:0:
475,369,65278,1,2,0:0:0:0:
375,343,65513,6,0,P|316:361|256:361,1,108.5,4|0,0:0|0:0,0:0:0:0:
212,300,65864,2,0,P|200:267|180:244,1,54.25,2|8,0:0|0:0,0:0:0:0:
136,325,66098,2,0,P|108:333|75:332,1,54.25,2|0,0:0|0:0,0:0:0:0:
56,311,66255,1,2,0:0:0:0:
56,311,66333,6,0,P|72:248|57:186,1,108.5,2|0,0:0|0:0,0:0:0:0:
11,142,66684,1,0,0:0:0:0:
97,8,66919,6,0,P|81:51|106:126,1,108.5,10|0,0:0|0:0,0:0:0:0:
268,123,67388,2,0,P|284:80|259:5,1,108.5,6|0,0:0|0:0,0:0:0:0:
247,7,67739,5,0,0:0:0:0:
232,88,67973,1,0,0:0:0:0:
232,88,68091,1,0,0:0:0:0:
403,0,68325,6,0,L|463:-5,1,54.25,2|0,0:0|0:0,0:0:0:0:
457,0,68559,1,0,0:0:0:0:
485,45,68677,1,0,0:0:0:0:
485,45,68911,5,0,0:0:0:0:
472,93,69028,1,0,0:0:0:0:
506,245,69263,6,0,P|491:300|502:356,1,108.5,2|0,0:0|0:0,0:0:0:0:
430,208,69614,2,0,P|408:285|419:368,1,162.75,2|8,0:0|0:0,0:0:0:0:
191,202,70200,6,0,P|246:216|289:254,1,108.5,2|0,0:0|0:0,0:0:0:0:
102,314,70552,2,0,P|153:289|210:290,1,108.5,2|0,0:0|0:0,0:0:0:0:
274,351,70903,1,8,0:0:0:0:
57,225,71138,6,0,P|68:278|69:332,1,108.5,2|0,0:0|0:0,0:0:0:0:
143,218,71489,1,0,0:0:0:0:
138,209,71606,2,0,P|131:182|126:155,1,54.25,8|0,0:0|0:0,0:0:0:0:
156,55,71841,1,2,0:0:0:0:
61,371,72075,6,0,P|68:278|57:225,1,108.5,2|0,0:0|0:0,0:0:0:0:
15,141,72427,2,0,P|19:114|26:87,2,54.25,0|8|0,0:0|0:0|0:0,0:0:0:0:
66,263,72778,2,0,P|61:236|54:209,1,54.25,2|0,0:0|0:0,0:0:0:0:
212,137,73013,6,0,P|197:180|205:246,1,108.5,4|0,0:1|0:0,0:0:0:0:
266,314,73364,1,2,0:0:0:0:
280,304,73481,2,0,P|326:290|358:294,1,54.25,8|0,0:0|0:0,0:0:0:0:
393,331,73716,2,0,P|350:309|317:307,1,54.25,0|0,0:0|0:0,0:0:0:0:
292,197,73950,6,0,L|432:185,1,108.5,2|0,0:0|0:0,0:0:0:0:
512,181,74302,2,0,L|372:169,1,108.5,10|0,0:0|0:0,0:0:0:0:
288,212,74653,1,8,0:0:0:0:
204,54,74888,5,2,0:3:0:0:
257,48,75005,1,2,0:3:0:0:
270,75,75122,1,0,0:0:0:0:
217,71,75239,1,2,0:3:0:0:
123,155,75591,5,2,0:0:0:0:
182,160,75708,1,2,0:3:0:0:
167,130,75825,1,2,0:3:0:0:
108,136,75942,2,0,L|16:143,1,54.25,0|2,0:0|0:2,0:0:0:0:
43,245,76177,6,0,L|86:241,1,43.4,0|0,0:0|0:0,0:0:0:0:
59,269,76294,6,0,L|15:272,1,43.4,2|0,0:3|0:0,0:0:0:0:
75,293,76411,6,0,L|118:289,1,43.4,2|0,0:3|0:0,0:0:0:0:
91,317,76528,22,0,P|69:326|46:338,1,43.4,2|0,0:3|0:0,0:0:0:0:
107,341,76645,2,0,P|129:350|152:362,1,43.4,2|0,0:3|0:0,0:0:0:0:
227,364,76763,6,0,P|281:336|364:316,1,141.049993543244,4|0,0:1|0:0,0:0:0:0:
493,349,77114,1,2,0:0:0:0:
512,308,77231,2,0,L|463:163,1,141.049993543244,8|0,0:0|0:0,0:0:0:0:
501,14,77700,5,2,0:0:0:0:
465,49,77817,1,0,0:0:0:0:
292,61,78052,6,0,P|264:43|227:3,1,70.5249967716219,0|8,0:0|0:0,0:0:0:0:
193,96,78286,2,0,L|175:196,1,70.5249967716219,0|0,0:0|0:0,0:0:0:0:
146,21,78520,6,0,P|79:55|165:51,1,211.574990314866,4|0,0:0|0:0,0:0:0:0:
103,52,78989,1,2,0:0:0:0:
62,86,79106,1,8,0:0:0:0:
62,86,79341,6,0,P|43:120|41:174,1,70.5249967716219,0|0,0:0|0:0,0:0:0:0:
69,274,79575,1,2,0:0:0:0:
54,322,79692,1,0,0:0:0:0:
252,384,79927,6,0,P|297:358|342:357,1,70.5249967716219,0|8,0:0|0:0,0:0:0:0:
380,297,80161,2,0,P|397:203|398:140,1,141.049993543244,2|0,0:0|0:0,0:0:0:0:
395,42,80513,6,0,P|359:123|283:152,1,141.049993543244,2|0,0:0|0:0,0:0:0:0:
168,121,80864,1,2,0:0:0:0:
147,78,80981,1,8,0:0:0:0:
147,78,81216,6,0,P|175:51|238:35,1,70.5249967716219,0|0,0:0|0:0,0:0:0:0:
346,78,81450,1,2,0:0:0:0:
390,74,81567,2,0,P|419:45|436:8,1,70.5249967716219,0|0,0:0|0:0,0:0:0:0:
499,96,81802,6,0,P|474:167|472:239,1,141.049993543244,8|0,0:0|0:0,0:0:0:0:
512,312,82153,2,0,P|480:272|423:236,1,70.5249967716219,8|0,0:0|0:0,0:0:0:0:
407,354,82388,6,0,P|300:365|260:372,1,141.049993543244,4|0,0:0|0:0,0:0:0:0:
154,384,82739,2,0,P|108:338|101:290,1,70.5249967716219,4|0,0:0|0:0,0:0:0:0:
179,266,82973,1,0,0:0:0:0:
179,266,83091,2,0,L|267:281,1,70.5249967716219,4|0,0:0|0:0,0:0:0:0:
248,277,83325,6,0,P|246:186|134:229,1,211.574990314866,4|0,0:0|0:0,0:0:0:0:
93,108,83794,2,0,P|62:72|64:25,1,70.5249967716219,8|0,0:0|0:0,0:0:0:0:
207,99,84028,2,0,P|224:134|216:194,1,70.5249967716219,4|0,0:0|0:0,0:0:0:0:
146,9,84263,6,0,P|203:45|308:59,1,141.049993543244,4|0,0:0|0:0,0:0:0:0:
410,43,84614,1,2,0:0:0:0:
439,6,84731,2,0,L|456:175,1,141.049993543244,8|0,0:0|0:0,0:0:0:0:
385,360,85200,5,2,0:0:0:0:
428,384,85317,1,0,0:0:0:0:
280,269,85552,6,0,P|231:283|200:313,1,70.5249967716219,0|8,0:0|0:0,0:0:0:0:
239,190,85786,2,0,L|251:90,1,70.5249967716219,0|0,0:0|0:0,0:0:0:0:
138,232,86020,6,0,P|118:316|193:273,1,211.574990314866,4|0,0:0|0:0,0:0:0:0:
136,274,86489,1,2,0:0:0:0:
114,320,86606,1,8,0:0:0:0:
114,320,86841,6,0,P|110:274|90:226,1,70.5249967716219,0|0,0:0|0:0,0:0:0:0:
18,143,87075,1,2,0:0:0:0:
32,94,87192,1,0,0:0:0:0:
32,94,87427,6,0,P|62:111|129:127,1,70.5249967716219,0|8,0:0|0:0,0:0:0:0:
198,80,87661,1,0,0:0:0:0:
198,80,87778,2,0,P|201:42|225:1,1,70.5249967716219,0|0,0:0|0:0,0:0:0:0:
302,123,88013,6,0,P|265:179|255:267,1,141.049993543244,6|0,0:0|0:0,0:0:0:0:
335,320,88364,2,0,P|325:355|296:395,1,70.5249967716219,2|8,0:0|0:0,0:0:0:0:
306,383,88598,1,0,0:0:0:0:
267,347,88716,6,0,L|443:369,1,141.049993543244,6|6,0:0|0:0,0:0:0:0:
504,347,89067,1,0,0:0:0:0:
504,347,89302,5,2,0:0:0:0:
473,308,89419,1,0,0:0:0:0:
492,262,89536,1,2,0:0:0:0:
459,224,89653,1,2,0:0:0:0:
479,179,89770,1,2,0:0:0:0:
457,134,89888,6,0,L|435:295,1,141.049993543244,4|0,0:0|0:0,0:0:0:0:
355,347,90239,1,2,0:0:0:0:
315,314,90356,6,0,P|286:309|229:319,1,70.5249967716219,8|0,0:0|0:0,0:0:0:0:
326,224,90591,2,0,L|353:135,1,70.5249967716219,2|0,0:0|0:0,0:0:0:0:
333,41,90825,5,2,0:0:0:0:
277,30,90942,1,2,0:3:0:0:
223,48,91059,1,2,0:3:0:0:
183,88,91177,1,2,0:3:0:0:
187,136,91294,6,0,L|205:191,2,36.1666666666667,0|0|0,0:0|0:0|0:0,0:0:0:0:
88,60,91528,2,0,L|106:5,2,36.1666666666667,0|0|0,0:0|0:0|0:0,0:0:0:0:
23,144,91763,6,0,P|72:210|46:304,1,151.89999536438,4|0,0:1|0:0,0:0:0:0:
112,355,92114,1,2,0:0:0:0:
129,351,92231,2,0,P|148:309|155:268,1,70.5249967716219,8|0,0:0|0:0,0:0:0:0:
203,371,92466,5,0,0:0:0:0:
182,115,92700,5,2,0:0:0:0:
198,170,92817,1,0,0:0:0:0:
299,321,93052,1,0,0:0:0:0:
315,266,93169,2,0,L|292:191,2,70.5249967716219,8|0|0,0:0|0:0|0:0,0:0:0:0:
361,363,93520,5,0,0:0:0:0:
377,308,93638,2,0,L|334:169,1,141.049993543244,4|0,0:0|0:0,0:0:0:0:
428,61,93989,1,2,0:0:0:0:
419,117,94106,1,8,0:0:0:0:
196,57,94341,6,0,B|228:40|302:46|340:70,1,141.049993543244,0|2,0:0|0:0,0:0:0:0:
181,124,94692,2,0,P|182:89|196:57,1,70.5249967716219
266,199,94927,2,0,L|255:268,1,70.5249967716219,0|8,0:0|0:0,0:0:0:0:
136,175,95161,2,0,P|153:145|181:124,2,70.5249967716219
247,321,95513,6,0,L|269:181,1,141.049993543244,2|0,0:0|0:0,0:0:0:0:
332,65,95864,1,2,0:0:0:0:
335,81,95981,2,0,L|353:196,2,70.5249967716219,8|0|0,0:0|0:0|0:0,0:0:0:0:
254,268,96450,5,2,0:0:0:0:
313,277,96567,1,0,0:0:0:0:
98,361,96802,1,0,0:0:0:0:
134,369,96919,2,0,P|188:323|146:270,1,141.049993543244,8|0,0:0|0:0,0:0:0:0:
52,216,97388,6,0,B|35:183|35:148|35:148|66:132|85:99,1,141.049993543244,4|0,0:0|0:0,0:0:0:0:
214,29,97739,2,0,B|233:62|264:78|264:78|264:113|247:146,1,141.049993543244,4|0,0:0|0:0,0:0:0:0:
329,265,98091,1,4,0:0:0:0:
338,257,98208,2,0,B|357:224|355:189,2,70.5249967716219,0|2|0,0:0|0:0|0:0,0:0:0:0:
468,287,98559,2,0,B|430:293|404:317,1,70.5249967716219
487,207,98794,2,0,B|456:191|437:158,1,70.5249967716219,8|0,0:0|0:0,0:0:0:0:
338,257,99028,1,2,0:0:0:0:
200,295,99263,6,0,P|272:311|329:264,1,151.89999536438,4|0,0:1|0:0,0:0:0:0:
173,189,99614,1,2,0:0:0:0:
163,192,99731,2,0,P|141:220|129:253,1,70.5249967716219,8|0,0:0|0:0,0:0:0:0:
252,227,99966,5,0,0:0:0:0:
35,95,100200,5,2,0:0:0:0:
86,106,100317,1,0,0:0:0:0:
290,33,100552,1,0,0:0:0:0:
238,44,100669,2,0,P|206:62|177:87,2,70.5249967716219,8|0|0,0:0|0:0|0:0,0:0:0:0:
303,172,101020,5,0,0:0:0:0:
263,138,101138,2,0,P|323:120|359:180,1,141.049993543244,4|0,0:0|0:0,0:0:0:0:
310,267,101489,1,2,0:0:0:0:
259,256,101606,1,8,0:0:0:0:
52,234,101841,6,0,P|74:207|102:185,1,70.5249967716219,2|0,0:0|0:0,0:0:0:0:
263,138,102075,2,0,P|227:136|192:142,2,70.5249967716219,2|0|0,0:0|0:0|0:0,0:0:0:0:
341,66,102427,2,0,P|277:30|202:24,1,141.049993543244,8|0,0:0|0:0,0:0:0:0:
69,101,102778,2,0,P|102:91|133:74,1,70.5249967716219,8|0,0:0|0:0,0:0:0:0:
237,217,103013,6,0,B|308:240|298:194|382:220,1,141.049993543244,4|0,0:0|0:0,0:0:0:0:
457,269,103364,2,0,P|464:234|454:200,1,70.5249967716219,0|8,0:0|0:0,0:0:0:0:
177,304,103716,6,0,B|233:330|233:330|365:311,1,141.049993543244,4|0,0:0|0:0,0:0:0:0:
157,284,104067,2,0,B|87:294,1,70.5249967716219,0|0,0:0|0:0,0:0:0:0:
237,217,104302,1,0,0:0:0:0:
248,204,104419,2,0,B|178:194,1,70.5249967716219,8|0,0:0|0:0,0:0:0:0:
305,332,104653,2,0,B|374:321,1,70.5249967716219,4|0,0:0|0:0,0:0:0:0:
453,159,104888,6,0,B|397:133|397:133|265:152,1,141.049993543244,4|0,0:1|0:0,0:0:0:0:
462,341,105239,2,0,P|503:247|453:159,1,211.574990314866,2|0,0:0|0:0,0:0:0:0:
292,26,105825,1,2,0:3:0:0:
252,65,105942,1,2,0:3:0:0:
234,118,106059,1,2,0:3:0:0:
245,173,106177,6,0,P|281:193|295:195,1,43.4,2|0,0:0|0:0,0:0:0:0:
266,213,106294,6,0,P|285:202|298:185,1,43.4,2|0,0:0|0:0,0:0:0:0:
298,215,106411,6,0,P|308:195|312:175,1,43.4,2|0,0:0|0:0,0:0:0:0:
328,202,106528,22,0,P|326:180|319:160,1,43.4,2|0,0:0|0:0,0:0:0:0:
346,176,106645,6,0,P|333:157|317:143,1,43.4,2|2,0:0|0:0,0:0:0:0:
234,118,106763,5,4,0:1:0:0:
234,118,107231,2,0,L|221:68,1,40.687501552105,0|0,0:0|0:0,0:0:0:0:
152,33,107466,1,0,0:0:0:0:
87,88,107700,5,2,0:0:0:0:
126,161,108052,1,0,0:0:0:0:
90,237,108403,1,0,0:0:0:0:
8,211,108638,5,2,0:0:0:0:
82,253,108989,1,0,0:0:0:0:
105,335,109223,1,0,0:0:0:0:
185,366,109888,5,0,0:0:0:0:
262,332,110200,1,0,0:0:0:0:
347,324,110434,2,0,L|369:315,1,13.5625005173683,2|2,0:0|0:0,0:0:0:0:
367,323,110513,5,0,0:0:0:0:
419,384,110747,1,0,0:0:0:0:
500,359,110981,1,0,0:0:0:0:
479,277,111098,1,0,0:0:0:0:
512,355,111216,5,2,0:0:0:0:
427,372,111450,1,0,0:0:0:0:
351,341,111763,2,0,L|344:359,1,13.5625005173683,2|2,0:0|0:0,0:0:0:0:
266,331,112153,1,0,0:0:0:0:
186,346,112309,6,0,L|179:327,3,13.5625005173683,0|0|0|2,0:0|0:0|0:0|0:0,0:0:0:0:
121,278,112739,1,0,0:0:0:0:
121,278,113418,5,0,0:0:0:0:
125,270,113525,1,0,0:0:0:0:
130,261,113632,5,0,0:0:0:0:
141,225,113788,1,0,0:0:0:0:
119,185,113973,1,0,0:0:0:0:
125,102,114258,6,0,L|316:85,1,173.6,4|0,0:1|0:0,0:0:0:0:
385,126,114961,1,2,0:0:0:0:
428,211,115195,6,0,P|387:217|330:202,1,86.8,2|0,0:0|0:0,0:0:0:0:
330,228,115547,2,0,P|371:222|427:236,1,86.8,2|0,0:0|0:0,0:0:0:0:
413,279,115898,2,0,P|372:285|337:276,1,43.4,2|0,0:0|0:0,0:0:0:0:
296,310,116133,6,0,P|255:301|206:268,1,86.8,2|0,0:0|0:0,0:0:0:0:
208,293,116484,1,0,0:0:0:0:
21,347,116836,1,2,0:0:0:0:
53,257,117304,5,2,0:0:0:0:
53,257,117773,1,2,0:0:0:0:
86,167,118008,1,8,0:0:0:0:
212,100,118359,5,2,0:0:0:0:
207,116,118476,2,0,P|199:171|221:246,1,108.5,8|0,0:0|0:0,0:0:0:0:
222,87,118945,1,10,0:0:0:0:
411,281,119297,5,2,0:0:0:0:
416,265,119414,2,0,P|424:210|402:135,1,108.5,8|0,0:0|0:0,0:0:0:0:
406,297,119883,5,2,0:3:0:0:
446,281,120000,1,2,0:3:0:0:
355,363,120234,1,2,0:3:0:0:
254,301,120468,1,0,0:3:0:0:
294,285,120586,2,0,L|355:260,2,36.1666666666667,0|0|0,0:0|0:0|0:0,0:0:0:0:
220,317,120820,1,2,0:3:0:0:
109,359,121054,1,2,0:3:0:0:
220,178,121289,5,2,0:3:0:0:
180,136,121406,1,2,0:3:0:0:
124,125,121523,1,2,0:3:0:0:
71,146,121640,2,0,L|61:194,1,27.125,2|2,0:0|0:0,0:0:0:0:
52,275,121758,6,0,P|83:335|187:351,1,162.75,4|0,0:1|0:0,0:0:0:0:
213,342,122226,2,0,L|340:354,1,108.5,8|0,0:0|0:0,0:0:0:0:
367,254,122695,2,0,L|240:266,1,108.5,2|0,0:0|0:0,0:0:0:0:
230,230,123047,1,0,0:0:0:0:
230,230,123164,1,8,0:0:0:0:
285,151,123320,5,2,0:0:0:0:
279,153,123398,1,2,0:0:0:0:
245,66,123561,5,2,0:0:0:0:
150,33,123945,1,0,0:0:0:0:
236,75,124253,1,0,0:0:0:0:
331,51,124553,1,0,0:0:0:0:
421,69,124854,1,0,0:0:0:0:
479,153,125190,1,0,0:0:0:0:
481,250,125463,1,2,0:0:0:0:
474,251,125502,5,2,0:0:0:0:
506,333,125658,1,0,0:0:0:0:
510,337,125853,5,0,0:0:0:0:
510,337,125970,2,0,L|392:321,1,108.5,8|0,0:0|0:0,0:0:0:0:
319,364,126439,2,0,L|201:380,1,108.5,2|0,0:0|0:0,0:0:0:0:
179,353,126791,1,0,0:0:0:0:
179,353,126908,1,8,0:0:0:0:
107,276,127142,2,0,L|-11:260,1,108.5,0|4,0:0|0:0,0:0:0:0:
59,181,127611,5,6,0:0:0:0:
21,97,127962,1,6,0:0:0:0:
108,12,128302,1,6,0:0:0:0:
222,91,128666,1,6,0:0:0:0:
352,26,129017,1,6,0:0:0:0:
414,167,129251,5,2,0:0:0:0:
422,175,129485,5,0,0:0:0:0:
422,175,129602,1,0,0:0:0:0:
422,175,129719,1,8,0:0:0:0:
412,328,129915,5,0,0:0:0:0:
409,330,129954,1,0,0:0:0:0:
409,330,130188,6,0,L|297:340,1,108.5
272,312,130540,1,0,0:0:0:0:
272,312,130657,1,8,0:0:0:0:
176,258,131008,5,2,0:0:0:0:
213,175,131204,1,2,0:0:0:0:
221,178,131279,1,2,0:0:0:0:
302,152,131431,1,2,0:0:0:0:
376,98,131600,5,2,0:0:0:0:
287,131,131756,1,2,0:0:0:0:
235,204,131912,1,2,0:0:0:0:
281,309,132059,5,2,0:0:0:0:
262,208,132225,1,2,0:0:0:0:
177,151,132381,1,2,0:0:0:0:
122,66,132537,5,2,0:0:0:0:
122,66,132771,1,0,0:0:0:0:
23,181,133005,5,4,0:0:0:0:
74,314,133318,1,0,0:0:0:0:
213,351,133630,1,0,0:0:0:0:
353,314,133943,1,0,0:0:0:0:
481,378,134255,1,2,0:0:0:0:
481,378,134880,5,2,0:0:0:0:
430,281,135115,1,0,0:0:0:0:
479,187,135466,1,0,0:0:0:0:
479,187,135818,5,2,0:3:0:0:
436,178,135935,1,2,0:3:0:0:
393,169,136052,1,2,0:3:0:0:
440,50,136287,1,2,0:3:0:0:
440,50,136521,5,2,0:3:0:0:
365,36,136638,1,2,0:3:0:0:
290,22,136755,6,0,P|255:62|234:137,1,108.5
96,42,137224,1,2,0:0:0:0:
230,88,137458,6,0,P|210:137|216:215,1,108.5
54,173,137927,1,2,0:0:0:0:
196,170,138162,6,0,P|194:223|227:294,1,108.5
59,310,138630,1,2,0:0:0:0:
320,264,138865,6,0,P|324:318|310:370,1,108.5
477,269,139333,1,2,0:0:0:0:
309,181,139568,6,0,P|332:230|336:284,1,108.5
460,133,140037,1,2,0:0:0:0:
271,108,140271,6,0,P|310:146|332:196,1,108.5,0|2,0:0|0:0,0:0:0:0:
397,11,140740,1,2,0:0:0:0:
193,8,140974,6,0,L|171:113,1,108.5
31,42,141443,1,0,0:0:0:0:
76,28,141560,1,2,0:0:0:0:
118,173,141794,1,0,0:0:0:0:
73,163,141912,2,0,P|43:163|0:176,1,54.25,2|0,0:0|0:0,0:0:0:0:
194,224,142146,2,0,P|175:204|153:190,1,54.25,2|0,0:0|0:0,0:0:0:0:
327,251,142380,6,0,P|275:268|229:297,1,108.5,2|0,0:0|0:0,0:0:0:0:
209,372,142732,1,0,0:0:0:0:
229,297,142849,2,0,P|230:264|221:227,1,54.25,2|0,0:0|0:0,0:0:0:0:
250,170,143083,1,0,0:0:0:0:
246,161,143201,1,2,0:0:0:0:
189,52,143318,6,0,P|184:78|186:105,1,54.25,2|0,0:0|0:0,0:0:0:0:
246,161,143552,1,2,0:0:0:0:
396,103,143669,2,0,P|337:87|272:115,1,108.5,2|0,0:0|0:0,0:0:0:0:
417,208,144021,1,2,0:0:0:0:
468,146,144138,1,2,0:0:0:0:
341,170,144255,6,0,P|332:222|359:268,1,108.5,6|0,0:0|0:0,0:0:0:0:
431,303,144607,1,2,0:0:0:0:
229,255,144841,1,0,0:0:0:0:
31,321,145076,2,0,P|82:302|136:303,1,108.5,2|0,0:0|0:0,0:0:0:0:
229,255,145427,1,2,0:0:0:0:
159,213,145544,2,0,P|86:209|-26:247,1,162.75,2|0,0:0|0:0,0:0:0:0:
72,65,146130,6,0,P|145:61|286:115,1,217,2|0,0:0|0:0,0:0:0:0:
326,173,146716,1,0,0:0:0:0:
376,111,146833,2,0,P|434:90|476:98,1,72.3333333333333,2|0,0:0|0:0,0:0:0:0:
494,147,147068,6,0,L|503:191,2,36.1666666666667,2|0|0,0:0|0:0|0:0,0:0:0:0:
426,197,147302,6,0,L|435:241,2,36.1666666666667,2|0|0,0:0|0:0|0:0,0:0:0:0:
360,262,147537,38,0,L|369:306,2,36.1666666666667,2|0|0,0:0|0:0|0:0,0:0:0:0:
305,348,147771,6,0,L|314:392,2,36.1666666666667,2|0|0,0:0|0:0|0:0,0:0:0:0:
210,282,148005,6,0,P|136:250|91:267,1,108.5,4|0,0:1|0:0,0:0:0:0:
72,325,148357,1,0,0:0:0:0:
119,250,148474,2,0,P|125:204|112:157,2,54.25,2|0|0,0:0|0:0|0:0,0:0:0:0:
93,70,148826,2,0,P|107:92|116:118,1,54.25,2|0,0:0|0:0,0:0:0:0:
206,193,149060,2,0,P|214:167|229:144,1,54.25,2|0,0:0|0:0,0:0:0:0:
366,114,149294,6,0,P|345:131|321:144,1,54.25,2|0,0:0|0:0,0:0:0:0:
235,37,149529,2,0,P|261:41|286:51,1,54.25,2|0,0:0|0:0,0:0:0:0:
423,176,149763,1,0,0:0:0:0:
444,251,149880,2,0,P|438:311|397:365,1,108.5,6|0,0:0|0:0,0:0:0:0:
321,349,150232,6,0,P|373:330|428:334,1,108.5,2|0,0:0|0:0,0:0:0:0:
463,353,150583,1,2,0:0:0:0:
265,264,150818,1,2,0:3:0:0:
269,220,150935,1,2,0:3:0:0:
279,178,151052,1,2,0:3:0:0:
186,54,151287,1,2,0:3:0:0:
57,138,151521,1,2,0:3:0:0:
73,179,151638,1,2,0:3:0:0:
75,222,151755,6,0,B|133:214|133:214|204:236,1,108.5,4|0,0:1|0:0,0:0:0:0:
248,264,152107,2,0,L|242:326,1,54.25,2|0,0:0|0:0,0:0:0:0:
186,371,152341,1,0,0:0:0:0:
186,371,152576,6,0,L|235:366,1,27.125,2|0,0:0|0:0,0:0:0:0:
286,360,152810,2,0,L|335:355,1,27.125,2|0,0:0|0:0,0:0:0:0:
386,349,153044,2,0,L|435:344,1,27.125,10|0,0:0|0:0,0:0:0:0:
486,338,153279,1,0,0:0:0:0:
512,335,153396,1,10,0:0:0:0:
512,335,153630,6,0,B|501:285|501:285|436:220,1,108.5,4|0,0:0|0:0,0:0:0:0:
405,188,153982,2,0,L|406:117,1,54.25,2|0,0:0|0:0,0:0:0:0:
461,75,154216,1,0,0:0:0:0:
461,75,154451,6,0,L|449:118,1,27.125,2|0,0:0|0:0,0:0:0:0:
379,83,154685,2,0,L|367:126,1,27.125
297,91,154919,2,0,L|285:134,1,27.125,10|0,0:0|0:0,0:0:0:0:
215,99,155154,1,0,0:0:0:0:
207,125,155271,1,10,0:0:0:0:
208,124,155505,6,0,B|211:71|211:71|259:26,1,108.5,4|0,0:0|0:0,0:0:0:0:
331,24,155857,2,0,L|396:33,1,54.25,2|0,0:0|0:0,0:0:0:0:
457,57,156091,1,0,0:0:0:0:
457,57,156326,6,0,L|499:49,1,27.125,2|0,0:0|0:0,0:0:0:0:
430,125,156560,2,0,L|388:117,1,27.125,2|0,0:0|0:0,0:0:0:0:
457,193,156794,2,0,L|499:185,1,27.125,10|0,0:0|0:0,0:0:0:0:
430,261,157029,1,0,0:0:0:0:
403,255,157146,1,10,0:0:0:0:
403,255,157380,6,0,B|388:283|388:283|389:322,1,54.25,4|0,0:0|0:0,0:0:0:0:
394,329,157732,2,0,L|425:346,1,27.125,2|0,0:0|0:0,0:0:0:0:
447,346,157966,1,0,0:0:0:0:
447,346,158201,6,0,L|360:355,1,54.25,2|0,0:0|0:0,0:0:0:0:
306,327,158435,2,0,L|252:321,1,54.25,2|0,0:0|0:0,0:0:0:0:
165,346,158669,2,0,L|111:351,1,54.25,10|0,0:0|0:0,0:0:0:0:
24,327,158904,1,0,0:0:0:0:
55,291,159021,1,10,0:0:0:0:
55,291,159255,6,0,L|39:149,1,108.5,4|0,0:1|0:0,0:0:0:0:
34,100,159607,1,8,0:0:0:0:
285,172,159958,1,10,0:0:0:0:
70,31,160427,1,0,0:0:0:0:
34,100,160544,1,8,0:0:0:0:
285,172,160896,1,10,0:0:0:0:
285,172,161130,6,0,L|414:150,1,108.5,4|0,0:0|0:0,0:0:0:0:
487,134,161482,1,8,0:0:0:0:
403,378,161833,1,10,0:0:0:0:
439,69,162302,1,0,0:0:0:0:
487,134,162419,1,8,0:0:0:0:
403,378,162771,1,10,0:0:0:0:
403,378,163005,6,0,P|361:338|340:268,1,108.5,4|0,0:0|0:0,0:0:0:0:
350,197,163357,1,8,0:0:0:0:
93,246,163708,1,10,0:0:0:0:
314,126,164177,1,0,0:0:0:0:
350,197,164294,1,8,0:0:0:0:
93,246,164646,1,10,0:0:0:0:
93,246,164880,5,2,0:3:0:0:
141,221,164997,1,2,0:3:0:0:
161,170,165115,1,2,0:3:0:0:
142,119,165232,1,2,0:3:0:0:
234,0,165466,1,2,0:3:0:0:
275,34,165583,1,6,0:3:0:0:
275,34,166521,6,0,L|269:85,1,48.8249985099793
265,106,166638,2,0,L|260:155,1,48.8249985099793
249,244,166755,6,0,P|179:205|65:222,1,151.89999536438,4|0,0:1|0:0,0:0:0:0:
36,257,167107,1,2,0:0:0:0:
72,333,167224,2,0,P|114:279|99:230,1,70.5249967716219,8|0,0:0|0:0,0:0:0:0:
27,107,167458,6,0,P|32:154|42:188,1,70.5249967716219,0|0,0:0|0:0,0:0:0:0:
203,254,167693,5,2,0:0:0:0:
222,219,167810,2,0,P|230:184|232:149,1,70.5249967716219,0|0,0:0|0:0,0:0:0:0:
307,264,168044,1,0,0:0:0:0:
319,295,168162,2,0,P|327:329|329:364,2,70.5249967716219,8|0|0,0:0|0:0|0:0,0:0:0:0:
415,201,168513,5,0,0:0:0:0:
428,201,168630,2,0,P|459:253|401:273,1,141.049993543244,4|0,0:0|0:0,0:0:0:0:
335,138,168982,1,2,0:0:0:0:
342,100,169099,1,8,0:0:0:0:
342,100,169333,6,0,P|273:102|228:74,1,70.5249967716219,2|0,0:0|0:0,0:0:0:0:
205,30,169568,2,0,P|267:3|319:13,2,70.5249967716219,2|0|0,0:0|0:0|0:0,0:0:0:0:
357,114,169919,2,0,P|290:128|241:109,1,70.5249967716219,2|8,0:0|0:0,0:0:0:0:
107,234,170154,2,0,P|182:203|264:199,1,141.049993543244,2|0,0:0|0:0,0:0:0:0:
342,240,170505,6,0,L|367:378,1,141.049993543244,2|0,0:0|0:0,0:0:0:0:
450,323,170857,1,2,0:0:0:0:
408,350,170974,1,8,0:0:0:0:
240,207,171208,6,0,L|265:345,1,141.049993543244,0|2,0:0|0:0,0:0:0:0:
219,366,171560,1,0,0:0:0:0:
49,356,171794,5,2,0:0:0:0:
3,335,171912,2,0,L|28:197,1,141.049993543244,8|0,0:0|0:0,0:0:0:0:
214,98,172380,6,0,B|191:127|157:142|157:142|121:143|89:126,1,141.049993543244,4|0,0:0|0:0,0:0:0:0:
250,27,172732,2,0,B|280:11|316:12|316:12|349:27|372:56,1,141.049993543244,4|0,0:0|0:0,0:0:0:0:
356,215,173083,1,4,0:0:0:0:
343,207,173201,2,0,P|336:155|405:162,1,141.049993543244,0|0,0:0|0:0,0:0:0:0:
492,134,173552,2,0,B|491:132|495:169|481:203,1,70.5249967716219,2|0,0:0|0:0,0:0:0:0:
430,272,173787,2,0,B|435:308|456:338|456:338,1,70.5249967716219,8|0,0:0|0:0,0:0:0:0:
321,361,174021,2,0,B|340:329|343:293|343:293,1,70.5249967716219,2|0,0:0|0:0,0:0:0:0:
210,246,174255,6,0,P|282:259|371:296,1,141.049993543244,4|0,0:1|0:0,0:0:0:0:
187,321,174607,1,0,0:0:0:0:
177,316,174724,2,0,P|123:320|56:342,1,70.5249967716219,8|0,0:0|0:0,0:0:0:0:
210,246,174958,5,0,0:0:0:0:
138,79,175193,5,2,0:0:0:0:
129,117,175310,2,0,P|132:154|150:210,1,70.5249967716219
35,265,175544,1,0,0:0:0:0:
44,228,175662,2,0,P|41:191|23:135,2,70.5249967716219,8|0|0,0:0|0:0|0:0,0:0:0:0:
138,80,176013,5,0,0:0:0:0:
129,117,176130,2,0,P|132:154|179:249,1,141.049993543244,4|0,0:0|0:0,0:0:0:0:
305,207,176481,1,2,0:0:0:0:
256,221,176599,1,8,0:0:0:0:
256,221,176833,6,0,P|225:253|208:296,1,70.5249967716219,0|0,0:0|0:0,0:0:0:0:
321,365,177068,2,0,P|315:330|299:298,2,70.5249967716219,2|0|0,0:0|0:0|0:0,0:0:0:0:
213,275,177419,6,0,P|230:245|256:221,2,70.5249967716219,0|8|0,0:0|0:0|0:0,0:0:0:0:
107,331,177770,2,0,P|81:306|64:276,1,70.5249967716219
125,127,178005,6,0,L|283:131,1,141.049993543244,4|0,0:0|0:0,0:0:0:0:
378,132,178356,2,0,L|307:130,1,70.5249967716219,2|8,0:0|0:0,0:0:0:0:
223,323,178708,6,0,P|284:289|354:278,1,141.049993543244,4|6,0:0|0:0,0:0:0:0:
460,329,179060,2,0,L|404:289,1,70.5249967716219,0|0,0:0|0:0,0:0:0:0:
280,251,179294,1,2,0:0:0:0:
270,257,179411,2,0,L|213:216,1,70.5249967716219,8|2,0:0|0:0,0:0:0:0:
86,306,179646,2,0,L|142:265,1,70.5249967716219,2|2,0:0|0:0,0:0:0:0:
170,129,179880,6,0,L|55:211,1,141.049993543244,4|0,0:0|0:0,0:0:0:0:
86,306,180232,2,0,L|142:265,1,70.5249967716219,2|8,0:0|0:0,0:0:0:0:
212,215,180466,2,0,L|268:255,1,70.5249967716219,0|0,0:0|0:0,0:0:0:0:
353,178,180701,2,0,L|296:137,1,70.5249967716219,0|2,0:0|0:0,0:0:0:0:
227,87,180935,1,2,0:3:0:0:
181,119,181052,1,2,0:3:0:0:
135,152,181169,1,2,0:3:0:0:
89,184,181287,2,0,L|32:143,2,36.1666666666667,0|0|0,0:0|0:0|0:0,0:0:0:0:
107,78,181521,2,0,L|77:56,2,36.1666666666667,0|0|0,0:0|0:0|0:0,0:0:0:0:
237,215,181755,6,0,P|249:287|169:364,1,151.89999536438,4|0,0:1|0:0,0:0:0:0:
76,364,182107,1,2,0:0:0:0:
30,304,182224,2,0,P|99:273|163:291,1,141.049993543244,8|0,0:0|0:0,0:0:0:0:
324,374,182693,5,2,0:0:0:0:
400,359,182810,1,0,0:0:0:0:
400,359,183044,6,0,P|430:325|476:300,1,70.5249967716219,0|8,0:0|0:0,0:0:0:0:
294,259,183279,2,0,P|277:228|257:170,1,70.5249967716219,0|0,0:0|0:0,0:0:0:0:
419,140,183512,6,0,P|405:226|368:157,1,211.574990314866,4|0,0:0|0:0,0:0:0:0:
441,183,183982,1,2,0:0:0:0:
471,254,184099,1,8,0:0:0:0:
471,254,184333,6,0,P|465:304|441:345,1,70.5249967716219
317,338,184568,1,2,0:0:0:0:
249,376,184685,1,0,0:0:0:0:
289,172,184919,6,0,P|265:133|209:98,1,70.5249967716219,0|8,0:0|0:0,0:0:0:0:
139,196,185154,2,0,L|-29:219,1,141.049993543244,0|0,0:0|0:0,0:0:0:0:
0,364,185505,6,0,P|8:276|77:214,1,141.049993543244,2|0,0:0|0:0,0:0:0:0:
173,158,185856,1,2,0:0:0:0:
200,85,185974,1,8,0:0:0:0:
200,85,186208,2,0,P|143:74|96:87,1,70.5249967716219,0|0,0:0|0:0,0:0:0:0:
302,167,186443,1,2,0:0:0:0:
377,149,186560,2,0,P|404:123|437:83,1,70.5249967716219,0|0,0:0|0:0,0:0:0:0:
361,0,186794,6,0,P|350:52|386:144,1,141.049993543244,8|0,0:0|0:0,0:0:0:0:
469,221,187146,2,0,P|479:271|475:315,1,70.5249967716219,8|0,0:0|0:0,0:0:0:0:
387,376,187380,6,0,P|385:318|455:257,1,141.049993543244,4|0,0:0|0:0,0:0:0:0:
497,362,187731,2,0,P|459:349|397:343,1,70.5249967716219,4|2,0:0|0:0,0:0:0:0:
277,380,187966,1,0,0:0:0:0:
277,380,188083,2,0,P|236:341|211:296,1,70.5249967716219,4|0,0:0|0:0,0:0:0:0:
228,329,188317,6,0,P|303:322|233:231,1,211.574990314866,6|0,0:0|0:0,0:0:0:0:
225,145,188787,2,0,P|203:103|201:65,1,70.5249967716219,8|0,0:0|0:0,0:0:0:0:
357,16,189021,2,0,P|341:51|300:90,1,70.5249967716219,4|0,0:0|0:0,0:0:0:0:
225,2,189255,6,0,P|170:38|72:67,1,141.049993543244,4|0,0:0|0:0,0:0:0:0:
0,0,189607,1,2,0:0:0:0:
0,77,189724,2,0,P|57:126|78:221,1,141.049993543244,8|0,0:0|0:0,0:0:0:0:
0,374,190193,5,2,0:0:0:0:
75,355,190310,1,0,0:0:0:0:
159,170,190544,6,0,P|179:139|195:80,1,70.5249967716219,0|8,0:0|0:0,0:0:0:0:
234,257,190779,2,0,P|269:278|302:320,1,70.5249967716219,0|0,0:0|0:0,0:0:0:0:
110,311,191013,6,0,P|108:228|159:308,1,211.574990314866,4|0,0:0|0:0,0:0:0:0:
75,243,191481,1,2,0:0:0:0:
52,169,191599,1,8,0:0:0:0:
52,169,191833,6,0,P|44:134|15:80,1,70.5249967716219,0|0,0:0|0:0,0:0:0:0:
163,0,192068,1,2,0:0:0:0:
238,17,192185,1,0,0:0:0:0:
406,141,192419,6,0,P|425:121|483:91,1,70.5249967716219,0|8,0:0|0:0,0:0:0:0:
501,248,192654,1,0,0:0:0:0:
425,231,192771,2,0,P|388:238|337:265,1,70.5249967716219,0|0,0:0|0:0,0:0:0:0:
448,384,193005,6,0,P|476:298|415:213,1,141.049993543244,4|0,0:0|0:0,0:0:0:0:
352,127,193357,1,2,0:0:0:0:
334,51,193474,1,8,0:0:0:0:
334,51,193708,6,0,P|335:102|319:149,1,70.5249967716219,4|0,0:0|0:0,0:0:0:0:
267,166,193943,1,6,0:0:0:0:
197,132,194060,2,0,P|138:113|94:109,1,70.5249967716219,0|0,0:0|0:0,0:0:0:0:
17,186,194294,5,2,0:0:0:0:
72,241,194412,1,0,0:0:0:0:
147,223,194529,1,2,0:0:0:0:
202,276,194646,1,2,0:0:0:0:
276,255,194763,1,2,0:0:0:0:
326,313,194880,6,0,P|416:291|440:208,1,141.049993543244,4|0,0:0|0:0,0:0:0:0:
361,131,195232,1,0,0:0:0:0:
290,169,195349,6,0,P|267:209|260:261,1,70.5249967716219,2|0,0:0|0:0,0:0:0:0:
202,377,195583,2,0,P|173:342|142:320,1,70.5249967716219,2|0,0:0|0:0,0:0:0:0:
35,264,195818,1,0,0:0:0:0:
16,339,195935,1,2,0:3:0:0:
84,375,196052,1,2,0:3:0:0:
146,327,196169,6,0,L|137:265,1,43.4,2|0,0:0|0:0,0:0:0:0:
218,303,196287,6,0,L|192:240,1,43.4,2|0,0:0|0:0,0:0:0:0:
286,277,196404,6,0,L|290:339,1,43.4,2|0,0:0|0:0,0:0:0:0:
356,298,196521,22,0,L|345:358,1,43.4,2|0,0:0|0:0,0:0:0:0:
417,259,196638,6,0,L|406:319,1,43.4,2|2,0:0|0:0,0:0:0:0:
368,202,196755,22,0,L|263:211,1,65.0999980133057,4|0,0:1|0:0,0:0:0:0:
66,211,196990,2,0,L|130:205,1,65.0999980133057,2|0,0:0|0:0,0:0:0:0:
219,68,197224,1,8,0:0:0:0:
227,161,197341,1,0,0:0:0:0:
495,285,197576,6,0,L|500:220,1,65.0999980133057,2|2,0:0|0:0,0:0:0:0:
483,85,197810,2,0,L|477:149,1,65.0999980133057,0|0,0:0|0:0,0:0:0:0:
505,303,198044,2,0,L|510:238,2,65.0999980133057,0|8|0,0:0|0:0|0:0,0:0:0:0:
447,365,198396,1,2,0:0:0:0:
318,233,198630,22,0,L|213:242,1,65.0999980133057,4|0,0:0|0:0,0:0:0:0:
196,310,198865,1,2,0:0:0:0:
199,320,198982,1,0,0:0:0:0:
174,225,199099,2,8,L|69:234,1,65.0999980133057,8|0,0:0|0:0,0:0:0:0:
52,302,199333,1,2,0:0:0:0:
0,175,199451,6,0,L|64:169,1,65.0999980133057,0|2,0:0|0:0,0:0:0:0:
187,89,199685,2,0,L|122:94,1,65.0999980133057,0|0,0:0|0:0,0:0:0:0:
246,164,199919,1,0,0:0:0:0:
266,101,200037,2,0,L|246:164,1,65.0999980133057,8|0,0:0|0:0,0:0:0:0:
253,242,200271,1,2,0:0:0:0:
256,252,200388,1,2,0:0:0:0:
295,375,200505,6,0,L|256:252,1,130.199996026611,4|0,0:0|0:0,0:0:0:0:
325,197,200857,1,0,0:0:0:0:
396,248,200974,2,0,L|376:311,1,65.0999980133057,8|0,0:0|0:0,0:0:0:0:
328,187,201208,1,2,0:0:0:0:
423,102,201326,2,0,L|403:165,1,65.0999980133057,2|2,0:0|0:0,0:0:0:0:
308,249,201560,2,0,L|328:186,1,65.0999980133057,2|0,0:0|0:0,0:0:0:0:
403,164,201794,5,0,0:0:0:0:
328,187,201912,1,8,0:0:0:0:
276,125,202029,1,0,0:0:0:0:
311,52,202146,1,2,0:0:0:0:
356,118,202263,1,0,0:0:0:0:
195,131,202380,6,0,L|131:137,1,65.0999980133057,2|0,0:0|0:0,0:0:0:0:
77,78,202615,1,0,0:0:0:0:
260,148,202732,6,0,L|131:137,1,130.199996026611,2|0,0:0|0:0,0:0:0:0:
74,74,203083,1,0,0:0:0:0:
260,126,203201,6,0,L|81:141,1,130.199996026611,2|0,0:0|0:0,0:0:0:0:
45,204,203552,2,0,L|38:293,1,65.0999980133057,2|0,0:0|0:0,0:0:0:0:
124,326,203787,5,2,0:0:0:0:
140,339,203865,1,2,0:0:0:0:
164,349,203943,5,2,0:0:0:0:
198,353,204021,1,2,0:0:0:0:
241,345,204099,37,2,0:0:0:0:
282,314,204177,5,2,0:0:0:0:
309,261,204255,5,2,0:0:0:0:
260,148,204372,1,2,0:0:0:0:
206,273,204490,1,2,0:0:0:0:
350,234,204607,5,2,0:0:0:0:
301,121,204724,1,2,0:0:0:0:
235,241,204841,1,2,0:0:0:0:
391,207,204958,37,2,0:0:0:0:
342,94,205076,1,2,0:0:0:0:
273,207,205193,1,2,0:0:0:0:
432,180,205310,5,2,0:0:0:0:
383,67,205427,1,2,0:0:0:0:
316,185,205544,1,2,0:0:0:0:
244,99,205662,6,0,P|195:88|140:100,1,65.0999980133057,10|2,0:0|0:0,0:0:0:0:
22,216,205896,2,0,P|47:195|77:183,1,65.0999980133057,10|2,0:0|0:0,0:0:0:0:
294,232,206130,5,2,0:0:0:0:
395,300,206247,1,2,0:0:0:0:
246,338,206365,1,2,0:0:0:0:
193,164,206481,5,2,0:0:0:0:
294,232,206598,1,2,0:0:0:0:
145,270,206716,1,2,0:0:0:0:
342,126,206833,37,2,0:0:0:0:
294,232,206950,1,2,0:0:0:0:
390,20,207067,2,0,L|453:30,1,65.0999980133057,10|0,0:0|0:0,0:0:0:0:
294,232,207302,1,2,0:0:0:0:
241,71,207419,6,0,L|304:60,1,65.0999980133057,2|8,0:0|0:0,0:0:0:0:
342,126,207654,1,2,0:0:0:0:
175,38,207771,2,0,L|277:55,1,65.0999980133057,0|0,0:0|0:0,0:0:0:0:
177,156,208005,6,0,L|17:182,1,130.199996026611,4|0,0:0|0:0,0:0:0:0:
40,95,208357,5,2,0:0:0:0:
34,181,208474,1,8,0:0:0:0:
25,100,208591,1,2,0:0:0:0:
34,181,208708,1,2,0:0:0:0:
43,261,208826,6,0,B|143:277|143:277|164:309,1,130.199996026611,2|0,0:0|0:0,0:0:0:0:
512,335,209294,2,0,B|411:318|411:318|391:287,1,130.199996026611,2|0,0:0|0:0,0:0:0:0:
453,244,209646,1,2,0:0:0:0:
197,360,209880,6,0,L|146:187,1,130.199996026611,4|0,0:0|0:0,0:0:0:0:
217,184,210232,1,2,0:0:0:0:
285,228,210349,2,0,L|266:290,1,65.0999980133057,8|0,0:0|0:0,0:0:0:0:
160,235,210583,5,2,0:0:0:0:
236,122,210701,2,0,L|217:184,1,65.0999980133057,8|0,0:0|0:0,0:0:0:0:
86,142,210935,5,2,0:0:0:0:
191,7,211052,2,0,L|172:69,1,65.0999980133057,8|0,0:0|0:0,0:0:0:0:
267,300,211287,6,0,L|248:237,1,46.1125008795262,2|0,0:0|0:0,0:0:0:0:
312,244,211404,6,0,L|304:179,1,46.1125008795262,2|0,0:0|0:0,0:0:0:0:
370,202,211521,6,0,L|374:137,1,46.1125008795262,2|0,0:0|0:0,0:0:0:0:
433,179,211638,22,0,L|448:115,1,46.1125008795262,2|2,0:0|0:0,0:0:0:0:
496,230,211755,6,0,L|509:339,1,75.94999768219,4|0,0:1|0:0,0:0:0:0:
383,369,211990,1,2,0:0:0:0:
305,346,212107,2,0,L|415:335,1,75.94999768219,0|8,0:0|0:0,0:0:0:0:
238,244,212340,6,0,L|208:149,1,75.94999768219,2|2,0:0|0:0,0:0:0:0:
273,33,212576,2,0,L|210:109,1,75.94999768219,2|0,0:0|0:0,0:0:0:0:
63,113,212810,2,0,L|166:132,1,75.94999768219,2|0,0:0|0:0,0:0:0:0:
18,27,213044,5,2,0:0:0:0:
77,99,213161,1,8,0:0:0:0:
163,56,213279,1,0,0:0:0:0:
228,127,213396,2,0,L|325:99,1,75.94999768219,2|0,0:0|0:0,0:0:0:0:
456,0,213630,6,0,P|443:67|422:87,1,75.94999768219,4|0,0:0|0:0,0:0:0:0:
312,124,213865,1,2,0:0:0:0:
385,177,213982,2,0,L|318:142,1,75.94999768219,0|8,0:0|0:0,0:0:0:0:
238,278,214216,6,0,P|239:320|220:371,1,75.94999768219,2|2,0:0|0:0,0:0:0:0:
101,240,214451,2,0,L|202:227,1,75.94999768219,2|0,0:0|0:0,0:0:0:0:
324,294,214685,2,0,L|435:304,1,75.94999768219,2|0,0:0|0:0,0:0:0:0:
383,157,214919,6,0,P|349:200|335:257,1,108.5,0|8,0:0|0:0,0:0:0:0:
461,384,215154,1,2,0:0:0:0:
512,288,215271,2,0,P|473:257|378:248,1,108.5,2|0,0:0|0:0,0:0:0:0:
288,379,215505,6,0,L|296:265,1,75.94999768219,4|0,0:0|0:0,0:0:0:0:
272,144,215740,1,2,0:0:0:0:
177,177,215857,2,0,L|275:155,1,75.94999768219,0|8,0:0|0:0,0:0:0:0:
83,64,216091,6,0,P|50:14|43:-23,1,75.94999768219,2|2,0:0|0:0,0:0:0:0:
22,220,216326,2,0,P|4:261|-1:302,1,75.94999768219,2|0,0:0|0:0,0:0:0:0:
189,167,216560,2,0,P|248:192|303:204,1,75.94999768219,2|0,0:0|0:0,0:0:0:0:
119,63,216794,5,2,0:0:0:0:
54,128,216912,1,8,0:0:0:0:
84,215,217029,1,0,0:0:0:0:
28,291,217146,5,2,0:0:0:0:
96,227,217263,1,2,0:0:0:0:
41,145,217380,6,0,L|31:44,1,75.94999768219,4|0,0:0|0:0,0:0:0:0:
106,237,217615,1,2,0:0:0:0:
182,185,217732,2,0,P|230:204|295:209,1,75.94999768219,2|8,0:0|0:0,0:0:0:0:
356,195,217966,5,2,0:0:0:0:
275,217,218083,2,0,P|214:231|183:251,1,75.94999768219,2|0,0:0|0:0,0:0:0:0:
133,310,218318,2,0,L|112:404,2,75.94999768219,2|0|0,0:0|0:0|0:0,0:0:0:0:
121,295,218669,5,0,0:0:0:0:
207,352,218787,2,0,P|242:354|306:378,1,75.94999768219,8|0,0:0|0:0,0:0:0:0:
379,239,219021,2,0,P|364:202|364:142,1,75.94999768219,0|0,0:0|0:0,0:0:0:0:
512,330,219255,6,0,L|405:342,1,75.94999768219,4|0,0:0|0:0,0:0:0:0:
325,301,219490,1,2,0:0:0:0:
247,341,219607,1,0,0:0:0:0:
310,290,219724,6,0,P|288:254|246:228,1,75.94999768219,8|0,0:0|0:0,0:0:0:0:
182,123,219958,1,2,0:0:0:0:
123,189,220076,6,0,L|105:297,1,75.94999768219,2|0,0:0|0:0,0:0:0:0:
169,110,220310,2,0,L|274:94,1,75.94999768219,2|0,0:0|0:0,0:0:0:0:
84,53,220544,5,2,0:0:0:0:
163,4,220662,1,8,0:0:0:0:
239,57,220779,1,0,0:0:0:0:
319,9,220896,2,0,L|337:113,1,75.94999768219,2|0,0:0|0:0,0:0:0:0:
498,173,221130,6,0,P|464:124|372:90,1,108.5,4|0,0:0|0:0,0:0:0:0:
269,157,221365,1,2,0:0:0:0:
354,188,221482,2,0,P|424:171|474:124,1,108.5,2|8,0:0|0:0,0:0:0:0:
378,44,221715,2,0,P|359:99|363:158,1,108.5,2|0,0:0|0:0,0:0:0:0:
492,287,221951,6,0,P|466:252|406:225,1,75.94999768219,2|8,0:0|0:0,0:0:0:0:
372,294,222185,2,0,P|398:329|458:356,1,75.94999768219,2|0,0:0|0:0,0:0:0:0:
461,281,222419,1,2,0:0:0:0:
386,326,222537,6,0,L|263:346,1,92.2250017590523,4|0,0:0|0:0,0:0:0:0:
164,303,222771,2,0,L|72:288,1,92.2250017590523,2|2,0:0|0:0,0:0:0:0:
52,91,223005,6,0,P|128:166|43:265,1,217,4|0,0:1|0:0,0:0:0:0:
5,104,223357,2,0,P|28:35|90:-3,1,108.5,2|8,0:0|0:0,0:0:0:0:
224,9,223591,1,0,0:0:0:0:
309,69,223708,6,0,P|405:80|488:-40,1,217,4|0,0:1|0:0,0:0:0:0:
264,0,224060,2,0,P|286:73|272:141,1,108.5,2|0,0:0|0:0,0:0:0:0:
115,232,224294,5,2,0:0:0:0:
214,187,224412,1,4,0:1:0:0:
259,285,224529,1,2,0:0:0:0:
358,240,224646,1,2,0:0:0:0:
403,338,224763,1,2,0:0:0:0:
502,293,224880,6,0,B|384:277|384:277|283:328,1,217,4|2,0:1|0:0,0:0:0:0:
166,363,225232,2,0,P|231:344|282:282,1,108.5,2|8,0:0|0:0,0:0:0:0:
232,237,225466,2,0,P|193:281|178:334,1,108.5,4|0,0:1|0:1,0:1:0:0:
122,166,225701,6,0,P|109:112|116:42,1,108.5,4|0,0:1|0:0,0:0:0:0:
256,0,225935,1,2,0:3:0:0:
327,54,226052,1,2,0:3:0:0:
368,135,226169,6,2,L|319:166,1,54.25
369,228,226287,6,2,L|311:236,1,54.25
317,295,226404,6,2,L|265:268,1,54.25
235,318,226521,22,2,L|209:266,1,54.25
155,288,226638,6,2,L|164:230,1,54.25
88,224,226755,5,4,0:1:0:0:
61,137,227510,1,2,0:0:0:0:
115,17,227760,5,0,0:0:0:0:
70,83,227885,2,0,P|63:113|61:154,1,54.25,2|0,0:0|0:0,0:0:0:0:
97,170,228135,2,0,P|103:139|106:99,1,54.25,2|0,0:0|0:0,0:0:0:0:
19,204,228385,2,0,P|21:230|27:257,1,54.25,2|0,0:0|0:0,0:0:0:0:
41,288,228635,1,2,0:0:0:0:
99,345,228760,5,0,0:0:0:0:
258,270,229037,1,0,0:0:0:0:
429,311,229307,1,0,0:0:0:0:
246,264,229545,1,0,0:0:0:0:
358,229,229783,5,2,0:0:0:0:
401,171,229930,2,0,P|394:201|366:232,1,54.25,2|0,0:0|0:0,0:0:0:0:
284,176,230224,2,0,P|269:153|264:126,1,54.25,2|0,0:0|0:0,0:0:0:0:
215,66,230506,1,2,0:0:0:0:
84,39,230911,1,2,0:0:0:0:
45,177,231721,6,0,P|70:191|103:171,1,54.25
199,202,232049,2,0,P|147:187|96:201,1,108.5,2|0,0:0|0:0,0:0:0:0:
49,265,232786,1,0,0:0:0:0:
6,380,233191,5,2,0:0:0:0:
512,57,235615,1,0,0:0:0:0:
499,23,235766,1,2,0:0:0:0:
