osu file format v14

[General]
AudioFilename: powerless2.mp3
AudioLeadIn: 0
PreviewTime: 16291
Countdown: 0
SampleSet: Soft
StackLeniency: 0.3
Mode: 0
LetterboxInBreaks: 0
WidescreenStoryboard: 1

[Editor]
Bookmarks: 16758,31758,46758,76758,91758,106758,121758,127617,129258,136758,166758,181758,196758,211758,226760
DistanceSpacing: 0.4
BeatDivisor: 4
GridSize: 32
TimelineZoom: 1.4

[Metadata]
Title:Soleil
TitleUnicode:Soleil
Artist:Powerless
ArtistUnicode:Powerless
Creator:Lince Cosmico
Version:Reluisant Collaboration
Source:
Tags:diverse system AD AD: House 04 house modhelp mapping contest 3.5 mmc lince cosmico senramiura Muryokup maestrosplinter maestro splinter rinsa rin sa lunala miura Classical Instrumental rin_sa
BeatmapID:2008757
BeatmapSetID:773708

[Difficulty]
HPDrainRate:6
CircleSize:3.6
OverallDifficulty:8.4
ApproachRate:9.2
SliderMultiplier:2.6
SliderTickRate:1

[Events]
//Background and Video events
0,0,"cityscape 1920.jpg",0,0
//Break Periods
//Storyboard Layer 0 (Background)
//Storyboard Layer 1 (Fail)
//Storyboard Layer 2 (Pass)
//Storyboard Layer 3 (Foreground)
//Storyboard Layer 4 (Overlay)
//Storyboard Sound Samples

[TimingPoints]
1352,468.75,4,2,1,40,1,0
1352,-133.333333333333,4,2,1,40,0,0
14477,-90.9090909090909,4,2,1,40,0,0
15180,-200,4,2,1,40,0,0
15883,-100,4,2,1,40,0,0
16000,-100,4,2,1,45,0,0
16117,-100,4,2,1,50,0,0
16234,-100,4,2,1,55,0,0
16352,-50,4,2,1,60,0,1
16703,-66.6666666666667,4,2,1,60,0,1
17289,-50,4,2,1,60,0,0
17641,-66.6666666666667,4,2,1,60,0,0
17875,-100,4,2,1,60,0,0
18227,-66.6666666666667,4,2,1,60,0,0
18930,-50,4,2,1,60,0,0
19164,-66.6666666666667,4,2,1,60,0,0
19867,-100,4,2,1,60,0,0
20102,-50,4,2,1,60,0,0
20453,-66.6666666666667,4,2,1,60,0,0
21508,-100,4,2,1,60,0,0
21742,-66.6666666666667,4,2,1,60,0,0
21977,-50,4,2,1,60,0,0
22328,-66.6666666666667,4,2,1,60,0,0
23383,-100,4,2,1,60,0,0
23617,-66.6666666666667,4,2,1,60,0,0
23852,-50,4,2,1,60,0,1
23969,-50,4,2,1,60,0,0
24203,-66.6666666666667,4,2,1,60,0,0
24789,-50,4,2,1,60,0,0
25141,-66.6666666666667,4,2,1,60,0,0
25375,-100,4,2,1,60,0,0
25727,-66.6666666666667,4,2,1,60,0,0
27367,-100,4,2,1,60,0,0
27602,-50,4,2,1,60,0,1
28656,-66.6666666666667,4,2,1,60,0,1
29477,-66.6666666666667,4,2,1,60,0,0
29828,-100,4,2,1,60,0,0
30531,-66.6666666666667,4,2,1,60,0,0
30883,-100,4,2,1,60,0,0
31352,-50,4,2,1,60,0,1
31703,-66.6666666666667,4,2,1,60,0,1
32289,-50,4,2,1,60,0,0
32641,-66.6666666666667,4,2,1,60,0,0
32875,-100,4,2,1,60,0,0
33227,-66.6666666666667,4,2,1,60,0,0
33930,-55.5555555555556,4,2,1,60,0,0
34164,-66.6666666666667,4,2,1,60,0,0
34867,-100,4,2,1,60,0,0
35102,-50,4,2,1,60,0,0
35453,-66.6666666666667,4,2,1,60,0,0
36508,-100,4,2,1,60,0,0
36742,-66.6666666666667,4,2,1,60,0,0
36977,-50,4,2,1,60,0,0
37328,-66.6666666666667,4,2,1,60,0,0
38383,-100,4,2,1,60,0,0
38617,-66.6666666666667,4,2,1,60,0,0
38852,-50,4,2,1,60,0,1
39203,-66.6666666666667,4,2,1,60,0,1
39789,-50,4,2,1,60,0,0
40141,-66.6666666666667,4,2,1,60,0,0
40375,-100,4,2,1,60,0,0
40727,-66.6666666666667,4,2,1,60,0,0
42367,-100,4,2,1,60,0,0
42602,-50,4,2,1,60,0,1
43656,-66.6666666666667,4,2,1,60,0,1
44477,-66.6666666666667,4,2,1,60,0,0
44828,-100,4,2,1,60,0,0
45531,-83.3333333333333,4,2,1,60,0,0
47055,-100,4,2,1,60,0,0
47641,-83.3333333333333,4,2,1,60,0,0
48227,-100,4,2,1,60,0,0
48578,-83.3333333333333,4,2,1,60,0,0
48812,-100,4,2,1,60,0,0
49164,-83.3333333333333,4,2,1,60,0,0
49750,-100,4,2,1,60,0,0
50102,-66.6666666666667,4,2,1,60,0,0
50922,-100,4,2,1,60,0,0
51977,-83.3333333333333,4,2,1,60,0,0
52328,-100,4,2,1,60,0,0
52914,-83.3333333333333,4,2,1,60,0,0
54555,-100,4,2,1,60,0,0
55141,-83.3333333333333,4,2,1,60,0,0
55727,-100,4,2,1,60,0,0
56078,-83.3333333333333,4,2,1,60,0,0
56664,-100,4,2,1,60,0,0
57016,-66.6666666666667,4,2,1,60,0,0
57250,-83.3333333333333,4,2,1,60,0,0
57602,-66.6666666666667,4,2,1,60,0,0
58422,-100,4,2,1,60,0,0
59477,-83.3333333333333,4,2,1,60,0,0
59828,-100,4,2,1,60,0,0
60531,-66.6666666666667,4,2,1,60,0,0
60766,-83.3333333333333,4,2,1,60,0,0
61000,-100,4,2,1,60,0,0
61352,-83.3333333333333,4,2,1,60,0,0
63578,-100,4,2,1,60,0,0
63812,-83.3333333333333,4,2,1,60,0,0
64750,-100,4,2,1,60,0,0
65102,-66.6666666666667,4,2,1,60,0,0
65922,-83.3333333333333,4,2,1,60,0,0
66508,-66.6666666666667,4,2,1,60,0,0
66742,-100,4,2,1,60,0,0
66977,-83.3333333333333,4,2,1,60,0,0
67328,-100,4,2,1,60,0,0
67914,-83.3333333333333,4,2,1,60,0,0
68383,-100,4,2,1,60,0,0
68852,-66.6666666666667,4,2,1,60,0,0
69203,-83.3333333333333,4,2,1,60,0,0
70375,-100,4,2,1,60,0,0
71664,-83.3333333333333,4,2,1,60,0,0
72016,-100,4,2,1,60,0,0
72602,-66.6666666666667,4,2,1,60,0,0
72953,-100,4,2,1,60,0,0
73539,-83.3333333333333,4,2,1,60,0,0
73891,-66.6666666666667,4,2,1,60,0,0
74828,-100,4,2,1,60,0,0
75414,-66.6666666666667,4,2,1,60,0,0
75883,-100,4,2,1,60,0,0
76352,-50,4,2,1,60,0,1
76703,-66.6666666666667,4,2,1,60,0,1
77289,-50,4,2,1,60,0,0
77641,-66.6666666666667,4,2,1,60,0,0
77875,-100,4,2,1,60,0,0
78227,-66.6666666666667,4,2,1,60,0,0
79867,-100,4,2,1,60,0,0
80102,-50,4,2,1,60,0,0
80453,-66.6666666666667,4,2,1,60,0,0
81977,-50,4,2,1,60,0,0
82328,-66.6666666666667,4,2,1,60,0,0
82680,-83.3333333333333,4,2,1,60,0,0
83148,-100,4,2,1,60,0,0
83617,-66.6666666666667,4,2,1,60,0,0
83852,-50,4,2,1,60,0,1
83969,-50,4,2,1,60,0,0
84203,-66.6666666666667,4,2,1,60,0,0
84789,-50,4,2,1,60,0,0
85141,-66.6666666666667,4,2,1,60,0,0
85375,-100,4,2,1,60,0,0
85727,-66.6666666666667,4,2,1,60,0,0
87016,-100,4,2,1,60,0,0
87367,-66.6666666666667,4,2,1,60,0,0
87602,-50,4,2,1,60,0,1
88656,-66.6666666666667,4,2,1,60,0,1
89477,-66.6666666666667,4,2,1,60,0,0
89828,-100,4,2,1,60,0,0
90531,-66.6666666666667,4,2,1,60,0,0
91352,-50,4,2,1,60,0,1
91820,-66.6666666666667,4,2,1,60,0,1
92289,-50,4,2,1,60,0,0
92641,-66.6666666666667,4,2,1,60,0,0
92992,-100,4,2,1,60,0,0
93227,-66.6666666666667,4,2,1,60,0,0
94867,-100,4,2,1,60,0,0
95102,-50,4,2,1,60,0,0
95453,-66.6666666666667,4,2,1,60,0,0
96977,-50,4,2,1,60,0,0
97328,-66.6666666666667,4,2,1,60,0,0
98383,-100,4,2,1,60,0,0
98617,-66.6666666666667,4,2,1,60,0,0
98852,-50,4,2,1,60,0,1
99086,-50,4,2,1,60,0,0
99203,-66.6666666666667,4,2,1,60,0,0
99789,-50,4,2,1,60,0,0
100141,-66.6666666666667,4,2,1,60,0,0
100492,-100,4,2,1,60,0,0
100727,-66.6666666666667,4,2,1,60,0,0
102367,-100,4,2,1,60,0,0
102602,-50,4,2,1,60,0,1
103656,-66.6666666666667,4,2,1,60,0,1
104477,-66.6666666666667,4,2,1,60,0,0
104828,-100,4,2,1,60,0,0
105766,-66.6666666666667,4,2,1,60,0,0
106117,-100,4,2,1,60,0,0
106352,-133.333333333333,4,2,1,30,0,0
107289,-200,4,2,1,30,0,0
109486,-133.333333333333,4,2,1,30,0,0
111977,-200,4,2,1,30,0,0
113852,-133.333333333333,4,2,1,40,0,0
119477,-90.9090909090909,4,2,1,40,0,0
121352,-83.3333333333333,4,2,1,40,0,0
121703,-100,4,2,1,40,0,0
122992,-66.6666666666667,4,2,1,40,0,0
123227,-83.3333333333333,4,2,1,40,0,0
123695,-100,4,2,1,40,0,0
124867,-66.6666666666667,4,2,1,40,0,0
125922,-100,4,2,1,40,0,0
127211,-50,4,2,1,40,0,0
127562,-66.6666666666667,4,2,1,40,0,0
127914,-50,4,2,1,40,0,0
128266,-66.6666666666667,4,2,1,40,0,0
128852,-66.6666666666667,4,2,1,40,0,0
129203,-100,4,2,1,40,0,0
129555,-83.3333333333333,4,2,1,40,0,0
130023,-100,4,2,1,40,0,0
130609,-69.4444444444444,4,2,1,40,0,0
130883,-83.3333333333333,4,2,1,40,0,0
131195,-100,4,2,1,40,0,0
132133,-66.6666666666667,4,2,1,40,0,0
132367,-83.3333333333333,4,2,1,40,0,0
132953,-100,4,2,1,40,0,0
133305,-83.3333333333333,4,2,1,40,0,0
134008,-100,4,2,1,40,0,0
134477,-83.3333333333333,4,2,1,40,0,0
134945,-100,4,2,1,40,0,0
136352,-100,4,2,1,50,0,1
140102,-90.9090909090909,4,2,1,50,0,0
140922,-133.333333333333,4,2,1,50,0,0
141156,-90.9090909090909,4,2,1,50,0,0
141977,-100,4,2,1,55,0,0
143617,-100,4,2,1,60,0,0
143852,-90.9090909090909,4,2,1,60,0,0
145727,-90.9090909090909,4,2,1,40,0,0
147602,-66.6666666666667,4,2,1,40,0,1
147719,-66.6666666666667,4,2,1,40,0,0
148070,-66.6666666666667,4,2,1,40,0,1
148187,-66.6666666666667,4,2,1,40,0,0
149477,-100,4,2,1,20,0,1
149828,-83.3333333333333,4,2,1,30,0,1
150180,-71.4285714285714,4,2,1,40,0,1
150531,-90.9090909090909,4,2,1,50,0,1
151352,-133.333333333333,4,2,1,30,0,0
158852,-133.333333333333,4,2,1,40,0,0
164477,-90.9090909090909,4,2,1,40,0,0
165180,-200,4,2,1,40,0,0
165883,-100,4,2,1,40,0,0
166000,-100,4,2,1,45,0,0
166117,-100,4,2,1,50,0,0
166234,-100,4,2,1,55,0,0
166352,-50,4,2,1,60,0,1
166703,-66.6666666666667,4,2,1,60,0,1
167289,-66.6666666666667,4,2,1,60,0,0
167406,-50,4,2,1,60,0,0
167641,-66.6666666666667,4,2,1,60,0,0
167875,-100,4,2,1,60,0,0
168227,-66.6666666666667,4,2,1,60,0,0
168930,-50,4,2,1,60,0,0
169281,-66.6666666666667,4,2,1,60,0,0
169750,-100,4,2,1,60,0,0
170102,-50,4,2,1,60,0,0
170570,-66.6666666666667,4,2,1,60,0,0
171508,-100,4,2,1,60,0,0
171742,-66.6666666666667,4,2,1,60,0,0
171977,-50,4,2,1,60,0,0
172328,-66.6666666666667,4,2,1,60,0,0
173383,-100,4,2,1,60,0,0
173617,-66.6666666666667,4,2,1,60,0,0
173852,-50,4,2,1,60,0,1
173969,-50,4,2,1,60,0,0
174203,-66.6666666666667,4,2,1,60,0,0
174789,-50,4,2,1,60,0,0
175141,-66.6666666666667,4,2,1,60,0,0
175375,-100,4,2,1,60,0,0
175727,-66.6666666666667,4,2,1,60,0,0
177367,-100,4,2,1,60,0,0
177602,-50,4,2,1,60,0,1
178656,-66.6666666666667,4,2,1,60,0,1
179477,-66.6666666666667,4,2,1,60,0,0
179828,-100,4,2,1,60,0,0
180648,-66.6666666666667,4,2,1,60,0,0
180883,-100,4,2,1,60,0,0
181352,-50,4,2,1,60,0,1
181703,-66.6666666666667,4,2,1,60,0,1
182289,-50,4,2,1,60,0,0
182641,-66.6666666666667,4,2,1,60,0,0
182992,-100,4,2,1,60,0,0
183227,-66.6666666666667,4,2,1,60,0,0
184867,-100,4,2,1,60,0,0
185102,-55.5555555555556,4,2,1,60,0,0
185453,-66.6666666666667,4,2,1,60,0,0
186977,-50,4,2,1,60,0,0
187328,-66.6666666666667,4,2,1,60,0,0
187680,-50,4,2,1,60,0,0
188031,-66.6666666666667,4,2,1,60,0,0
188383,-100,4,2,1,60,0,0
188617,-66.6666666666667,4,2,1,60,0,0
188852,-50,4,2,1,60,0,1
189203,-66.6666666666667,4,2,1,60,0,1
189789,-50,4,2,1,60,0,0
190141,-66.6666666666667,4,2,1,60,0,0
190492,-100,4,2,1,60,0,0
190727,-66.6666666666667,4,2,1,60,0,0
192016,-100,4,2,1,60,0,0
192602,-50,4,2,1,60,0,1
193656,-66.6666666666667,4,2,1,60,0,1
194477,-66.6666666666667,4,2,1,60,0,0
194828,-100,4,2,1,60,0,0
195531,-66.6666666666667,4,2,1,60,0,0
196352,-50,4,2,1,60,0,0
196937,-66.6666666666667,4,2,1,60,0,0
197172,-100,4,2,1,60,0,0
197992,-83.3333333333333,4,2,1,60,0,0
198344,-100,4,2,1,60,0,0
198695,-83.3333333333333,4,2,1,60,0,0
199047,-100,4,2,1,60,0,0
199516,-66.6666666666667,4,2,1,60,0,0
200102,-66.6666666666667,4,2,1,60,0,0
201977,-50,4,2,1,60,0,0
202328,-66.6666666666667,4,2,1,60,0,0
203148,-100,4,2,1,60,0,0
203852,-66.6666666666667,4,2,1,60,0,1
206781,-50,4,2,1,60,0,1
207016,-100,4,2,1,60,0,1
207367,-66.6666666666667,4,2,1,60,0,1
207602,-100,4,2,1,60,0,0
209477,-100,4,2,1,60,0,1
209594,-66.6666666666667,4,2,1,60,0,1
210648,-66.6666666666667,4,2,1,60,0,0
211352,-66.6666666666667,4,2,1,60,0,1
212641,-50,4,2,1,60,0,0
212758,-66.6666666666667,4,2,1,60,0,0
212992,-100,4,2,1,60,0,0
213227,-66.6666666666667,4,2,1,60,0,1
214516,-50,4,2,1,60,0,0
214867,-100,4,2,1,60,0,0
215102,-66.6666666666667,4,2,1,60,0,1
216391,-66.6666666666667,4,2,1,60,0,0
216508,-50,4,2,1,60,0,0
217328,-66.6666666666667,4,2,1,60,0,0
217680,-100,4,2,1,60,0,0
218031,-66.6666666666667,4,2,1,60,0,0
218383,-100,4,2,1,60,0,0
218617,-66.6666666666667,4,2,1,60,0,0
218852,-50,4,2,1,60,0,0
219203,-66.6666666666667,4,2,1,60,0,0
221078,-50,4,2,1,60,0,0
221430,-66.6666666666667,4,2,1,60,0,0
222602,-50,4,2,1,60,0,1
223656,-66.6666666666667,4,2,1,60,0,1
224477,-66.6666666666667,4,2,1,60,0,0
224828,-100,4,2,1,60,0,0
225531,-66.6666666666667,4,2,1,60,0,0
226354,500,4,2,1,40,1,0
228354,555.555555555556,4,2,1,5,1,0
228631,540.540540540541,4,2,1,5,1,0
228901,476.190476190476,4,2,1,5,1,0
229377,588.235294117647,4,2,1,5,1,0
229965,540.540540540541,4,2,1,5,1,0
230505,576.923076923077,4,2,1,5,1,0
231081,468.75,4,2,1,5,1,0
231315,405.405405405405,4,2,1,5,1,0
231416,454.545454545455,4,2,1,5,1,0
231643,670.391061452514,4,2,1,5,1,0
231978,805.369127516779,4,2,1,5,1,0
232380,810.810810810811,4,2,1,5,1,0
232785,606.060606060606,4,2,1,5,1,0
233391,-100,4,2,1,15,0,0
233997,-100,4,2,1,25,0,0
234603,-100,4,2,1,35,0,0
235209,-100,4,2,1,45,0,0
235815,-100,4,2,1,55,0,0
236421,-100,4,2,1,65,0,0
237027,-100,4,2,1,75,0,0
237481,-100,4,2,1,5,0,0

[Colours]
Combo1 : 62,211,219
Combo2 : 233,126,39
Combo3 : 143,208,36
Combo4 : 250,210,52

[HitObjects]
436,360,1352,54,0,P|475:353|496:298,1,97.50000371933,4|0,0:0|0:0,0:0:0:0:
497,303,1703,1,0,0:0:0:0:
356,327,1937,1,0,0:0:0:0:
356,327,2172,1,0,0:0:0:0:
356,327,2406,1,0,0:0:0:0:
418,277,2641,2,0,P|420:223|381:199,1,97.50000371933,0|0,0:0|0:0,0:0:0:0:
388,200,2992,1,0,0:0:0:0:
256,320,3227,22,0,P|203:329|149:341,1,97.50000371933,4|0,0:0|0:0,0:0:0:0:
160,338,3578,1,0,0:0:0:0:
6,248,3812,1,0,0:0:0:0:
6,248,4047,1,0,0:0:0:0:
6,248,4281,1,0,0:0:0:0:
162,251,4516,2,0,P|115:223|66:198,1,97.50000371933,0|0,0:0|0:0,0:0:0:0:
76,203,4867,1,0,0:0:0:0:
51,7,5102,22,0,P|15:24|10:83,1,97.50000371933,4|0,0:0|0:0,0:0:0:0:
7,77,5453,1,0,0:0:0:0:
136,16,5687,1,0,0:0:0:0:
136,16,5922,1,0,0:0:0:0:
136,16,6156,1,0,0:0:0:0:
91,81,6391,2,0,P|103:133|148:145,1,97.50000371933,0|0,0:0|0:0,0:0:0:0:
140,146,6742,1,0,0:0:0:0:
255,224,6977,22,0,P|302:213|350:205,1,97.50000371933,4|0,0:0|0:0,0:0:0:0:
350,205,7328,1,0,0:0:0:0:
449,57,7562,1,0,0:0:0:0:
449,57,7797,1,0,0:0:0:0:
449,57,8031,1,0,0:0:0:0:
429,166,8266,2,0,P|398:123|345:126,1,97.50000371933,0|0,0:0|0:0,0:0:0:0:
356,120,8617,1,0,0:0:0:0:
228,275,8852,22,0,P|175:291|146:326,1,97.50000371933,6|0,0:0|0:0,0:0:0:0:
148,321,9203,1,8,0:0:0:0:
77,185,9437,1,2,0:0:0:0:
78,277,9555,2,0,P|91:231|77:185,1,97.50000371933,8|0,0:0|0:0,0:0:0:0:
244,50,10023,1,2,0:0:0:0:
245,50,10141,2,0,P|228:32|224:9,1,48.750001859665,8|0,0:0|0:0,0:0:0:0:
142,51,10375,1,2,0:0:0:0:
142,51,10493,2,0,P|158:69|163:93,1,48.750001859665,8|0,0:0|0:0,0:0:0:0:
290,220,10727,22,0,P|337:210|389:207,1,97.50000371933,6|0,0:0|0:0,0:0:0:0:
386,207,11078,1,8,0:0:0:0:
243,50,11312,1,2,0:0:0:0:
303,127,11430,2,0,P|270:90|242:47,1,97.50000371933,8|0,0:0|0:0,0:0:0:0:
461,246,11898,1,2,0:0:0:0:
461,246,12016,2,0,P|468:223|482:201,1,48.750001859665,8|0,0:0|0:0,0:0:0:0:
405,162,12250,1,2,0:0:0:0:
405,162,12368,2,0,P|398:184|382:211,1,48.750001859665,8|0,0:0|0:0,0:0:0:0:
217,301,12602,22,0,P|175:277|125:262,1,97.50000371933,6|0,0:0|0:0,0:0:0:0:
128,262,12953,1,8,0:0:0:0:
19,173,13187,1,2,0:0:0:0:
106,130,13305,2,0,P|60:146|16:175,1,97.50000371933,8|0,0:0|0:0,0:0:0:0:
260,107,13773,1,2,0:0:0:0:
260,107,13891,2,0,P|236:102|213:90,1,48.750001859665,8|0,0:0|0:0,0:0:0:0:
182,171,14125,1,2,0:0:0:0:
182,171,14243,2,0,P|204:175|233:188,1,48.750001859665,8|0,0:0|0:0,0:0:0:0:
262,265,14477,22,0,L|263:338,1,71.5000021820069,2|2,0:0|0:0,0:0:0:0:
173,300,14711,1,12,0:0:0:0:
351,300,14828,1,2,0:0:0:0:
351,300,15062,21,2,0:0:0:0:
173,300,15180,2,0,L|13:303,1,130,12|0,0:0|0:0,0:0:0:0:
256,178,15883,22,0,L|256:210,6,32.5,0|0|0|0|4|4|4,0:0|0:0|0:0|0:0|0:0|0:0|0:0,0:0:0:0:
256,178,16352,38,0,P|267:74|341:147,1,260,6|0,0:0|0:0,0:0:0:0:
439,231,16703,22,0,L|342:240,1,97.50000371933,8|0,0:0|0:0,0:0:0:0:
245,301,16937,1,2,0:0:0:0:
252,334,17055,2,0,L|154:325,1,97.50000371933,8|0,0:0|0:0,0:0:0:0:
78,230,17289,21,2,0:0:0:0:
28,338,17406,2,0,P|74:294|78:230,1,130,8|0,0:0|0:0,0:0:0:0:
168,216,17641,22,0,P|149:172|109:145,1,97.50000371933,8|0,0:0|0:0,0:0:0:0:
18,163,17875,22,0,P|46:146|78:140,1,65,2|8,0:0|0:0,0:0:0:0:
107,54,18109,1,8,0:0:0:0:
12,19,18227,22,0,L|207:36,1,195.00000743866,6|0,0:0|0:0,0:0:0:0:
304,108,18578,2,0,L|295:10,1,97.50000371933,8|0,0:0|0:0,0:0:0:0:
307,140,18812,1,2,0:0:0:0:
388,20,18930,22,0,P|452:15|506:55,1,130,8|0,0:0|0:0,0:0:0:0:
419,199,19164,1,2,0:0:0:0:
428,102,19281,22,0,L|418:199,1,97.50000371933,8|0,0:0|0:0,0:0:0:0:
405,295,19516,2,0,L|418:199,1,97.50000371933,8|0,0:0|0:0,0:0:0:0:
230,216,19750,1,2,0:0:0:0:
263,213,19867,22,0,L|328:208,1,65,8|0,0:0|0:0,0:0:0:0:
249,305,20102,22,0,B|202:317|159:286|145:248|145:248|130:206|84:181|41:192,1,260,6|0,0:0|0:0,0:0:0:0:
61,281,20453,1,8,0:0:0:0:
141,197,20570,22,0,P|98:170|50:167,1,97.50000371933,2|0,0:0|0:0,0:0:0:0:
0,67,20805,2,0,L|97:76,1,97.50000371933,8|0,0:0|0:0,0:0:0:0:
277,92,21039,21,2,0:0:0:0:
191,119,21156,2,0,B|176:66|211:28|211:28|264:42|280:99,1,195.00000743866,8|8,0:0|0:0,0:0:0:0:
315,181,21508,22,0,L|251:187,1,65,2|2,0:0|0:0,0:0:0:0:
368,107,21742,22,0,L|485:117,1,97.50000371933,8|2,0:0|0:0,0:0:0:0:
462,336,21977,22,0,B|398:321|373:245|408:202|408:202|460:205|481:248,1,260,6|0,0:0|0:0,0:0:0:0:
342,364,22328,22,0,P|302:276|314:181,1,195.00000743866,12|0,0:0|0:0,0:0:0:0:
368,107,22680,22,0,P|399:143|405:191,1,97.50000371933,8|0,0:0|0:0,0:0:0:0:
219,189,22914,1,2,0:0:0:0:
211,97,23031,2,0,L|202:0,1,97.50000371933,8|0,0:0|0:0,0:0:0:0:
39,141,23266,1,8,0:0:0:0:
72,144,23383,22,0,L|137:149,1,65,2|0,0:0|0:0,0:0:0:0:
124,284,23617,22,0,P|93:247|48:233,1,97.50000371933,2|0,0:0|0:0,0:0:0:0:
117,381,23852,22,0,P|149:289|324:265,1,260,6|0,0:0|0:0,0:0:0:0:
388,384,24203,22,0,L|380:287,1,97.50000371933,8|0,0:0|0:0,0:0:0:0:
494,164,24437,1,2,0:0:0:0:
491,197,24555,2,0,L|483:295,1,97.50000371933,8|0,0:0|0:0,0:0:0:0:
294,250,24789,21,2,0:0:0:0:
399,197,24906,2,0,P|336:203|294:251,1,130,8|0,0:0|0:0,0:0:0:0:
213,292,25141,22,0,P|246:328|292:343,1,97.50000371933,8|0,0:0|0:0,0:0:0:0:
220,201,25375,22,0,P|206:232|205:264,1,65,2|8,0:0|0:0,0:0:0:0:
301,161,25609,1,8,0:0:0:0:
294,250,25727,22,0,B|328:214|328:214|315:69,1,195.00000743866,6|0,0:0|0:0,0:0:0:0:
127,67,26078,1,8,0:0:0:0:
131,99,26195,2,0,L|229:106,1,97.50000371933,2|0,0:0|0:0,0:0:0:0:
418,184,26430,21,8,0:0:0:0:
410,92,26547,1,8,0:0:0:0:
402,0,26664,1,8,0:0:0:0:
440,83,26781,22,0,P|480:46|492:-4,1,97.50000371933,2|0,0:0|0:0,0:0:0:0:
321,113,27016,2,0,P|344:155|385:179,1,97.50000371933,2|0,0:0|0:0,0:0:0:0:
512,257,27250,1,2,0:0:0:0:
481,260,27367,22,0,L|416:265,1,65,8|0,0:0|0:0,0:0:0:0:
302,237,27602,22,0,P|310:341|386:270,1,260,12|0,0:0|0:0,0:0:0:0:
219,191,27953,22,0,P|189:248|185:312,1,130,2|0,0:0|0:0,0:0:0:0:
0,165,28187,1,2,0:0:0:0:
84,134,28305,22,0,P|75:238|0:166,1,260,12|0,0:0|0:0,0:0:0:0:
97,44,28656,22,0,L|0:36,2,97.50000371933,2|0|8,0:0|0:0|0:0,0:0:0:0:
178,0,29008,21,8,0:0:0:0:
200,122,29125,1,8,0:0:0:0:
201,17,29242,21,2,0:0:0:0:
177,105,29359,1,2,0:0:0:0:
286,93,29477,22,0,L|480:76,1,195.00000743866,12|0,0:0|0:0,0:0:0:0:
386,236,29828,22,0,P|367:210|359:179,1,65,10|0,0:0|0:0,0:0:0:0:
475,258,30062,2,0,P|462:287|440:311,1,65,10|0,0:0|0:0,0:0:0:0:
449,170,30297,2,0,P|481:167|512:174,1,65,10|0,0:0|0:0,0:0:0:0:
349,320,30531,21,2,0:0:0:0:
258,313,30648,2,0,L|161:305,1,97.50000371933,8|0,0:0|0:0,0:0:0:0:
120,224,30883,22,0,L|76:227,2,43.3333333333333,2|2|2,0:0|0:0|0:0,0:0:0:0:
211,217,31117,21,4,0:0:0:0:
227,215,31195,1,4,0:0:0:0:
243,214,31273,1,4,0:0:0:0:
259,212,31352,38,0,P|302:160|177:142,1,260,6|0,0:0|0:0,0:0:0:0:
65,161,31703,2,0,P|81:212|130:221,1,97.50000371933,8|0,0:0|0:0,0:0:0:0:
169,320,31937,1,2,0:0:0:0:
176,328,32055,2,0,P|228:339|260:301,1,97.50000371933,8|0,0:0|0:0,0:0:0:0:
358,216,32289,21,2,0:0:0:0:
425,306,32406,2,0,P|416:247|357:216,1,130,8|0,0:0|0:0,0:0:0:0:
370,368,32641,22,0,P|415:351|435:308,1,97.50000371933,8|0,0:0|0:0,0:0:0:0:
284,336,32875,22,0,P|303:362|333:375,1,65,2|8,0:0|0:0,0:0:0:0:
425,306,33109,1,8,0:0:0:0:
259,212,33227,22,0,P|163:194|53:168,1,195.00000743866,6|0,0:0|0:0,0:0:0:0:
189,286,33578,1,8,0:0:0:0:
127,331,33695,2,0,P|92:312|95:255,1,97.50000371933,0|2,0:0|0:0,0:0:0:0:
172,114,33930,2,0,P|165:64|146:-16,1,116.999996429443,8|8,0:0|0:0,0:0:0:0:
151,0,34164,1,2,0:0:0:0:
335,48,34281,22,0,P|335:99|296:131,1,97.50000371933,8|0,0:0|0:0,0:0:0:0:
259,212,34516,22,0,P|258:160|297:128,1,97.50000371933,8|0,0:0|0:0,0:0:0:0:
418,266,34750,1,2,0:0:0:0:
353,312,34867,2,0,P|315:306|291:276,1,65,8|0,0:0|0:0,0:0:0:0:
251,78,35102,22,0,B|183:9|81:60|81:60|122:66|142:98,1,260,6|0,0:0|0:0,0:0:0:0:
71,138,35453,2,0,P|57:167|67:136,1,97.50000371933,8|2,0:0|0:0,0:0:0:0:
251,78,35687,21,0,0:0:0:0:
251,78,35805,2,0,P|264:48|247:76,1,97.50000371933,8|0,0:0|0:0,0:0:0:0:
178,177,36039,1,2,0:0:0:0:
359,238,36156,2,0,L|148:178,1,195.00000743866,8|0,0:0|0:0,0:0:0:0:
365,246,36508,22,0,P|366:276|345:304,1,65,2|2,0:0|0:0,0:0:0:0:
323,138,36742,22,0,P|361:105|417:121,1,97.50000371933,8|2,0:0|0:0,0:0:0:0:
224,250,36977,22,0,P|103:225|123:111,1,260,6|0,0:0|0:0,0:0:0:0:
38,17,37328,2,0,P|31:104|119:114,1,195.00000743866,12|0,0:0|0:0,0:0:0:0:
178,177,37680,2,0,P|214:153|209:96,1,97.50000371933,8|0,0:0|0:0,0:0:0:0:
213,102,37914,21,2,0:0:0:0:
141,258,38031,2,0,P|94:263|61:230,1,97.50000371933,8|0,0:0|0:0,0:0:0:0:
0,144,38266,21,2,0:0:0:0:
6,136,38383,2,0,P|37:130|89:111,1,65,2|0,0:0|0:0,0:0:0:0:
224,250,38617,2,0,P|259:256|318:278,1,97.50000371933,2|0,0:0|0:0,0:0:0:0:
505,108,38852,22,0,P|533:188|397:192,1,260,6|0,0:0|0:0,0:0:0:0:
427,92,39203,2,0,P|472:78|512:103,1,97.50000371933,8|0,0:0|0:0,0:0:0:0:
330,86,39437,1,2,0:0:0:0:
322,77,39555,2,0,P|332:30|374:8,1,97.50000371933,8|0,0:0|0:0,0:0:0:0:
289,195,39789,21,2,0:0:0:0:
182,236,39906,2,0,P|245:240|290:193,1,130,8|0,0:0|0:0,0:0:0:0:
130,163,40141,22,0,P|136:211|173:240,1,97.50000371933,8|0,0:0|0:0,0:0:0:0:
166,95,40375,22,0,P|139:112|127:142,1,65,2|8,0:0|0:0,0:0:0:0:
182,236,40609,1,8,0:0:0:0:
322,77,40727,22,0,P|310:173|289:269,1,195.00000743866,2|0,0:0|0:0,0:0:0:0:
235,327,41078,1,8,0:0:0:0:
133,225,41312,21,0,0:0:0:0:
153,47,41430,2,0,L|141:155,1,97.50000371933,8|8,0:0|0:0,0:0:0:0:
133,225,41664,1,8,0:0:0:0:
67,178,41781,22,0,P|29:159|28:94,1,97.50000371933,8|2,0:0|0:0,0:0:0:0:
190,345,42016,2,0,P|127:334|155:215,1,195.00000743866,8|2,0:0|0:0,0:0:0:0:
139,230,42367,2,0,P|181:214|212:228,1,65,8|8,0:0|0:0,0:0:0:0:
370,367,42602,22,0,P|395:272|295:320,1,260,12|0,0:0|0:0,0:0:0:0:
294,315,42953,1,2,0:0:0:0:
401,114,43187,21,2,0:0:0:0:
494,76,43305,2,0,P|485:181|401:117,1,260,12|0,0:0|0:0,0:0:0:0:
330,76,43656,2,0,P|267:54|208:161,1,195.00000743866,0|8,0:0|0:0,0:0:0:0:
266,220,44008,21,8,0:0:0:0:
311,326,44125,1,8,0:0:0:0:
282,230,44242,21,2,0:0:0:0:
294,315,44359,1,2,0:0:0:0:
211,278,44477,22,0,B|145:278|130:224|151:217|128:163|65:163,1,195.00000743866,12|0,0:0|0:0,0:0:0:0:
60,244,44828,2,0,P|21:262|14:298,1,65,10|0,0:0|0:0,0:0:0:0:
195,141,45062,2,0,P|170:105|133:105,2,65,10|0|10,0:0|0:0|0:0,0:0:0:0:
294,315,45531,21,2,0:0:0:0:
359,270,45648,1,8,0:0:0:0:
434,300,45766,22,0,L|446:342,2,38.9999988098145,0|0|0,0:0|0:0|0:0,0:0:0:0:
488,233,46000,1,2,0:0:0:0:
279,141,46117,1,0,0:0:0:0:
282,121,46176,1,0,0:0:0:0:
284,102,46234,1,0,0:0:0:0:
287,83,46293,1,0,0:0:0:0:
290,64,46351,1,0,0:0:0:0:
313,283,46703,38,0,P|238:267|174:308,1,155.999995239258,2|0,0:0|0:0,0:0:0:0:
91,275,47055,22,0,L|96:210,1,65,8|0,0:0|0:0,0:0:0:0:
105,119,47289,1,2,0:0:0:0:
105,119,47641,22,0,L|-3:128,2,77.999997619629,2|0|0,0:0|0:0|0:0,0:0:0:0:
170,54,47992,2,0,P|190:87|195:125,1,77.999997619629,8|0,0:0|0:0,0:0:0:0:
186,214,48227,22,0,L|315:225,1,130,2|0,0:0|0:0,0:0:0:0:
348,228,48578,22,0,P|327:261|322:299,1,77.999997619629,2|0,0:0|0:0,0:0:0:0:
421,384,48812,21,0,0:0:0:0:
418,355,48930,2,0,L|412:291,1,65,2|0,0:0|0:0,0:0:0:0:
465,218,49164,22,0,P|491:246|502:283,2,77.999997619629,8|0|0,0:0|0:0|0:0,0:0:0:0:
400,154,49516,2,0,L|392:69,1,77.999997619629,2|0,0:0|0:0,0:0:0:0:
507,33,49750,22,0,P|450:61|389:44,1,130,14|0,0:0|0:0,0:0:0:0:
294,0,50102,22,0,L|304:97,1,97.50000371933,2|0,0:0|0:0,0:0:0:0:
312,188,50336,1,8,0:0:0:0:
212,79,50453,2,0,P|166:61|119:70,1,97.50000371933,2|0,0:0|0:0,0:0:0:0:
148,250,50687,2,0,L|157:152,1,97.50000371933,2|0,0:0|0:0,0:0:0:0:
38,287,50922,22,0,L|168:275,2,130,2|8|2,0:0|0:0|0:0,0:0:0:0:
266,342,51625,1,2,0:0:0:0:
262,311,51742,2,0,L|255:246,1,65,8|0,0:0|0:0,0:0:0:0:
301,122,51977,22,0,P|329:192|400:219,1,155.999995239258,6|0,0:0|0:0,0:0:0:0:
494,194,52328,2,0,L|487:258,2,65,8|2|0,0:0|0:0|0:0,0:0:0:0:
502,102,52680,2,0,L|509:38,1,65,8|0,0:0|0:0,0:0:0:0:
325,83,52914,21,2,0:0:0:0:
363,1,53031,1,2,0:0:0:0:
415,75,53148,2,0,B|410:122|410:122|406:126|406:126|414:127|414:127|410:130|410:130|405:182,2,116.999996429443,4|4|4,0:0|0:0|0:0,0:0:0:0:
234,91,53617,22,0,L|157:98,1,77.999997619629,8|0,0:0|0:0,0:0:0:0:
287,165,53852,1,2,0:0:0:0:
287,165,54203,22,0,P|235:221|239:297,1,155.999995239258,2|0,0:0|0:0,0:0:0:0:
351,310,54555,22,0,L|346:375,1,65,8|0,0:0|0:0,0:0:0:0:
360,219,54789,1,2,0:0:0:0:
360,219,55141,22,0,L|451:212,2,77.999997619629,2|8|0,0:0|0:0|0:0,0:0:0:0:
370,126,55492,2,0,L|292:131,1,77.999997619629,8|0,0:0|0:0,0:0:0:0:
206,85,55727,22,0,L|194:214,1,130,6|0,0:0|0:0,0:0:0:0:
186,306,56078,22,0,P|149:294|120:267,2,77.999997619629,2|8|0,0:0|0:0|0:0,0:0:0:0:
269,269,56430,2,0,P|277:306|268:344,1,77.999997619629,2|0,0:0|0:0,0:0:0:0:
193,214,56664,22,0,P|224:187|321:194,1,130,2|0,0:0|0:0,0:0:0:0:
360,263,57016,22,0,L|458:255,1,97.50000371933,2|8,0:0|0:0,0:0:0:0:
353,93,57250,22,0,L|276:87,2,77.999997619629,0|8|0,0:0|0:0|0:0,0:0:0:0:
437,164,57602,22,0,P|441:116|467:76,1,97.50000371933,2|0,0:0|0:0,0:0:0:0:
402,16,57836,1,8,0:0:0:0:
334,119,57953,2,0,L|229:109,1,97.50000371933,8|0,0:0|0:0,0:0:0:0:
178,19,58187,2,0,P|204:59|208:108,1,97.50000371933,2|0,0:0|0:0,0:0:0:0:
106,211,58422,22,0,B|98:116|98:116|120:90,2,130,2|8|2,0:0|0:0|0:0,0:0:0:0:
0,294,59125,1,2,0:0:0:0:
33,297,59242,2,0,L|96:302,1,65,8|0,0:0|0:0,0:0:0:0:
177,384,59477,22,0,P|193:309|257:268,1,155.999995239258,2|0,0:0|0:0,0:0:0:0:
346,237,59828,22,0,L|358:367,1,130,8|0,0:0|0:0,0:0:0:0:
438,246,60180,2,0,L|443:309,2,65,2|0|0,0:0|0:0|0:0,0:0:0:0:
511,162,60531,22,0,P|463:157|424:129,1,97.50000371933,2|0,0:0|0:0,0:0:0:0:
362,196,60766,22,0,P|337:154|336:106,1,77.999997619629,2|0,0:0|0:0,0:0:0:0:
243,113,61000,22,0,P|252:82|272:56,1,65,2|0,0:0|0:0,0:0:0:0:
297,38,61234,1,2,0:0:0:0:
143,0,61352,22,0,L|155:155,1,155.999995239258,14|0,0:0|0:0,0:0:0:0:
77,200,61703,2,0,L|-7:193,2,77.999997619629,2|0|2,0:0|0:0|0:0,0:0:0:0:
226,212,62055,1,8,0:0:0:0:
110,325,62230,1,2,0:0:0:0:
110,325,62289,22,0,P|146:259|220:243,1,155.999995239258,2|0,0:0|0:0,0:0:0:0:
317,322,62641,2,0,L|311:245,1,77.999997619629,8|0,0:0|0:0,0:0:0:0:
303,154,62875,1,2,0:0:0:0:
385,193,62992,2,0,L|462:199,1,77.999997619629,8|0,0:0|0:0,0:0:0:0:
323,64,63227,22,0,P|286:130|209:146,1,155.999995239258,8|0,0:0|0:0,0:0:0:0:
145,82,63578,22,0,P|128:110|121:142,1,65,2|0,0:0|0:0,0:0:0:0:
105,2,63812,22,0,P|181:1|233:57,1,155.999995239258,10|0,0:0|0:0,0:0:0:0:
174,230,64164,22,0,L|-17:246,1,155.999995239258,8|0,0:0|0:0,0:0:0:0:
43,148,64516,22,0,L|120:141,1,77.999997619629,8|0,0:0|0:0,0:0:0:0:
156,321,64750,1,2,0:0:0:0:
124,325,64867,22,0,L|60:331,1,65,8|0,0:0|0:0,0:0:0:0:
269,192,65102,22,0,L|259:289,1,97.50000371933,2|0,0:0|0:0,0:0:0:0:
251,380,65336,1,2,0:0:0:0:
354,237,65453,2,0,P|397:214|445:217,1,97.50000371933,8|0,0:0|0:0,0:0:0:0:
512,277,65687,1,2,0:0:0:0:
490,115,65863,1,2,0:0:0:0:
490,115,65922,22,0,L|319:129,2,155.999995239258,10|0|2,0:0|0:0|0:0,0:0:0:0:
428,22,66508,22,0,P|381:33|336:19,1,97.50000371933,10|0,0:0|0:0,0:0:0:0:
263,73,66742,22,0,P|248:44|245:11,1,65,2|0,0:0|0:0,0:0:0:0:
143,155,66977,22,0,L|155:0,1,155.999995239258,2|0,0:0|0:0,0:0:0:0:
56,109,67328,22,0,L|61:44,2,65,2|0|2,0:0|0:0|0:0,0:0:0:0:
0,205,67680,2,0,L|64:200,1,65,8|0,0:0|0:0,0:0:0:0:
145,343,67914,22,0,P|86:295|11:308,1,155.999995239258,2|0,0:0|0:0,0:0:0:0:
63,384,68266,1,2,0:0:0:0:
0,318,68383,2,0,P|-18:343|-26:374,1,65,2|0,0:0|0:0,0:0:0:0:
152,225,68617,1,8,0:0:0:0:
333,326,68852,22,0,L|235:334,2,97.50000371933,8|2|2,0:0|0:0|0:0,0:0:0:0:
418,383,69203,22,0,L|431:227,1,155.999995239258,10|0,0:0|0:0,0:0:0:0:
496,165,69555,2,0,P|463:143|425:137,1,77.999997619629,2|0,0:0|0:0,0:0:0:0:
276,242,69789,22,0,L|431:228,1,155.999995239258,10|0,0:0|0:0,0:0:0:0:
507,280,70141,2,0,P|478:306|442:319,1,77.999997619629,2|0,0:0|0:0,0:0:0:0:
336,145,70375,22,0,L|345:34,2,65,0|2|0,0:0|0:0|0:0,0:0:0:0:
276,242,70727,22,0,P|252:183|194:153,1,130,2|0,0:0|0:0,0:0:0:0:
121,249,71078,2,0,L|186:244,2,65,2|8|0,0:0|0:0|0:0,0:0:0:0:
31,258,71430,1,2,0:0:0:0:
267,334,71605,1,2,0:0:0:0:
267,334,71664,22,0,L|281:179,1,155.999995239258,2|0,0:0|0:0,0:0:0:0:
378,116,72016,22,0,L|367:246,2,130,2|8|2,0:0|0:0|0:0,0:0:0:0:
469,114,72602,22,0,P|420:111|381:83,1,97.50000371933,2|0,0:0|0:0,0:0:0:0:
343,1,72836,1,8,0:0:0:0:
281,180,72953,22,0,L|286:115,2,65,2|0|2,0:0|0:0|0:0,0:0:0:0:
101,196,73305,2,0,L|107:261,1,65,8|0,0:0|0:0,0:0:0:0:
202,304,73539,22,0,L|188:148,1,155.999995239258,2|8,0:0|0:0,0:0:0:0:
129,80,73891,22,0,P|96:101|34:103,1,97.50000371933,2|0,0:0|0:0,0:0:0:0:
175,1,74125,1,2,0:0:0:0:
234,70,74242,2,0,P|269:85|331:77,1,97.50000371933,8|0,0:0|0:0,0:0:0:0:
405,33,74477,21,2,0:0:0:0:
412,123,74594,1,2,0:0:0:0:
437,36,74711,21,8,0:0:0:0:
387,210,74828,2,0,L|259:198,2,65,2|0|2,0:0|0:0|0:0,0:0:0:0:
485,226,75180,1,8,0:0:0:0:
485,226,75238,1,0,0:0:0:0:
485,226,75297,1,2,0:0:0:0:
398,338,75414,22,0,L|390:241,1,97.50000371933,10|0,0:0|0:0,0:0:0:0:
121,218,75648,2,0,L|112:315,1,97.50000371933,10|0,0:0|0:0,0:0:0:0:
252,151,75883,22,0,P|246:165|237:179,1,32.5,4|4,0:0|0:0,0:0:0:0:
258,117,76000,2,0,P|266:140|268:165,1,32.5,4|4,0:0|0:0,0:0:0:0:
258,81,76117,2,0,P|271:92|281:104,1,32.5,4|4,0:0|0:0,0:0:0:0:
245,50,76234,2,0,P|260:53|280:61,1,32.5,4|0,0:0|0:0,0:0:0:0:
211,51,76352,6,0,P|79:89|98:193,1,260,6|0,0:0|0:0,0:0:0:0:
198,272,76703,2,0,P|185:319|178:370,1,97.50000371933,8|0,0:0|0:0,0:0:0:0:
106,302,76937,1,2,0:0:0:0:
224,273,77055,2,0,P|211:225|204:177,1,97.50000371933,8|0,0:0|0:0,0:0:0:0:
256,48,77289,21,2,0:0:0:0:
366,95,77406,2,0,P|319:51|256:49,1,130,8|0,0:0|0:0,0:0:0:0:
204,177,77641,2,0,P|237:142|284:132,1,97.50000371933,8|0,0:0|0:0,0:0:0:0:
284,222,77875,21,2,0:0:0:0:
375,157,77992,2,0,P|376:124|365:94,1,65,8|8,0:0|0:0,0:0:0:0:
256,48,78227,22,0,P|176:63|88:-2,1,195.00000743866,6|0,0:0|0:0,0:0:0:0:
32,80,78578,2,0,P|66:105|86:160,1,97.50000371933,8|0,0:0|0:0,0:0:0:0:
78,185,78812,1,2,0:0:0:0:
188,353,78930,21,8,0:0:0:0:
153,261,79047,1,0,0:0:0:0:
11,339,79164,2,0,P|58:349|104:333,1,97.50000371933,8|0,0:0|0:0,0:0:0:0:
171,233,79398,1,2,0:0:0:0:
188,353,79516,22,0,P|252:305|361:315,1,195.00000743866,8|2,0:0|0:0,0:0:0:0:
361,315,79867,2,0,L|356:243,1,65,8|0,0:0|0:0,0:0:0:0:
348,93,80102,22,0,B|288:162|190:140|165:102|182:62|227:57|248:104,1,260,6|0,0:0|0:0,0:0:0:0:
273,217,80453,2,0,P|224:216|170:197,1,97.50000371933,8|0,0:0|0:0,0:0:0:0:
103,139,80687,1,2,0:0:0:0:
47,325,80805,21,8,0:0:0:0:
75,232,80922,1,0,0:0:0:0:
103,139,81039,1,8,0:0:0:0:
71,248,81156,22,0,P|109:237|173:240,1,97.50000371933,0|2,0:0|0:0,0:0:0:0:
221,319,81391,2,0,B|290:331|350:282|350:282|339:308|340:345,1,195.00000743866,8|0,0:0|0:0,0:0:0:0:
428,376,81742,2,0,P|425:330|443:283,1,97.50000371933,2|0,0:0|0:0,0:0:0:0:
372,171,81977,22,0,P|445:146|346:75,1,260,6|0,0:0|0:0,0:0:0:0:
285,123,82328,1,12,0:0:0:0:
248,201,82445,2,0,P|284:171|286:124,1,97.50000371933,0|0,0:0|0:0,0:0:0:0:
217,81,82680,21,2,0:0:0:0:
250,209,82797,2,0,P|176:212|141:142,1,155.999995239258,0|8,0:0|0:0,0:0:0:0:
73,104,83148,2,0,P|34:127|-9:141,1,65,0|8,0:0|0:0,0:0:0:0:
104,322,83383,22,0,P|137:331|171:346,1,65,2|0,0:0|0:0,0:0:0:0:
261,298,83617,2,0,P|307:284|354:272,1,97.50000371933,2|0,0:0|0:0,0:0:0:0:
487,356,83852,22,0,B|479:267|479:267|456:234|456:234|469:197|469:197|461:106,1,260,6|0,0:0|0:0,0:0:0:0:
368,36,84203,2,0,P|319:62|321:112,1,97.50000371933,8|0,0:0|0:0,0:0:0:0:
321,117,84437,1,2,0:0:0:0:
288,209,84555,2,0,P|245:176|196:190,1,97.50000371933,8|0,0:0|0:0,0:0:0:0:
84,313,84789,22,0,P|39:269|39:206,1,130,2|8,0:0|0:0,0:0:0:0:
128,233,85023,1,0,0:0:0:0:
80,325,85141,2,0,P|124:346|170:333,1,97.50000371933,8|0,0:0|0:0,0:0:0:0:
35,197,85375,22,0,P|49:169|77:152,1,65,2|8,0:0|0:0,0:0:0:0:
90,150,85609,1,8,0:0:0:0:
156,82,85727,22,0,P|255:69|354:50,1,195.00000743866,6|0,0:0|0:0,0:0:0:0:
477,122,86078,1,8,0:0:0:0:
483,112,86195,2,0,P|490:67|502:13,1,97.50000371933,0|2,0:0|0:0,0:0:0:0:
404,151,86430,22,0,P|358:160|339:211,1,97.50000371933,8|0,0:0|0:0,0:0:0:0:
246,295,86664,1,8,0:0:0:0:
289,357,86781,2,0,P|344:371|381:329,1,97.50000371933,0|2,0:0|0:0,0:0:0:0:
507,194,87016,22,0,P|473:249|450:315,1,130,6|0,0:0|0:0,0:0:0:0:
337,202,87367,2,0,P|321:156|296:115,1,97.50000371933,8|0,0:0|0:0,0:0:0:0:
53,236,87602,22,0,P|23:319|127:267,1,260,12|0,0:0|0:0,0:0:0:0:
131,283,87953,1,2,0:0:0:0:
212,90,88187,1,2,0:0:0:0:
290,45,88305,22,0,P|299:149|212:93,1,260,12|0,0:0|0:0,0:0:0:0:
129,48,88656,2,0,P|133:144|191:220,1,195.00000743866,2|8,0:0|0:0,0:0:0:0:
281,255,89008,21,8,0:0:0:0:
214,303,89125,1,8,0:0:0:0:
275,240,89242,21,2,0:0:0:0:
222,312,89359,1,2,0:0:0:0:
310,329,89477,22,0,P|414:353|514:375,1,195.00000743866,8|0,0:0|0:0,0:0:0:0:
413,275,89828,2,0,P|394:248|372:217,1,65,10|0,0:0|0:0,0:0:0:0:
473,108,90062,2,0,P|492:81|514:50,1,65,10|0,0:0|0:0,0:0:0:0:
444,180,90297,2,0,P|462:206|481:233,1,65,10|0,0:0|0:0,0:0:0:0:
326,160,90531,1,2,0:0:0:0:
255,130,90648,2,0,P|235:83|218:37,2,97.50000371933,8|0|2,0:0|0:0|0:0,0:0:0:0:
147,246,91117,1,4,0:0:0:0:
147,246,91234,1,0,0:0:0:0:
218,282,91352,6,0,P|329:244|381:359,1,260,6|0,0:0|0:0,0:0:0:0:
297,329,91703,1,8,0:0:0:0:
279,147,91820,2,0,P|327:148|373:164,1,97.50000371933,0|2,0:0|0:0,0:0:0:0:
486,299,92055,2,0,P|462:256|453:209,1,97.50000371933,8|0,0:0|0:0,0:0:0:0:
406,42,92289,22,0,P|402:106|373:164,1,130,2|8,0:0|0:0,0:0:0:0:
288,238,92523,1,0,0:0:0:0:
315,79,92641,22,0,P|279:132|225:168,1,97.50000371933,8|0,0:0|0:0,0:0:0:0:
226,171,92875,1,2,0:0:0:0:
213,70,92992,22,0,P|186:86|156:98,1,65,8|8,0:0|0:0,0:0:0:0:
58,15,93227,22,0,L|77:238,1,195.00000743866,6|4,0:0|0:0,0:0:0:0:
189,262,93578,2,0,P|147:236|99:230,1,97.50000371933,8|0,0:0|0:0,0:0:0:0:
55,308,93812,1,2,0:0:0:0:
271,355,93930,22,0,L|280:258,1,97.50000371933,8|0,0:0|0:0,0:0:0:0:
226,171,94164,1,8,0:0:0:0:
226,171,94281,2,0,P|273:164|315:139,1,97.50000371933,0|2,0:0|0:0,0:0:0:0:
363,36,94516,22,0,P|346:130|406:203,1,195.00000743866,8|0,0:0|0:0,0:0:0:0:
464,68,94867,2,0,P|437:84|438:115,1,65,2|0,0:0|0:0,0:0:0:0:
470,267,95102,22,0,B|430:311|355:302|330:252|330:252|352:201|405:202,1,260,6|0,0:0|0:0,0:0:0:0:
372,383,95453,2,0,P|326:370|287:341,1,97.50000371933,8|0,0:0|0:0,0:0:0:0:
275,171,95687,1,2,0:0:0:0:
260,357,95805,22,0,L|132:345,1,97.50000371933,8|0,0:0|0:0,0:0:0:0:
88,189,96039,2,0,L|185:180,1,97.50000371933,8|0,0:0|0:0,0:0:0:0:
275,171,96273,1,2,0:0:0:0:
131,344,96391,22,0,P|194:274|289:268,1,195.00000743866,8|0,0:0|0:0,0:0:0:0:
386,371,96742,2,0,P|374:323|380:275,1,97.50000371933,2|0,0:0|0:0,0:0:0:0:
489,139,96977,22,0,P|399:87|415:191,1,260,6|0,0:0|0:0,0:0:0:0:
512,143,97328,22,0,P|465:61|373:79,1,195.00000743866,12|0,0:0|0:0,0:0:0:0:
277,148,97680,22,0,P|288:100|282:52,1,97.50000371933,2|0,0:0|0:0,0:0:0:0:
204,6,97914,1,2,0:0:0:0:
146,135,98031,22,0,L|244:144,1,97.50000371933,8|0,0:0|0:0,0:0:0:0:
359,190,98266,1,2,0:0:0:0:
273,303,98383,22,0,P|274:271|284:240,1,65,2|0,0:0|0:0,0:0:0:0:
391,187,98617,22,0,L|488:178,1,97.50000371933,8|0,0:0|0:0,0:0:0:0:
285,331,98852,22,0,B|96:314|96:314|161:284,1,260,6|0,0:0|0:0,0:0:0:0:
153,143,99203,2,0,P|129:185|91:216,1,97.50000371933,8|0,0:0|0:0,0:0:0:0:
2,203,99437,1,2,0:0:0:0:
81,57,99555,2,0,L|178:48,1,97.50000371933,8|0,0:0|0:0,0:0:0:0:
236,237,99789,22,0,L|249:77,1,130,2|8,0:0|0:0,0:0:0:0:
326,64,100023,1,0,0:0:0:0:
349,190,100141,22,0,L|332:93,1,97.50000371933,8|0,0:0|0:0,0:0:0:0:
394,4,100374,1,2,0:0:0:0:
432,86,100492,22,0,L|404:27,1,65,8|8,0:0|0:0,0:0:0:0:
512,130,100727,22,0,P|418:127|369:206,1,195.00000743866,6|0,0:0|0:0,0:0:0:0:
472,307,101078,2,0,L|374:298,1,97.50000371933,8|0,0:0|0:0,0:0:0:0:
305,116,101312,1,2,0:0:0:0:
278,202,101430,22,0,L|180:210,1,97.50000371933,8|0,0:0|0:0,0:0:0:0:
55,106,101664,2,0,L|47:204,1,97.50000371933,8|0,0:0|0:0,0:0:0:0:
125,361,101898,1,2,0:0:0:0:
125,361,102016,22,0,L|141:167,1,195.00000743866,8|0,0:0|0:0,0:0:0:0:
221,298,102367,22,0,L|285:292,1,65,2|0,0:0|0:0,0:0:0:0:
331,212,102602,22,0,P|227:134|205:3,1,260,12|0,0:0|0:0,0:0:0:0:
382,37,102953,1,2,0:0:0:0:
382,37,103187,1,2,0:0:0:0:
293,23,103305,22,0,P|356:124|464:73,1,260,12|0,0:0|0:0,0:0:0:0:
331,212,103656,22,0,P|427:213|510:164,1,195.00000743866,2|8,0:0|0:0,0:0:0:0:
450,302,104008,21,8,0:0:0:0:
510,164,104125,1,8,0:0:0:0:
331,212,104242,21,2,0:0:0:0:
458,333,104359,1,2,0:0:0:0:
303,112,104477,22,0,L|286:306,1,195.00000743866,8|0,0:0|0:0,0:0:0:0:
113,361,104828,22,0,P|81:355|52:340,1,65,10|0,0:0|0:0,0:0:0:0:
190,312,105062,2,0,P|201:342|203:375,1,65,10|0,0:0|0:0,0:0:0:0:
108,268,105297,2,0,P|129:244|156:227,1,65,10|0,0:0|0:0,0:0:0:0:
196,132,105531,2,0,L|131:137,1,65,2|8,0:0|0:0,0:0:0:0:
276,195,105766,21,2,0:0:0:0:
276,195,105824,1,0,0:0:0:0:
276,195,105883,2,0,L|269:266,3,48.750001859665,6|4|4|4,0:0|0:0|0:0|0:0,0:0:0:0:
370,167,106117,2,0,L|364:222,3,32.5,6|4|4|4,0:0|0:0|0:0|0:0,0:0:0:0:
348,77,106352,6,0,P|253:134|282:200,1,195.00000743866,4|0,0:0|0:0,0:0:0:0:
360,245,107055,1,0,0:0:0:0:
283,289,107289,22,0,P|237:295|185:306,2,97.5,2|0|0,0:0|0:0|0:0,0:0:0:0:
149,197,108227,22,0,P|103:191|51:180,1,97.5,2|0,0:0|0:0,0:0:0:0:
118,112,108812,21,4,0:0:0:0:
118,112,109486,21,0,0:0:0:0:
118,112,109789,21,0,0:0:0:0:
277,171,110102,22,0,B|370:205|374:126|465:165,1,195.00000743866,4|0,0:0|0:0,0:0:0:0:
321,90,110805,1,0,0:0:0:0:
269,271,111039,22,0,P|270:326|335:383,2,146.250005578995,2|0|0,0:0|0:0|0:0,0:0:0:0:
197,162,111977,2,0,P|189:206|154:244,1,97.5,2|0,0:0|0:0,0:0:0:0:
154,243,113109,22,0,P|143:245|133:248,1,21.6666666666667,2|0,0:0|0:0,0:0:0:0:
119,255,113353,1,0,0:0:0:0:
240,213,113559,1,8,0:0:0:0:
306,275,113852,22,0,P|366:263|408:271,1,97.50000371933,2|0,0:0|0:0,0:0:0:0:
425,284,114203,1,8,0:0:0:0:
512,198,114555,1,8,0:0:0:0:
494,221,114672,2,0,P|458:170|456:135,1,97.50000371933,2|0,0:0|0:0,0:0:0:0:
498,24,115023,1,0,0:0:0:0:
473,40,115141,1,2,0:0:0:0:
446,53,115258,2,0,P|409:59|348:36,1,97.50000371933,0|0,0:0|0:0,0:0:0:0:
253,70,115609,1,0,0:0:0:0:
275,89,115727,22,0,P|269:137|266:202,1,97.50000371933,2|0,0:0|0:0,0:0:0:0:
266,186,116078,1,8,0:0:0:0:
62,150,116312,1,8,0:0:0:0:
52,133,116430,2,0,P|50:109|48:85,2,48.750001859665,2|0|0,0:0|0:0|0:0,0:0:0:0:
150,301,116898,1,2,0:0:0:0:
140,285,117016,1,2,0:0:0:0:
134,270,117133,2,0,P|164:224|213:235,1,97.50000371933,8|0,0:0|0:0,0:0:0:0:
275,172,117484,1,0,0:0:0:0:
275,172,117602,22,0,P|338:158|378:166,1,97.50000371933,2|2,0:0|0:0,0:0:0:0:
178,137,117953,1,8,0:0:0:0:
178,137,118070,2,0,P|134:89|121:50,1,97.50000371933,2|8,0:0|0:0,0:0:0:0:
275,172,118539,22,0,P|255:233|228:264,1,97.50000371933,2|2,0:0|0:0,0:0:0:0:
258,67,118891,1,8,0:0:0:0:
258,67,119008,2,0,P|321:52|361:60,1,97.50000371933,2|8,0:0|0:0,0:0:0:0:
234,258,119477,22,0,L|150:254,1,71.5000021820069,2|2,0:0|0:0,0:0:0:0:
275,172,119711,1,8,0:0:0:0:
297,333,119828,1,2,0:0:0:0:
297,333,120062,21,2,0:0:0:0:
275,172,120180,2,0,L|268:125,2,35.7500010910034,8|8|8,0:0|0:0|0:0,0:0:0:0:
275,172,120414,22,0,P|205:171|152:218,1,143.000004364014,8|0,0:0|0:0,0:0:0:0:
195,345,120766,1,2,0:0:0:0:
195,345,120882,21,8,0:0:0:0:
317,299,120999,1,2,0:0:0:0:
275,172,121116,1,8,0:0:0:0:
152,217,121234,1,2,0:0:0:0:
317,299,121352,6,0,L|476:312,1,155.999995239258,6|0,0:0|0:0,0:0:0:0:
512,213,121703,22,0,L|448:219,1,65,8|0,0:0|0:0,0:0:0:0:
439,128,121937,2,0,L|503:122,1,65,2|8,0:0|0:0,0:0:0:0:
365,43,122172,22,0,P|329:130|244:160,1,130,2|0,0:0|0:0,0:0:0:0:
228,97,122523,1,2,0:0:0:0:
232,64,122641,2,0,L|237:0,1,65,2|8,0:0|0:0,0:0:0:0:
65,91,122934,1,0,0:0:0:0:
65,91,122992,22,0,P|131:117|158:182,1,146.250005578995,8|0,0:0|0:0,0:0:0:0:
158,183,123227,22,0,L|-16:196,1,155.999995239258,2|0,0:0|0:0,0:0:0:0:
123,277,123577,1,2,0:0:0:0:
121,310,123695,22,0,L|114:384,1,65,8|0,0:0|0:0,0:0:0:0:
192,179,123930,2,0,L|266:172,1,65,8|0,0:0|0:0,0:0:0:0:
209,350,124164,22,0,P|230:290|286:259,1,130,2|0,0:0|0:0,0:0:0:0:
363,355,124516,2,0,L|299:350,2,65,2|2|0,0:0|0:0|0:0,0:0:0:0:
453,371,124867,22,0,P|441:308|392:268,1,97.50000371933,8|0,0:0|0:0,0:0:0:0:
512,185,125102,22,0,L|414:193,1,97.50000371933,2|0,0:0|0:0,0:0:0:0:
289,63,125336,1,2,0:0:0:0:
382,42,125453,22,0,B|376:107|376:107|328:147|328:147|322:213,1,195.00000743866,2|0,0:0|0:0,0:0:0:0:
314,306,125805,1,2,0:0:0:0:
410,297,125922,22,0,L|346:303,1,65,8|0,0:0|0:0,0:0:0:0:
223,314,126156,2,0,L|159:320,1,65,2|0,0:0|0:0,0:0:0:0:
314,306,126391,1,8,0:0:0:0:
94,384,126625,21,2,0:0:0:0:
65,367,126742,2,0,L|70:302,1,65,2|0,0:0|0:0,0:0:0:0:
85,146,126977,2,0,L|79:210,1,65,2|0,0:0|0:0,0:0:0:0:
55,59,127211,22,0,B|88:26|182:9|226:46|220:118|175:128|148:94|143:57,1,260,12|0,0:0|0:0,0:0:0:0:
274,27,127562,22,0,P|286:74|279:122,1,97.50000371933,2|8,0:0|0:0,0:0:0:0:
345,188,127797,1,0,0:0:0:0:
447,127,127914,22,0,B|397:99|373:46|373:46|386:127|346:188,1,260,12|0,0:0|0:0,0:0:0:0:
260,264,128266,22,0,P|338:209|432:220,1,195.00000743866,6|0,0:0|0:0,0:0:0:0:
477,301,128617,2,0,P|449:261|405:241,1,97.50000371933,8|0,0:0|0:0,0:0:0:0:
246,384,128852,22,0,L|226:160,1,195.00000743866,6|0,0:0|0:0,0:0:0:0:
143,248,129203,22,0,L|152:356,1,65,2|0,0:0|0:0,0:0:0:0:
167,88,129437,1,2,0:0:0:0:
170,119,129555,22,0,P|106:162|30:154,1,155.999995239258,8|2,0:0|0:0,0:0:0:0:
268,30,130023,21,2,0:0:0:0:
261,121,130141,2,0,L|255:186,2,65,2|8|2,0:0|0:0|0:0,0:0:0:0:
272,0,130492,1,8,0:0:0:0:
342,80,130609,22,0,P|405:38|481:45,1,156.000003808594,4|0,0:0|0:0,0:0:0:0:
482,46,130883,2,0,L|493:178,1,103.999996826172,6|0,0:0|0:0,0:0:0:0:
407,238,131195,22,0,L|400:152,2,86.6666666666667,2|2|8,0:0|0:0|0:0,0:0:0:0:
488,281,131664,21,8,0:0:0:0:
385,263,131820,1,12,0:0:0:0:
282,245,131977,1,4,0:0:0:0:
309,334,132133,22,0,P|294:288|257:258,1,97.50000371933,14|0,0:0|0:0,0:0:0:0:
143,353,132367,22,0,L|220:340,1,77.999997619629,2|0,0:0|0:0,0:0:0:0:
340,173,132602,22,0,L|184:159,1,155.999995239258,6|0,0:0|0:0,0:0:0:0:
145,242,132953,1,8,0:0:0:0:
94,166,133070,2,0,L|86:81,1,65,2|0,0:0|0:0,0:0:0:0:
40,240,133305,22,0,P|76:256|115:254,1,77.999997619629,2|0,0:0|0:0,0:0:0:0:
245,132,133539,2,0,L|229:313,1,155.999995239258,2|0,0:0|0:0,0:0:0:0:
227,320,133891,1,8,0:0:0:0:
328,220,134008,22,0,L|405:213,1,65,2|0,0:0|0:0,0:0:0:0:
490,293,134242,2,0,L|426:299,1,65,2|0,0:0|0:0,0:0:0:0:
335,189,134477,22,0,P|420:165|443:79,1,155.999995239258,6|0,0:0|0:0,0:0:0:0:
347,5,134828,1,8,0:0:0:0:
350,36,134945,22,0,L|356:101,1,65,2|0,0:0|0:0,0:0:0:0:
242,212,135180,2,0,L|247:147,1,65,2|0,0:0|0:0,0:0:0:0:
446,108,135414,1,10,0:0:0:0:
449,139,135532,21,10,0:0:0:0:
456,230,135649,1,10,0:0:0:0:
464,321,135766,1,10,0:0:0:0:
468,353,135883,21,10,0:0:0:0:
341,108,136117,21,8,0:0:0:0:
261,65,136234,1,8,0:0:0:0:
145,127,136352,37,2,0:0:0:0:
156,121,136469,2,0,P|174:98|172:56,1,65,8|0,0:0|0:0,0:0:0:0:
117,212,136703,21,2,0:0:0:0:
127,218,136820,2,0,P|155:222|191:199,1,65,8|0,0:0|0:0,0:0:0:0:
28,229,137055,21,2,0:0:0:0:
28,241,137172,2,0,P|38:268|76:287,1,65,8|0,0:0|0:0,0:0:0:0:
117,212,137406,21,2,0:0:0:0:
127,218,137523,2,0,P|155:222|191:199,1,65,8|0,0:0|0:0,0:0:0:0:
320,374,137758,22,0,L|311:300,1,65,2|8,0:0|0:0,0:0:0:0:
337,215,137992,2,0,L|396:240,1,65,0|2,0:0|0:0,0:0:0:0:
466,309,138227,2,0,L|414:348,1,65,8|0,0:0|0:0,0:0:0:0:
226,303,138461,1,2,0:0:0:0:
155,289,138578,2,0,L|225:305,1,65,8|0,0:0|0:0,0:0:0:0:
337,215,138812,1,2,0:0:0:0:
344,208,138930,22,0,P|332:155|257:161,1,130,8|0,0:0|0:0,0:0:0:0:
112,143,139281,1,2,0:0:0:0:
44,99,139398,22,0,P|61:75|98:64,1,65,8|8,0:0|0:0,0:0:0:0:
151,6,139633,2,0,P|180:3|212:24,1,65,2|2,0:0|0:0,0:0:0:0:
315,126,139867,1,2,0:0:0:0:
315,126,139984,1,2,0:0:0:0:
246,174,140102,22,0,B|191:170|191:170|173:150|173:150|106:143,1,143.000004364014,0|0,0:0|0:0,0:0:0:0:
0,259,140453,2,0,B|55:255|55:255|73:235|73:235|140:228,1,143.000004364014,0|0,0:0|0:0,0:0:0:0:
207,275,140805,2,0,L|230:354,2,71.5000021820069,0|0|0,0:0|0:0|0:0,0:0:0:0:
390,87,141156,1,0,0:0:0:0:
390,87,141273,22,0,P|403:55|382:9,1,71.5000021820069,10|0,0:0|0:0,0:0:0:0:
397,189,141508,2,0,P|417:216|467:221,1,71.5000021820069,2|0,0:0|0:0,0:0:0:0:
304,143,141742,2,0,P|269:147|240:188,1,71.5000021820069,2|0,0:0|0:0,0:0:0:0:
151,312,141977,21,2,0:0:0:0:
219,354,142094,1,8,0:0:0:0:
231,358,142211,22,0,P|263:365|301:373,1,65,2|0,0:0|0:0,0:0:0:0:
35,267,142445,22,0,P|67:260|105:252,1,65,8|2,0:0|0:0,0:0:0:0:
228,188,142680,1,2,0:0:0:0:
285,233,142797,1,8,0:0:0:0:
294,242,142914,2,0,P|326:249|364:257,1,65,0|2,0:0|0:0,0:0:0:0:
141,163,143148,1,8,0:0:0:0:
131,154,143266,22,0,P|135:89|191:81,1,130,2|0,0:0|0:0,0:0:0:0:
285,2,143617,1,2,0:0:0:0:
294,78,143734,1,2,0:0:0:0:
305,155,143852,22,0,P|367:173|459:211,1,143.000004364014,8|0,0:0|0:0,0:0:0:0:
413,279,144203,2,0,P|346:252|278:232,1,143.000004364014,2|0,0:0|0:0,0:0:0:0:
212,282,144555,1,8,0:0:0:0:
212,282,144672,2,0,P|145:290|117:215,1,143.000004364014,2|0,0:0|0:0,0:0:0:0:
61,156,145023,1,8,0:0:0:0:
154,94,145141,22,0,P|87:94|61:156,1,143.000004364014,2|0,0:0|0:0,0:0:0:0:
235,108,145492,2,0,P|242:67|220:39,1,71.5000021820069,2|0,0:0|0:0,0:0:0:0:
198,198,145727,22,0,P|268:211|337:229,1,143.000004364014,6|0,0:0|0:0,0:0:0:0:
436,207,146078,1,2,0:0:0:0:
445,203,146195,2,0,P|470:180|477:129,1,71.5000021820069,10|0,0:0|0:0,0:0:0:0:
354,62,146430,1,2,0:0:0:0:
362,67,146547,2,0,P|386:92|392:127,1,71.5000021820069,8|0,0:0|0:0,0:0:0:0:
342,221,146781,1,2,0:0:0:0:
337,229,146898,22,0,P|300:235|259:250,1,71.5000021820069,8|0,0:0|0:0,0:0:0:0:
216,182,147133,22,0,P|183:162|142:147,1,71.5000021820069,8|0,0:0|0:0,0:0:0:0:
78,84,147367,21,6,0:0:0:0:
50,75,147445,21,6,0:0:0:0:
41,47,147523,21,6,0:0:0:0:
51,23,147602,22,0,P|107:33|109:70,1,97.50000371933,12|0,0:0|0:0,0:0:0:0:
45,210,147836,1,2,0:0:0:0:
45,210,147953,1,2,0:0:0:0:
101,262,148070,22,0,P|150:270|197:283,1,97.50000371933,12|0,0:0|0:0,0:0:0:0:
395,172,148305,1,2,0:0:0:0:
395,172,148422,22,0,P|362:137|314:137,1,97.50000371933,12|0,0:0|0:0,0:0:0:0:
196,282,148656,22,0,P|242:270|265:229,1,97.50000371933,12|0,0:0|0:0,0:0:0:0:
200,55,148891,22,0,P|186:100|210:141,1,97.50000371933,6|0,0:0|0:0,0:0:0:0:
346,263,149125,2,0,P|378:297|426:297,1,97.50000371933,2|8,0:0|0:0,0:0:0:0:
146,354,149359,1,0,0:0:0:0:
139,351,149477,22,0,P|112:333|84:286,2,65,2|0|2,0:0|0:0|0:0,0:0:0:0:
188,260,149828,22,0,P|173:230|172:176,2,77.999997619629,8|0|2,0:0|0:0|0:0,0:0:0:0:
298,188,150180,22,0,P|300:154|327:105,2,90.9999972229005,8|0|2,0:0|0:0|0:0,0:0:0:0:
434,298,150531,22,0,P|442:316|459:327,2,35.7500010910034,8|8|8,0:0|0:0|0:0,0:0:0:0:
503,261,150766,1,2,0:0:0:0:
298,188,150883,1,2,0:0:0:0:
216,331,151117,21,2,0:0:0:0:
134,353,151234,21,2,0:0:0:0:
50,371,151352,22,0,P|13:356|2:298,1,97.50000371933,4|0,0:0|0:0,0:0:0:0:
0,304,151703,1,0,0:0:0:0:
134,353,151937,1,0,0:0:0:0:
134,353,152172,1,0,0:0:0:0:
134,353,152406,1,0,0:0:0:0:
83,292,152641,2,0,P|91:238|134:222,1,97.50000371933,0|0,0:0|0:0,0:0:0:0:
127,223,152992,1,0,0:0:0:0:
236,167,153227,22,0,P|289:158|343:146,1,97.50000371933,4|0,0:0|0:0,0:0:0:0:
331,148,153578,1,0,0:0:0:0:
486,239,153812,1,0,0:0:0:0:
486,239,154047,1,0,0:0:0:0:
486,239,154281,1,0,0:0:0:0:
330,236,154516,2,0,P|376:263|425:288,1,97.50000371933,0|0,0:0|0:0,0:0:0:0:
416,284,154867,1,0,0:0:0:0:
331,148,155102,22,0,P|278:157|224:169,1,97.50000371933,4|0,0:0|0:0,0:0:0:0:
236,167,155453,1,0,0:0:0:0:
81,76,155687,1,0,0:0:0:0:
81,76,155922,1,0,0:0:0:0:
81,76,156156,1,0,0:0:0:0:
237,79,156391,2,0,P|190:51|141:26,1,97.50000371933,0|0,0:0|0:0,0:0:0:0:
152,31,156742,1,0,0:0:0:0:
69,275,156977,22,0,P|91:233|137:226,1,97.50000371933,4|0,0:0|0:0,0:0:0:0:
138,227,157328,1,0,0:0:0:0:
237,79,157562,1,0,0:0:0:0:
237,79,157797,1,0,0:0:0:0:
237,79,158031,1,0,0:0:0:0:
144,142,158266,2,0,P|191:148|217:188,1,97.50000371933,0|0,0:0|0:0,0:0:0:0:
216,187,158617,1,0,0:0:0:0:
421,354,158852,22,0,P|402:316|423:253,1,97.50000371933,6|0,0:0|0:0,0:0:0:0:
413,264,159203,1,8,0:0:0:0:
267,270,159437,1,2,0:0:0:0:
342,220,159555,2,0,P|318:255|253:268,1,97.50000371933,8|0,0:0|0:0,0:0:0:0:
107,322,160023,1,2,0:0:0:0:
107,322,160141,2,0,P|97:348|94:377,1,48.750001859665,8|0,0:0|0:0,0:0:0:0:
10,351,160375,1,2,0:0:0:0:
10,351,160493,2,0,P|19:324|22:295,1,48.750001859665,8|0,0:0|0:0,0:0:0:0:
138,227,160727,22,0,P|126:179|76:147,1,97.50000371933,6|0,0:0|0:0,0:0:0:0:
89,150,161078,1,8,0:0:0:0:
211,69,161312,1,2,0:0:0:0:
121,74,161430,2,0,P|168:87|221:60,1,97.50000371933,8|0,0:0|0:0,0:0:0:0:
377,171,161898,1,2,0:0:0:0:
377,171,162016,2,0,P|403:181|426:198,1,48.750001859665,8|0,0:0|0:0,0:0:0:0:
463,118,162250,1,2,0:0:0:0:
463,118,162368,2,0,P|436:107|413:90,1,48.750001859665,8|0,0:0|0:0,0:0:0:0:
313,216,162602,22,0,P|232:241|196:260,1,97.50000371933,6|0,0:0|0:0,0:0:0:0:
220,246,162953,1,8,0:0:0:0:
37,232,163187,1,2,0:0:0:0:
89,150,163305,2,0,P|43:221|27:258,1,97.50000371933,8|0,0:0|0:0,0:0:0:0:
209,98,163773,1,2,0:0:0:0:
209,98,163891,2,0,P|220:78|241:49,1,48.750001859665,8|0,0:0|0:0,0:0:0:0:
304,95,164125,1,2,0:0:0:0:
304,95,164243,2,0,P|293:115|272:144,1,48.750001859665,8|0,0:0|0:0,0:0:0:0:
69,307,164477,2,0,L|31:317,2,35.7500010910034,2|0|2,0:0|0:0|0:0,0:0:0:0:
141,343,164711,21,12,0:0:0:0:
220,246,164828,1,2,0:0:0:0:
69,307,165062,21,2,0:0:0:0:
214,374,165180,1,8,0:0:0:0:
340,244,165883,22,0,L|374:233,6,32.5,0|0|0|4|4|4|4,0:0|0:0|0:0|0:0|0:0|0:0|0:0,0:0:0:0:
340,244,166352,6,0,P|266:317|256:214,1,260,6|0,0:0|0:0,0:0:0:0:
439,161,166703,22,0,L|342:152,1,97.50000371933,8|0,0:0|0:0,0:0:0:0:
266,33,166937,1,2,0:0:0:0:
235,36,167055,2,0,L|137:45,1,97.50000371933,8|0,0:0|0:0,0:0:0:0:
57,144,167289,21,2,0:0:0:0:
7,35,167406,2,0,P|52:79|57:142,1,130,8|0,0:0|0:0,0:0:0:0:
0,214,167641,22,0,P|43:235|91:230,1,97.50000371933,8|0,0:0|0:0,0:0:0:0:
148,158,167875,22,0,P|137:188|117:213,1,65,2|8,0:0|0:0,0:0:0:0:
152,298,168109,1,8,0:0:0:0:
234,190,168227,22,0,L|253:413,1,195.00000743866,6|0,0:0|0:0,0:0:0:0:
330,252,168578,2,0,L|339:350,1,97.50000371933,8|0,0:0|0:0,0:0:0:0:
327,220,168812,1,2,0:0:0:0:
478,202,168930,22,0,P|505:144|490:83,1,130,8|0,0:0|0:0,0:0:0:0:
319,127,169164,1,2,0:0:0:0:
416,137,169281,22,0,L|319:127,1,97.50000371933,8|0,0:0|0:0,0:0:0:0:
229,118,169516,2,0,L|132:108,1,97.50000371933,8|0,0:0|0:0,0:0:0:0:
282,44,169750,1,2,0:0:0:0:
266,201,169867,22,0,L|260:265,1,65,8|0,0:0|0:0,0:0:0:0:
170,312,170102,22,0,B|205:283|257:286|288:318|288:318|317:346|369:356|407:325,1,260,6|0,0:0|0:0,0:0:0:0:
353,254,170453,1,8,0:0:0:0:
430,301,170570,22,0,P|443:254|430:207,1,97.50000371933,0|2,0:0|0:0,0:0:0:0:
405,116,170805,2,0,L|502:124,1,97.50000371933,8|0,0:0|0:0,0:0:0:0:
324,65,171039,21,2,0:0:0:0:
453,31,171156,2,0,B|400:27|371:-15|371:-15|368:36|325:65,1,195.00000743866,8|8,0:0|0:0,0:0:0:0:
323,156,171508,22,0,P|292:151|264:134,1,65,2|2,0:0|0:0,0:0:0:0:
204,30,171742,22,0,P|231:69|234:118,1,97.50000371933,8|2,0:0|0:0,0:0:0:0:
37,164,171977,22,0,B|118:156|141:99|141:99|109:47|27:54,1,260,6|0,0:0|0:0,0:0:0:0:
7,251,172328,22,0,P|103:245|185:195,1,195.00000743866,12|0,0:0|0:0,0:0:0:0:
234,117,172680,21,8,0:0:0:0:
219,285,172797,2,0,L|211:383,1,97.50000371933,2|0,0:0|0:0,0:0:0:0:
402,335,173031,2,0,L|305:344,1,97.50000371933,2|0,0:0|0:0,0:0:0:0:
122,360,173266,1,8,0:0:0:0:
125,331,173383,22,0,L|133:233,1,65,2|0,0:0|0:0,0:0:0:0:
149,176,173617,22,0,P|100:178|61:206,1,97.50000371933,2|0,0:0|0:0,0:0:0:0:
16,73,173852,22,0,B|200:89|200:89|240:152,1,260,6|0,0:0|0:0,0:0:0:0:
338,221,174203,22,0,L|330:124,1,97.50000371933,8|0,0:0|0:0,0:0:0:0:
437,34,174437,1,2,0:0:0:0:
433,66,174555,2,0,L|425:164,1,97.50000371933,8|0,0:0|0:0,0:0:0:0:
398,292,174789,21,2,0:0:0:0:
511,254,174906,2,0,P|448:252|399:292,1,130,8|0,0:0|0:0,0:0:0:0:
310,308,175141,22,0,P|330:351|369:378,1,97.50000371933,8|0,0:0|0:0,0:0:0:0:
339,221,175375,22,0,P|315:255|308:279,1,65,2|8,0:0|0:0,0:0:0:0:
398,292,175609,1,8,0:0:0:0:
218,275,175727,22,0,L|24:259,1,195.00000743866,6|0,0:0|0:0,0:0:0:0:
45,353,176078,1,8,0:0:0:0:
75,355,176195,2,0,L|172:363,1,97.50000371933,0|2,0:0|0:0,0:0:0:0:
223,185,176430,21,8,0:0:0:0:
132,177,176547,1,8,0:0:0:0:
42,169,176664,1,8,0:0:0:0:
185,103,176781,22,0,P|140:86|93:95,1,97.50000371933,2|0,0:0|0:0,0:0:0:0:
80,250,177016,2,0,P|125:266|172:258,1,97.50000371933,2|0,0:0|0:0,0:0:0:0:
276,111,177250,1,2,0:0:0:0:
273,78,177367,22,0,L|267:13,1,65,8|0,0:0|0:0,0:0:0:0:
332,181,177602,22,0,P|437:173|365:98,1,260,12|0,0:0|0:0,0:0:0:0:
182,69,177953,22,0,L|193:198,1,130,2|0,0:0|0:0,0:0:0:0:
316,298,178187,1,2,0:0:0:0:
285,383,178304,22,0,P|213:307|317:299,1,260,8|0,0:0|0:0,0:0:0:0:
412,258,178656,22,0,L|400:387,2,97.50000371933,0|0|8,0:0|0:0|0:0,0:0:0:0:
342,200,179008,21,8,0:0:0:0:
491,213,179125,1,8,0:0:0:0:
327,228,179242,21,2,0:0:0:0:
500,243,179359,1,2,0:0:0:0:
294,123,179477,22,0,L|313:346,1,195.00000743866,8|0,0:0|0:0,0:0:0:0:
175,365,179828,22,0,P|201:346|220:320,1,65,10|0,0:0|0:0,0:0:0:0:
51,248,180062,2,0,P|31:221|5:203,1,65,10|0,0:0|0:0,0:0:0:0:
138,282,180297,2,0,P|143:250|137:218,1,65,10|0,0:0|0:0,0:0:0:0:
71,121,180531,1,2,0:0:0:0:
169,130,180648,22,0,L|71:121,1,97.50000371933,8|0,0:0|0:0,0:0:0:0:
221,55,180883,22,0,L|213:-26,2,43.3333333333333,2|2|2,0:0|0:0|0:0,0:0:0:0:
233,195,181117,1,4,0:0:0:0:
234,211,181195,1,4,0:0:0:0:
235,227,181273,1,4,0:0:0:0:
237,243,181352,6,0,B|286:181|345:165|411:187|408:268|343:282,1,260,6|0,0:0|0:0,0:0:0:0:
271,322,181703,21,8,0:0:0:0:
183,359,181820,2,0,P|245:359|268:326,1,97.50000371933,0|2,0:0|0:0,0:0:0:0:
137,289,182055,2,0,P|105:255|110:208,1,97.50000371933,8|0,0:0|0:0,0:0:0:0:
263,171,182289,21,2,0:0:0:0:
365,115,182406,2,0,P|327:165|264:172,1,130,8|0,0:0|0:0,0:0:0:0:
209,41,182641,2,0,P|236:80|282:92,1,97.50000371933,8|0,0:0|0:0,0:0:0:0:
286,11,182875,21,2,0:0:0:0:
445,97,182992,2,0,P|448:128|434:161,1,65,8|8,0:0|0:0,0:0:0:0:
240,248,183227,22,0,P|146:265|44:288,1,195.00000743866,6|0,0:0|0:0,0:0:0:0:
200,330,183578,1,8,0:0:0:0:
120,367,183695,2,0,P|166:366|200:332,1,97.50000371933,0|2,0:0|0:0,0:0:0:0:
240,248,183930,21,8,0:0:0:0:
240,248,184047,1,0,0:0:0:0:
371,351,184164,22,0,P|339:314|288:317,1,97.50000371933,8|2,0:0|0:0,0:0:0:0:
282,322,184398,1,0,0:0:0:0:
86,199,184516,22,0,P|176:178|239:247,1,195.00000743866,2|0,0:0|0:0,0:0:0:0:
239,247,184867,22,0,P|244:210|268:169,1,65,2|0,0:0|0:0,0:0:0:0:
300,34,185102,22,0,P|204:7|229:98,1,233.999992858887,6|0,0:0|0:0,0:0:0:0:
382,88,185453,21,8,0:0:0:0:
380,170,185570,2,0,P|334:157|306:119,1,97.50000371933,0|2,0:0|0:0,0:0:0:0:
510,8,185805,21,8,0:0:0:0:
484,76,185922,1,0,0:0:0:0:
458,144,186039,2,0,L|477:257,1,97.50000371933,2|0,0:0|0:0,0:0:0:0:
512,310,186273,1,2,0:0:0:0:
336,357,186391,22,0,P|234:359|194:280,1,195.00000743866,8|0,0:0|0:0,0:0:0:0:
193,286,186742,2,0,P|156:254|107:266,1,97.50000371933,2|0,0:0|0:0,0:0:0:0:
343,171,186977,22,0,P|385:91|248:81,1,260,6|0,0:0|0:0,0:0:0:0:
184,97,187328,1,4,0:0:0:0:
254,144,187445,2,0,P|207:138|184:97,1,97.50000371933
92,8,187680,22,0,P|61:140|28:265,1,260,2|2,0:0|0:0,0:0:0:0:
132,357,188031,22,0,P|122:306|109:253,1,97.50000371933,8|0,0:0|0:0,0:0:0:0:
220,176,188266,1,8,0:0:0:0:
280,207,188383,22,0,P|249:208|225:188,1,65,2|0,0:0|0:0,0:0:0:0:
435,74,188617,2,0,P|397:64|348:113,1,97.50000371933,2|0,0:0|0:0,0:0:0:0:
113,149,188852,22,0,P|114:235|220:176,1,260,6|0,0:0|0:0,0:0:0:0:
292,37,189203,2,0,P|338:53|352:99,1,97.50000371933,8|0,0:0|0:0,0:0:0:0:
298,200,189437,1,2,0:0:0:0:
376,262,189555,2,0,P|329:251|300:214,1,97.50000371933,8|0,0:0|0:0,0:0:0:0:
463,95,189789,21,2,0:0:0:0:
469,104,189906,2,0,P|436:159|374:176,1,130,8|0,0:0|0:0,0:0:0:0:
127,281,190141,22,0,P|176:287|219:250,1,97.50000371933,8|0,0:0|0:0,0:0:0:0:
153,205,190375,21,2,0:0:0:0:
106,361,190492,2,0,P|73:354|53:316,1,65,8|8,0:0|0:0,0:0:0:0:
153,205,190727,22,0,P|170:109|188:5,1,195.00000743866,6|0,0:0|0:0,0:0:0:0:
96,65,191078,2,0,P|86:119|75:175,1,97.50000371933,8|0,0:0|0:0,0:0:0:0:
75,175,191312,1,2,0:0:0:0:
366,77,191430,22,0,L|384:175,1,97.50000371933,8|0,0:0|0:0,0:0:0:0:
223,69,191664,2,0,L|287:144,1,97.50000371933,8|0,0:0|0:0,0:0:0:0:
211,208,191898,1,2,0:0:0:0:
75,175,192016,2,0,L|237:202,1,130,8|0,0:0|0:0,0:0:0:0:
262,25,192367,2,0,P|233:39|222:68,1,65,2|0,0:0|0:0,0:0:0:0:
312,290,192602,22,0,P|383:255|450:95,1,260,12|0,0:0|0:0,0:0:0:0:
340,0,192953,1,2,0:0:0:0:
340,0,193187,1,2,0:0:0:0:
331,156,193305,22,0,P|225:151|126:44,1,260,12|0,0:0|0:0,0:0:0:0:
37,53,193656,22,0,P|67:116|51:245,1,195.00000743866,2|8,0:0|0:0,0:0:0:0:
117,333,194008,21,8,0:0:0:0:
166,216,194125,1,8,0:0:0:0:
250,312,194242,21,2,0:0:0:0:
240,121,194359,1,2,0:0:0:0:
413,222,194477,22,0,P|355:254|241:184,1,195.00000743866,8|0,0:0|0:0,0:0:0:0:
28,133,194828,22,0,P|19:98|-5:75,1,65,10|0,0:0|0:0,0:0:0:0:
119,256,195062,2,0,P|149:242|167:215,1,65,10|0,0:0|0:0,0:0:0:0:
95,177,195297,2,0,P|111:146|106:113,1,65,10|0,0:0|0:0,0:0:0:0:
196,34,195531,21,2,0:0:0:0:
232,104,195648,2,0,P|278:120|327:140,1,97.50000371933,8|0,0:0|0:0,0:0:0:0:
428,167,195883,22,0,P|450:175|470:189,6,48.750001859665,4|4|4|4|4|4|4,0:0|0:0|0:0|0:0|0:0|0:0|0:0,0:0:0:0:
486,107,196352,6,0,P|481:44|435:0,1,130,2|2,0:0|0:0,0:0:0:0:
309,29,196586,21,8,0:0:0:0:
312,62,196703,1,8,0:0:0:0:
222,54,196820,1,2,0:0:0:0:
132,46,196937,2,0,L|34:37,1,97.50000371933,2|0,0:0|0:0,0:0:0:0:
139,185,197172,22,0,P|148:154|168:128,1,65,8|0,0:0|0:0,0:0:0:0:
56,220,197406,2,0,P|49:188|53:156,1,65,2|0,0:0|0:0,0:0:0:0:
229,196,197641,2,0,P|285:226|347:213,1,130,2|0,0:0|0:0,0:0:0:0:
298,136,197992,22,0,L|289:40,1,77.999997619629,8|0,0:0|0:0,0:0:0:0:
445,142,198227,1,2,0:0:0:0:
442,175,198344,2,0,L|430:304,1,130,0|0,0:0|0:0,0:0:0:0:
477,384,198695,21,2,0:0:0:0:
341,316,198812,2,0,L|213:327,1,77.999997619629,8|0,0:0|0:0,0:0:0:0:
232,328,199047,22,0,P|274:280|276:217,1,130,8|0,0:0|0:0,0:0:0:0:
190,247,199398,1,2,0:0:0:0:
367,222,199516,22,0,P|356:175|323:139,1,97.50000371933,8|0,0:0|0:0,0:0:0:0:
276,217,199750,1,2,0:0:0:0:
370,61,199867,21,2,0:0:0:0:
280,59,199984,1,2,0:0:0:0:
233,137,200102,2,0,B|159:132|120:52|160:-7|160:-7|201:31|185:80,1,292.50001115799,6|0,0:0|0:0,0:0:0:0:
97,162,200570,21,2,0:0:0:0:
57,74,200687,1,0,0:0:0:0:
66,166,200804,1,2,0:0:0:0:
74,259,200922,2,0,L|82:356,1,97.50000371933,8|0,0:0|0:0,0:0:0:0:
176,383,201156,22,0,P|189:308|304:277,1,195.00000743866,2|0,0:0|0:0,0:0:0:0:
353,340,201508,21,2,0:0:0:0:
262,360,201625,2,0,P|264:312|291:272,1,97.50000371933,8|0,0:0|0:0,0:0:0:0:
423,282,201859,1,2,0:0:0:0:
278,177,201977,22,0,B|460:192|460:192|415:175|374:145,1,260,8|0,0:0|0:0,0:0:0:0:
242,22,202328,22,0,P|306:89|278:178,1,195.00000743866,2|0,0:0|0:0,0:0:0:0:
123,144,202679,21,2,0:0:0:0:
218,111,202797,2,0,L|23:127,1,195.00000743866,2|0,0:0|0:0,0:0:0:0:
76,221,203148,22,0,P|55:216|34:219,2,43.3333333333333,2|2|2,0:0|0:0|0:0,0:0:0:0:
49,309,203383,21,4,0:0:0:0:
47,325,203461,1,4,0:0:0:0:
46,341,203539,1,4,0:0:0:0:
44,357,203617,21,4,0:0:0:0:
81,335,203695,1,4,0:0:0:0:
123,332,203773,1,4,0:0:0:0:
162,348,203852,22,0,P|203:375|251:378,2,97.50000371933,8|0|2,0:0|0:0|0:0,0:0:0:0:
299,227,204203,1,8,0:0:0:0:
213,197,204321,2,0,P|210:245|232:289,1,97.50000371933,0|2,0:0|0:0,0:0:0:0:
405,347,204555,22,0,P|448:325|474:285,2,97.50000371933,8|0|2,0:0|0:0|0:0,0:0:0:0:
367,168,204906,1,8,0:0:0:0:
299,227,205024,2,0,P|339:253|387:256,1,97.50000371933,0|2,0:0|0:0,0:0:0:0:
442,87,205258,21,8,0:0:0:0:
352,79,205375,1,8,0:0:0:0:
282,137,205492,1,2,0:0:0:0:
192,129,205609,1,8,0:0:0:0:
159,127,205727,22,0,L|31:115,2,97.50000371933,8|0|2,0:0|0:0|0:0,0:0:0:0:
140,293,206078,1,8,0:0:0:0:
97,213,206195,2,0,L|-30:201,1,97.50000371933,0|2,0:0|0:0,0:0:0:0:
183,373,206430,22,0,L|310:361,1,97.50000371933,8|0,0:0|0:0,0:0:0:0:
370,356,206664,1,2,0:0:0:0:
233,273,206781,22,0,P|256:213|312:183,1,130,8|0,0:0|0:0,0:0:0:0:
442,299,207016,22,0,P|388:267|325:275,1,130,8|0,0:0|0:0,0:0:0:0:
370,356,207367,22,0,P|361:309|325:277,1,97.50000371933,2|0,0:0|0:0,0:0:0:0:
234,274,207602,21,2,0:0:0:0:
240,242,207719,1,2,0:0:0:0:
258,215,207836,1,2,0:0:0:0:
193,150,207953,21,4,0:0:0:0:
236,127,208070,1,4,0:0:0:0:
284,128,208187,1,4,0:0:0:0:
284,35,208305,21,2,0:0:0:0:
343,58,208422,1,2,0:0:0:0:
374,116,208539,1,2,0:0:0:0:
439,50,208656,21,4,0:0:0:0:
463,127,208773,1,4,0:0:0:0:
418,195,208891,1,4,0:0:0:0:
353,205,209008,1,8,0:0:0:0:
299,167,209125,1,2,0:0:0:0:
284,120,209242,1,8,0:0:0:0:
295,72,209359,1,2,0:0:0:0:
317,47,209477,21,12,0:0:0:0:
374,116,209594,2,0,L|357:310,1,195.00000743866,6|0,0:0|0:0,0:0:0:0:
193,118,209945,2,0,P|149:99|101:106,1,97.50000371933,12|0,0:0|0:0,0:0:0:0:
230,204,210180,21,2,0:0:0:0:
138,190,210297,2,0,L|154:384,1,195.00000743866,12|0,0:0|0:0,0:0:0:0:
242,343,210648,22,0,L|238:295,3,48.750001859665,2|2|2|2,0:0|0:0|0:0|0:0,0:0:0:0:
329,302,210883,2,4,L|324:253,3,48.750001859665,4|4|4|4,0:0|0:0|0:0|0:0,0:0:0:0:
415,260,211117,21,2,0:0:0:0:
407,168,211234,1,2,0:0:0:0:
399,77,211352,38,0,P|357:91|303:69,1,97.50000371933,8|0,0:0|0:0,0:0:0:0:
212,1,211586,1,2,0:0:0:0:
266,174,211703,2,0,P|270:79|213:2,1,195.00000743866,2|0,0:0|0:0,0:0:0:0:
184,98,212055,1,8,0:0:0:0:
88,61,212172,22,0,P|135:56|175:83,1,97.50000371933,2|0,0:0|0:0,0:0:0:0:
51,205,212406,2,0,P|70:161|113:140,1,97.50000371933,0|2,0:0|0:0,0:0:0:0:
266,174,212641,21,2,0:0:0:0:
315,235,212758,2,0,P|365:242|411:255,2,97.50000371933,2|8|8,0:0|0:0|0:0,0:0:0:0:
434,142,213227,22,0,P|467:107|471:56,1,97.50000371933,8|0,0:0|0:0,0:0:0:0:
389,69,213461,1,2,0:0:0:0:
207,113,213578,2,0,B|312:138|287:61|390:70,1,195.00000743866,2|0,0:0|0:0,0:0:0:0:
241,37,213930,21,8,0:0:0:0:
358,173,214047,2,0,P|333:220|287:226,1,97.50000371933,2|0,0:0|0:0,0:0:0:0:
225,269,214281,2,0,P|172:285|130:305,1,97.50000371933,0|2,0:0|0:0,0:0:0:0:
17,185,214516,21,8,0:0:0:0:
89,100,214633,2,0,P|31:124|17:185,1,130,0|2,0:0|0:0,0:0:0:0:
281,366,214867,2,0,P|252:371|217:348,1,65,8|0,0:0|0:0,0:0:0:0:
116,281,215102,22,0,P|110:232|101:184,1,97.50000371933,8|0,0:0|0:0,0:0:0:0:
99,172,215336,1,2,0:0:0:0:
0,355,215453,2,0,P|97:360|108:267,1,195.00000743866,2|0,0:0|0:0,0:0:0:0:
189,188,215805,1,8,0:0:0:0:
216,83,215922,2,0,P|207:135|195:193,1,97.50000371933,2|0,0:0|0:0,0:0:0:0:
269,281,216156,2,0,P|278:233|286:185,1,97.50000371933,2|0,0:0|0:0,0:0:0:0:
369,229,216391,21,2,0:0:0:0:
171,281,216508,2,0,L|196:154,1,130,2|0,0:0|0:0,0:0:0:0:
395,357,216742,2,0,L|370:230,1,130,8|0,0:0|0:0,0:0:0:0:
328,37,216977,22,0,L|62:67,1,260,6|0,0:0|0:0,0:0:0:0:
390,132,217328,22,0,L|192:154,1,195.00000743866,12|0,0:0|0:0,0:0:0:0:
452,227,217680,22,0,L|307:242,1,130,2|0,0:0|0:0,0:0:0:0:
206,255,218031,1,2,0:0:0:0:
317,353,218148,2,0,P|359:358|391:308,1,97.50000371933,8|0,0:0|0:0,0:0:0:0:
206,255,218383,22,0,P|184:282|171:312,1,65,2|0,0:0|0:0,0:0:0:0:
196,153,218617,22,0,P|161:159|114:203,1,97.50000371933,8|0,0:0|0:0,0:0:0:0:
253,68,218852,22,0,B|306:17|372:30|419:53|434:99|398:131|336:114|354:68,1,260,6|0,0:0|0:0,0:0:0:0:
494,81,219203,1,8,0:0:0:0:
484,159,219320,2,0,P|450:197|402:208,1,97.50000371933,2|0,0:0|0:0,0:0:0:0:
187,274,219555,1,2,0:0:0:0:
228,344,219672,22,0,P|307:362|385:282,1,195.00000743866,8|0,0:0|0:0,0:0:0:0:
277,156,220023,2,0,P|317:182|325:229,1,97.50000371933,2|0,0:0|0:0,0:0:0:0:
143,349,220258,22,0,P|64:284|97:202,1,195.00000743866,8|0,0:0|0:0,0:0:0:0:
52,137,220609,1,2,0:0:0:0:
169,253,220727,22,0,P|220:262|272:274,1,97.50000371933,8|0,0:0|0:0,0:0:0:0:
277,267,220961,1,2,0:0:0:0:
374,212,221078,22,0,P|372:103|277:156,1,260,2|0,0:0|0:0,0:0:0:0:
332,332,221430,1,8,0:0:0:0:
277,267,221547,2,0,B|175:250|209:345|87:320,1,195.00000743866,2|0,0:0|0:0,0:0:0:0:
0,179,221898,2,0,P|16:232|59:248,1,97.50000371933,2|0,0:0|0:0,0:0:0:0:
189,94,222133,2,0,P|102:79|83:166,1,195.00000743866,8|0,0:0|0:0,0:0:0:0:
458,35,222602,22,0,P|463:155|412:293,1,260,12|0,0:0|0:0,0:0:0:0:
309,343,222953,1,2,0:0:0:0:
309,343,223187,1,2,0:0:0:0:
354,202,223305,22,0,P|265:195|157:333,1,260,4|0,0:0|0:0,0:0:0:0:
16,384,223656,2,0,B|15:277|71:309|65:200,1,195.00000743866,2|8,0:0|0:0,0:0:0:0:
15,136,224008,21,8,0:0:0:0:
174,196,224125,1,8,0:0:0:0:
151,57,224242,21,2,0:0:0:0:
289,200,224359,1,2,0:0:0:0:
403,58,224477,22,0,P|315:116|226:88,1,195.00000743866,0|0,0:0|0:0,0:0:0:0:
147,40,224828,22,0,L|135:109,1,65,10|0,0:0|0:0,0:0:0:0:
45,278,225062,2,0,L|106:299,1,65,10|0,0:0|0:0,0:0:0:0:
53,141,225297,2,0,L|85:197,1,65,10|0,0:0|0:0,0:0:0:0:
214,342,225531,1,2,0:0:0:0:
262,173,225648,22,0,P|288:214|288:271,1,97.50000371933,8|0,0:0|0:0,0:0:0:0:
387,278,225883,22,0,P|410:255|433:247,2,48.750001859665,2|0|2,0:0|0:0|0:0,0:0:0:0:
421,144,226117,22,0,P|373:146|330:124,1,97.50000371933,8|2,0:0|0:0,0:0:0:0:
279,35,226354,21,4,0:0:0:0:
256,192,226479,12,0,237481,0:0:0:0:
