osu file format v14

[General]
AudioFilename: powerless2.mp3
AudioLeadIn: 0
PreviewTime: 16291
Countdown: 0
SampleSet: Soft
StackLeniency: 0.3
Mode: 0
LetterboxInBreaks: 0
WidescreenStoryboard: 0

[Editor]
Bookmarks: 16758,30820,31758,46758,76758,91758,106758,121758,123281,136758,151758,166758,181758,196758,211758,226760
DistanceSpacing: 0.4
BeatDivisor: 4
GridSize: 8
TimelineZoom: 1.8

[Metadata]
Title:Soleil
TitleUnicode:Soleil
Artist:Powerless
ArtistUnicode:Powerless
Creator:Lince Cosmico
Version:MaestroCosmico's Light Insane
Source:
Tags:diverse system AD AD: House 04 house modhelp mapping contest 3.5 mmc lince cosmico senramiura Muryokup maestrosplinter maestro splinter rinsa rin sa lunala miura Classical Instrumental rin_sa
BeatmapID:2008760
BeatmapSetID:773708

[Difficulty]
HPDrainRate:5.5
CircleSize:3.6
OverallDifficulty:8
ApproachRate:8.8
SliderMultiplier:2.6
SliderTickRate:1

[Events]
//Background and Video events
0,0,"cityscape 1920.jpg",0,0
//Break Periods
//Storyboard Layer 0 (Background)
//Storyboard Layer 1 (Fail)
//Storyboard Layer 2 (Pass)
//Storyboard Layer 3 (Foreground)
//Storyboard Layer 4 (Overlay)
//Storyboard Sound Samples

[TimingPoints]
1352,468.75,4,2,1,40,1,0
1352,-133.333333333333,4,2,1,40,0,0
16352,-100,4,2,1,60,0,1
17289,-100,4,2,1,60,0,0
23852,-100,4,2,1,60,0,1
23969,-100,4,2,1,60,0,0
27602,-100,4,2,1,60,0,1
29477,-100,4,2,1,60,0,0
31352,-100,4,2,1,60,0,1
32289,-100,4,2,1,60,0,0
38852,-100,4,2,1,60,0,1
39789,-100,4,2,1,60,0,0
42602,-100,4,2,1,60,0,1
44359,-100,4,2,1,60,0,0
46352,-111.111111111111,4,2,1,50,0,0
76352,-100,4,2,1,60,0,1
77289,-100,4,2,1,60,0,0
83852,-100,4,2,1,60,0,1
83969,-100,4,2,1,60,0,0
87602,-100,4,2,1,60,0,1
89477,-100,4,2,1,60,0,0
90531,-100,4,2,1,60,0,0
91352,-100,4,2,1,60,0,1
92289,-100,4,2,1,60,0,0
98852,-100,4,2,1,60,0,1
99086,-100,4,2,1,60,0,0
102602,-100,4,2,1,60,0,1
104477,-100,4,2,1,60,0,0
106352,-133.333333333333,4,2,1,45,0,0
122875,-133.333333333333,4,2,1,5,0,0
122992,-133.333333333333,4,2,1,45,0,0
136352,-133.333333333333,4,2,1,45,0,1
140102,-133.333333333333,4,2,1,45,0,0
147602,-133.333333333333,4,2,1,45,0,1
147719,-133.333333333333,4,2,1,45,0,0
149477,-133.333333333333,4,2,1,45,0,1
151352,-117.647058823529,4,2,1,45,0,0
165180,-142.857142857143,4,2,1,45,0,0
165883,-117.647058823529,4,2,1,25,0,0
166000,-117.647058823529,4,2,1,30,0,0
166059,-117.647058823529,4,2,1,35,0,0
166117,-117.647058823529,4,2,1,40,0,0
166176,-117.647058823529,4,2,1,45,0,0
166234,-117.647058823529,4,2,1,55,0,0
166352,-100,4,2,1,60,0,1
167289,-100,4,2,1,60,0,0
173852,-100,4,2,1,60,0,1
173969,-100,4,2,1,60,0,0
177602,-100,4,2,1,60,0,1
179477,-100,4,2,1,60,0,0
181352,-100,4,2,1,70,0,1
182289,-100,4,2,1,70,0,0
188852,-100,4,2,1,70,0,1
189789,-100,4,2,1,70,0,0
192602,-100,4,2,1,70,0,1
194477,-100,4,2,1,70,0,0
203852,-100,4,2,1,75,0,1
207602,-100,4,2,1,70,0,0
209477,-100,4,2,1,70,0,1
210648,-100,4,2,1,70,0,0
211352,-100,4,2,1,80,0,1
212641,-100,4,2,1,80,0,0
213227,-100,4,2,1,80,0,1
214516,-100,4,2,1,80,0,0
215102,-100,4,2,1,80,0,1
216391,-100,4,2,1,80,0,0
217328,-133.333333333333,4,2,1,80,0,0
217680,-200,4,2,1,80,0,0
218148,-100,4,2,1,80,0,0
222602,-100,4,2,1,85,0,1
224477,-100,4,2,1,80,0,0
226354,500,4,2,1,40,1,0
228354,555.555555555556,4,2,1,40,1,0
228631,540.540540540541,4,2,1,40,1,0
228901,476.190476190476,4,2,1,40,1,0
229377,588.235294117647,4,2,1,40,1,0
229965,540.540540540541,4,2,1,40,1,0
230505,576.923076923077,4,2,1,40,1,0
231081,468.75,4,2,1,40,1,0
231315,405.405405405405,4,2,1,40,1,0
231416,454.545454545455,4,2,1,40,1,0
231643,670.391061452514,4,2,1,40,1,0
231978,805.369127516779,4,2,1,40,1,0
232380,810.810810810811,4,2,1,25,1,0
232785,606.060606060606,4,2,1,40,1,0
237481,-100,4,2,1,5,0,0

[Colours]
Combo1 : 62,211,219
Combo2 : 233,126,39
Combo3 : 143,208,36
Combo4 : 250,210,52

[HitObjects]
69,109,1352,22,0,B|103:90|103:90|172:97,1,97.50000371933,4|0,0:0|0:0,0:0:0:0:
190,100,1703,1,0,0:0:0:0:
190,100,1937,1,0,0:0:0:0:
190,100,2172,21,0,0:0:0:0:
254,172,2406,1,0,0:0:0:0:
329,109,2641,2,0,L|325:10,1,97.50000371933,0|0,0:0|0:0,0:0:0:0:
297,2,2992,1,0,0:0:0:0:
430,74,3227,22,0,L|424:177,1,97.50000371933,4|0,0:0|0:0,0:0:0:0:
423,200,3578,1,0,0:0:0:0:
423,200,3812,1,0,0:0:0:0:
423,200,4047,21,0,0:0:0:0:
364,277,4281,1,0,0:0:0:0:
297,205,4516,2,0,P|248:196|199:217,1,97.50000371933,0|0,0:0|0:0,0:0:0:0:
186,235,4867,1,0,0:0:0:0:
85,341,5102,22,0,L|81:236,1,97.50000371933,4|0,0:0|0:0,0:0:0:0:
80,214,5453,1,0,0:0:0:0:
80,214,5687,1,0,0:0:0:0:
80,214,5922,21,0,0:0:0:0:
6,150,6156,1,0,0:0:0:0:
97,115,6391,2,0,L|198:121,1,97.50000371933,0|0,0:0|0:0,0:0:0:0:
223,122,6742,1,0,0:0:0:0:
281,244,6977,22,0,P|306:202|354:191,1,97.50000371933,4|0,0:0|0:0,0:0:0:0:
379,196,7328,1,0,0:0:0:0:
379,196,7562,1,0,0:0:0:0:
379,196,7797,21,0,0:0:0:0:
450,130,8031,1,0,0:0:0:0:
357,96,8266,2,0,P|342:49|359:4,1,97.50000371933,0|0,0:0|0:0,0:0:0:0:
387,2,8617,1,0,0:0:0:0:
283,158,8852,22,0,L|175:146,1,97.50000371933,6|0,0:0|0:0,0:0:0:0:
147,140,9203,1,8,0:0:0:0:
53,70,9437,1,2,0:0:0:0:
29,87,9555,2,0,P|19:128|33:188,1,97.50000371933,8|0,0:0|0:0,0:0:0:0:
111,264,10023,21,2,0:0:0:0:
129,287,10141,2,0,L|125:350,2,48.750001859665,8|0|2,0:0|0:0|0:0,0:0:0:0:
111,264,10492,2,0,L|107:215,1,48.750001859665,8|0,0:0|0:0,0:0:0:0:
170,137,10727,22,0,P|205:158|268:143,1,97.50000371933,6|0,0:0|0:0,0:0:0:0:
288,123,11078,1,8,0:0:0:0:
377,47,11312,1,2,0:0:0:0:
401,62,11430,2,0,L|394:168,1,97.50000371933,8|0,0:0|0:0,0:0:0:0:
383,275,11898,21,2,0:0:0:0:
404,295,12016,2,0,L|464:299,2,48.750001859665,8|0|2,0:0|0:0|0:0,0:0:0:0:
383,275,12367,2,0,L|334:278,1,48.750001859665,8|0,0:0|0:0,0:0:0:0:
254,346,12602,22,0,B|215:355|215:355|157:333,1,97.50000371933,6|0,0:0|0:0,0:0:0:0:
126,317,12953,1,8,0:0:0:0:
62,218,13187,1,2,0:0:0:0:
40,197,13305,2,0,L|29:300,1,97.50000371933,8|0,0:0|0:0,0:0:0:0:
187,207,13773,21,2,0:0:0:0:
171,182,13891,2,0,L|167:128,2,48.750001859665,8|0|2,0:0|0:0|0:0,0:0:0:0:
187,207,14242,2,0,L|183:255,1,48.750001859665,8|0,0:0|0:0,0:0:0:0:
167,354,14477,21,2,0:0:0:0:
195,350,14594,1,2,0:0:0:0:
244,341,14711,1,12,0:0:0:0:
272,337,14828,1,2,0:0:0:0:
423,308,15063,1,2,0:0:0:0:
395,312,15180,22,0,B|399:245|399:245|412:222|412:222|401:204|401:204|405:109,1,195.00000743866,12|0,0:0|0:0,0:0:0:0:
36,5,16352,6,0,L|29:189,1,130,6|0,0:0|0:0,0:0:0:0:
114,185,16703,2,0,L|117:92,1,65,8|0,0:0|0:0,0:0:0:0:
201,96,16937,1,2,0:0:0:0:
201,96,17055,2,0,L|197:188,1,65,8|0,0:0|0:0,0:0:0:0:
182,252,17289,2,0,P|237:243|261:223,1,65,2|8,0:0|0:0,0:0:0:0:
313,186,17523,1,0,0:0:0:0:
313,186,17641,2,0,P|332:238|327:268,1,65,8|0,0:0|0:0,0:0:0:0:
263,312,17875,1,2,0:0:0:0:
263,312,17993,2,0,P|244:260|249:230,1,65,8|8,0:0|0:0,0:0:0:0:
359,349,18227,22,0,B|408:362|408:362|493:338,1,130,6|0,0:0|0:0,0:0:0:0:
470,250,18578,2,0,L|399:272,1,65,8|0,0:0|0:0,0:0:0:0:
378,186,18812,1,2,0:0:0:0:
378,186,18930,2,0,L|448:163,1,65,8|0,0:0|0:0,0:0:0:0:
495,81,19164,2,0,P|462:67|420:71,1,65,2|8,0:0|0:0,0:0:0:0:
369,0,19398,1,0,0:0:0:0:
369,0,19516,2,0,P|348:25|339:56,1,65,8|0,0:0|0:0,0:0:0:0:
264,124,19750,1,2,0:0:0:0:
264,124,19867,2,0,P|255:93|235:68,1,65,8|0,0:0|0:0,0:0:0:0:
170,135,20102,22,0,P|137:148|50:113,1,130,6|0,0:0|0:0,0:0:0:0:
3,189,20453,2,0,L|16:275,1,65,8|2,0:0|0:0,0:0:0:0:
90,297,20687,1,0,0:0:0:0:
90,297,20805,2,0,L|77:383,1,65,8|0,0:0|0:0,0:0:0:0:
168,340,21039,2,0,P|204:344|233:357,1,65,2|8,0:0|0:0,0:0:0:0:
316,347,21273,1,0,0:0:0:0:
316,347,21391,2,0,P|298:282|290:202,1,130,8|2,0:0|0:0,0:0:0:0:
347,158,21742,2,0,P|383:162|412:175,1,65,8|2,0:0|0:0,0:0:0:0:
382,75,21977,22,0,P|319:76|265:127,1,130,6|0,0:0|0:0,0:0:0:0:
215,180,22328,2,0,P|173:176|145:153,1,65,12|0,0:0|0:0,0:0:0:0:
103,104,22562,1,0,0:0:0:0:
103,104,22680,2,0,L|111:236,1,130,8|2,0:0|0:0,0:0:0:0:
145,312,23031,2,0,L|216:296,1,65,8|0,0:0|0:0,0:0:0:0:
275,246,23266,1,8,0:0:0:0:
275,246,23383,2,0,L|346:262,1,65,2|0,0:0|0:0,0:0:0:0:
405,312,23617,2,0,L|476:296,1,65,2|0,0:0|0:0,0:0:0:0:
512,221,23852,22,0,P|449:228|399:188,1,130,6|0,0:0|0:0,0:0:0:0:
314,168,24203,2,0,P|327:138|352:118,1,65,8|0,0:0|0:0,0:0:0:0:
406,47,24437,1,2,0:0:0:0:
406,47,24554,2,0,P|429:69|439:99,1,65,8|0,0:0|0:0,0:0:0:0:
351,118,24789,2,0,L|243:91,1,65,2|8,0:0|0:0,0:0:0:0:
236,31,25023,1,0,0:0:0:0:
236,31,25141,2,0,P|201:69|204:146,1,130,8|2,0:0|0:0,0:0:0:0:
308,224,25492,2,0,L|416:251,1,65,8|8,0:0|0:0,0:0:0:0:
422,324,25727,22,0,L|293:338,1,130,6|0,0:0|0:0,0:0:0:0:
212,379,26078,2,0,L|64:361,1,130,8|0,0:0|0:0,0:0:0:0:
17,305,26430,2,0,P|1:270|3:226,1,65,8|8,0:0|0:0,0:0:0:0:
61,183,26664,2,0,P|75:211|78:244,1,65,8|2,0:0|0:0,0:0:0:0:
153,289,26898,1,0,0:0:0:0:
153,289,27016,2,0,L|301:307,1,130,2|2,0:0|0:0,0:0:0:0:
326,223,27367,2,0,L|255:216,1,65,8|0,0:0|0:0,0:0:0:0:
215,144,27602,22,0,B|256:127|256:127|345:137,1,130,12|0,0:0|0:0,0:0:0:0:
415,194,27953,2,0,P|435:130|408:73,1,130,2|2,0:0|0:0,0:0:0:0:
331,39,28305,2,0,L|186:24,1,130,12|0,0:0|0:0,0:0:0:0:
158,105,28656,1,2,0:0:0:0:
158,105,28773,2,0,L|248:114,1,65,0|8,0:0|0:0,0:0:0:0:
241,194,29008,1,8,0:0:0:0:
241,194,29125,1,8,0:0:0:0:
241,194,29242,2,0,L|229:277,1,65,2|2,0:0|0:0,0:0:0:0:
159,329,29477,22,0,P|219:360|297:335,1,130,12|0,0:0|0:0,0:0:0:0:
317,274,29828,2,0,P|343:288|367:325,1,65,10|0,0:0|0:0,0:0:0:0:
439,369,30062,1,10,0:0:0:0:
439,369,30180,2,0,P|452:339|452:307,1,65,0|10,0:0|0:0,0:0:0:0:
409,214,30414,21,0,0:0:0:0:
414,201,30531,1,2,0:0:0:0:
353,151,30648,2,0,L|339:83,1,65,8|0,0:0|0:0,0:0:0:0:
418,40,30883,2,0,L|432:108,1,65,2|0,0:0|0:0,0:0:0:0:
339,87,31117,2,0,L|325:19,1,65,4|0,0:0|0:0,0:0:0:0:
253,115,31352,6,0,P|182:132|134:94,1,130,6|0,0:0|0:0,0:0:0:0:
43,13,31703,1,8,0:0:0:0:
61,30,31820,2,0,L|55:118,1,65,0|2,0:0|0:0,0:0:0:0:
134,166,32055,2,0,L|138:101,1,65,8|0,0:0|0:0,0:0:0:0:
42,183,32289,21,2,0:0:0:0:
27,204,32406,2,0,L|30:268,1,65,8|0,0:0|0:0,0:0:0:0:
111,309,32641,2,0,L|115:374,1,65,8|0,0:0|0:0,0:0:0:0:
188,245,32875,1,2,0:0:0:0:
205,264,32992,2,0,P|230:269|269:262,1,65,8|8,0:0|0:0,0:0:0:0:
348,218,33227,22,0,L|337:373,1,130,6|0,0:0|0:0,0:0:0:0:
425,319,33578,1,8,0:0:0:0:
503,349,33695,2,0,P|474:352|436:332,1,65,0|2,0:0|0:0,0:0:0:0:
348,218,33930,22,0,L|354:144,1,65,8|8,0:0|0:0,0:0:0:0:
433,110,34164,1,2,0:0:0:0:
368,235,34281,2,0,L|374:171,1,65,8|0,0:0|0:0,0:0:0:0:
354,58,34516,2,0,P|313:22|232:31,1,130,8|2,0:0|0:0,0:0:0:0:
186,98,34867,2,0,P|160:108|114:100,1,65,8|0,0:0|0:0,0:0:0:0:
30,55,35102,22,0,B|31:107|31:107|44:129|44:129|44:183,1,130,6|0,0:0|0:0,0:0:0:0:
44,181,35453,1,8,0:0:0:0:
98,287,35687,1,0,0:0:0:0:
90,275,35805,2,0,L|14:263,1,65,8|0,0:0|0:0,0:0:0:0:
156,204,36039,21,2,0:0:0:0:
156,204,36156,2,0,P|177:230|187:266,1,65,8|0,0:0|0:0,0:0:0:0:
222,377,36391,2,0,P|250:314|325:297,1,130,0|2,0:0|0:0,0:0:0:0:
304,294,36742,2,0,P|312:333|335:358,1,65,8|2,0:0|0:0,0:0:0:0:
412,359,36977,22,0,L|408:226,1,130,6|0,0:0|0:0,0:0:0:0:
488,187,37328,2,0,L|491:258,2,65,12|0|0,0:0|0:0|0:0,0:0:0:0:
439,109,37680,21,8,0:0:0:0:
420,127,37797,2,0,B|353:150|361:97|292:124,1,130,0|8,0:0|0:0,0:0:0:0:
238,182,38148,2,0,P|206:187|171:195,1,65,0|2,0:0|0:0,0:0:0:0:
123,108,38383,2,0,P|74:79|1:93,1,130,2|2,0:0|0:0,0:0:0:0:
4,90,38852,22,0,B|25:135|25:135|17:227,1,130,6|0,0:0|0:0,0:0:0:0:
16,306,39203,2,0,P|41:293|94:291,1,65,8|0,0:0|0:0,0:0:0:0:
155,333,39437,1,2,0:0:0:0:
169,354,39555,2,0,P|198:368|230:371,1,65,8|0,0:0|0:0,0:0:0:0:
302,259,39789,21,2,0:0:0:0:
321,275,39906,2,0,L|319:349,1,65,8|0,0:0|0:0,0:0:0:0:
213,196,40141,2,0,L|215:270,1,65,8|0,0:0|0:0,0:0:0:0:
303,164,40375,1,2,0:0:0:0:
303,164,40492,2,0,P|282:129|255:111,1,65,8|8,0:0|0:0,0:0:0:0:
185,65,40727,22,0,B|86:60|86:60|105:92,1,130,2|0,0:0|0:0,0:0:0:0:
135,171,41078,1,8,0:0:0:0:
55,199,41195,2,0,P|82:202|119:187,1,65,0|0,0:0|0:0,0:0:0:0:
198,242,41430,22,0,L|193:312,1,65,8|8,0:0|0:0,0:0:0:0:
285,355,41664,2,0,L|280:290,2,65,8|8|2,0:0|0:0|0:0,0:0:0:0:
374,299,42016,2,0,L|383:164,1,130,8|2,0:0|0:0,0:0:0:0:
382,169,42367,2,0,P|410:158|455:165,1,65,8|8,0:0|0:0,0:0:0:0:
331,86,42602,22,0,P|281:58|201:80,1,130,12|0,0:0|0:0,0:0:0:0:
262,146,42953,1,2,0:0:0:0:
262,146,43187,21,2,0:0:0:0:
212,71,43305,2,0,P|162:99|82:77,1,130,12|0,0:0|0:0,0:0:0:0:
8,26,43656,22,0,L|14:167,1,130,0|8,0:0|0:0,0:0:0:0:
87,199,44008,21,8,0:0:0:0:
100,193,44125,1,8,0:0:0:0:
196,225,44242,1,2,0:0:0:0:
210,235,44359,1,2,0:0:0:0:
306,170,44477,22,0,B|312:221|312:221|326:240|326:240|332:301,1,130,12|0,0:0|0:0,0:0:0:0:
389,353,44828,2,0,L|462:360,1,65,10|0,0:0|0:0,0:0:0:0:
308,376,45062,2,0,L|235:383,1,65,10|0,0:0|0:0,0:0:0:0:
173,334,45297,21,10,0:0:0:0:
197,232,45531,1,2,0:0:0:0:
188,238,45648,2,0,L|189:312,1,65,8|0,0:0|0:0,0:0:0:0:
116,191,45883,2,0,L|107:146,6,32.5,0|0|2|0|0|0|0,0:0|0:0|0:0|0:0|0:0|0:0|0:0,0:0:0:0:
177,78,46352,6,0,P|234:75|280:109,1,116.999996429443,0|0,0:0|0:0,0:0:0:0:
347,173,46703,1,2,0:0:0:0:
347,173,46820,2,0,P|374:162|394:142,1,58.4999982147217,0|0,0:0|0:0,0:0:0:0:
456,79,47055,2,0,P|483:90|503:110,1,58.4999982147217,8|0,0:0|0:0,0:0:0:0:
512,204,47289,2,0,B|522:245|522:245|500:328,1,116.999996429443,2|0,0:0|0:0,0:0:0:0:
415,361,47641,2,0,B|370:347|370:347|345:351|345:351|285:338,1,116.999996429443,2|0,0:0|0:0,0:0:0:0:
246,258,47992,2,0,L|304:250,1,58.4999982147217,8|0,0:0|0:0,0:0:0:0:
206,358,48227,21,2,0:0:0:0:
210,363,48461,1,0,0:0:0:0:
210,363,48578,2,0,L|84:342,1,116.999996429443,2|0,0:0|0:0,0:0:0:0:
36,263,48930,2,0,L|94:255,1,58.4999982147217,2|0,0:0|0:0,0:0:0:0:
163,190,49164,2,0,P|137:170|100:166,2,58.4999982147217,8|0|0,0:0|0:0|0:0,0:0:0:0:
240,243,49516,2,0,P|268:236|290:217,1,58.4999982147217,2|0,0:0|0:0,0:0:0:0:
333,151,49750,2,0,L|354:270,1,116.999996429443,14|0,0:0|0:0,0:0:0:0:
369,349,50102,21,2,0:0:0:0:
373,354,50336,1,8,0:0:0:0:
373,354,50453,2,0,P|409:338|431:306,1,58.4999982147217,2|0,0:0|0:0,0:0:0:0:
512,308,50687,2,0,P|496:272|464:250,1,58.4999982147217,2|0,0:0|0:0,0:0:0:0:
466,169,50922,2,0,P|430:185|408:217,1,58.4999982147217,2|0,0:0|0:0,0:0:0:0:
353,266,51156,1,8,0:0:0:0:
333,150,51391,22,0,L|353:270,1,116.999996429443,2|2,0:0|0:0,0:0:0:0:
265,252,51742,2,0,L|256:194,1,58.4999982147217,8|0,0:0|0:0,0:0:0:0:
175,238,51977,21,6,0:0:0:0:
161,240,52328,1,8,0:0:0:0:
147,242,52680,1,8,0:0:0:0:
21,250,52914,21,2,0:0:0:0:
18,206,53031,1,2,0:0:0:0:
15,162,53148,2,0,L|8:68,2,87.7499973220826,4|4|4,0:0|0:0|0:0,0:0:0:0:
100,197,53617,2,0,L|94:132,1,58.4999982147217,8|0,0:0|0:0,0:0:0:0:
179,159,53852,1,2,0:0:0:0:
157,67,54203,22,0,P|217:73|259:117,1,116.999996429443,2|0,0:0|0:0,0:0:0:0:
326,166,54555,2,0,P|360:168|392:152,1,58.4999982147217,8|0,0:0|0:0,0:0:0:0:
451,109,54789,2,0,P|426:85|391:77,1,58.4999982147217,2|0,0:0|0:0,0:0:0:0:
387,165,55023,1,0,0:0:0:0:
387,165,55141,2,0,L|408:294,1,116.999996429443,2|0,0:0|0:0,0:0:0:0:
323,349,55492,2,0,L|311:282,1,58.4999982147217,8|0,0:0|0:0,0:0:0:0:
202,373,55727,21,6,0:0:0:0:
207,378,55961,21,0,0:0:0:0:
207,378,56078,2,0,P|155:348|95:348,1,116.999996429443,2|0,0:0|0:0,0:0:0:0:
1,294,56430,2,0,P|35:292|74:260,1,58.4999982147217,2|0,0:0|0:0,0:0:0:0:
0,154,56664,2,0,L|9:211,1,58.4999982147217,2|0,0:0|0:0,0:0:0:0:
69,106,56898,2,0,P|48:85|21:74,2,58.4999982147217,0|2|8,0:0|0:0|0:0,0:0:0:0:
143,162,57250,2,0,P|163:114|139:48,1,116.999996429443,0|0,0:0|0:0,0:0:0:0:
239,9,57602,21,2,0:0:0:0:
243,14,57836,21,8,0:0:0:0:
243,14,57953,2,0,L|303:31,1,58.4999982147217,8|0,0:0|0:0,0:0:0:0:
348,98,58187,2,0,L|408:81,1,58.4999982147217,2|0,0:0|0:0,0:0:0:0:
493,50,58422,2,0,B|510:91|510:91|493:167,1,116.999996429443,2|8,0:0|0:0,0:0:0:0:
489,244,58773,2,0,L|503:300,2,58.4999982147217,0|2|0,0:0|0:0|0:0,0:0:0:0:
420,194,59125,1,2,0:0:0:0:
420,194,59242,2,0,L|362:191,1,58.4999982147217,8|0,0:0|0:0,0:0:0:0:
253,181,59477,21,2,0:0:0:0:
238,180,59828,1,8,0:0:0:0:
223,179,60180,1,2,0:0:0:0:
156,124,60531,22,0,P|183:102|217:97,1,58.4999982147217,2|0,0:0|0:0,0:0:0:0:
140,210,60766,2,0,P|112:201|90:182,1,58.4999982147217,2|0,0:0|0:0,0:0:0:0:
223,179,61000,1,2,0:0:0:0:
223,179,61352,22,0,B|246:244|197:286,1,116.999996429443,14|0,0:0|0:0,0:0:0:0:
112,340,61703,2,0,P|146:373|182:381,1,58.4999982147217,2|0,0:0|0:0,0:0:0:0:
241,380,61937,2,0,P|279:352|293:318,1,58.4999982147217,2|8,0:0|0:0,0:0:0:0:
307,212,62172,2,0,L|319:271,2,58.4999982147217,0|2|0,0:0|0:0|0:0,0:0:0:0:
339,137,62523,1,0,0:0:0:0:
339,137,62641,2,0,P|357:115|383:101,1,58.4999982147217,8|0,0:0|0:0,0:0:0:0:
468,104,62875,2,0,B|495:134|495:134|506:229,1,116.999996429443,2|0,0:0|0:0,0:0:0:0:
511,323,63227,22,0,B|465:314|465:314|446:317|446:317|376:305,1,116.999996429443,8|0,0:0|0:0,0:0:0:0:
381,229,63578,2,0,L|394:298,1,58.4999982147217,2|0,0:0|0:0,0:0:0:0:
312,343,63812,2,0,L|286:206,1,116.999996429443,10|0,0:0|0:0,0:0:0:0:
227,160,64164,2,0,B|271:126|271:126|333:143,1,116.999996429443,8|0,0:0|0:0,0:0:0:0:
366,70,64516,2,0,L|254:35,1,116.999996429443,8|2,0:0|0:0,0:0:0:0:
186,83,64867,2,0,L|233:48,1,58.4999982147217,8|0,0:0|0:0,0:0:0:0:
96,44,65102,21,2,0:0:0:0:
100,49,65336,21,2,0:0:0:0:
100,49,65453,2,0,P|91:89|100:126,1,58.4999982147217,8|0,0:0|0:0,0:0:0:0:
178,139,65687,2,0,P|186:111|185:82,1,58.4999982147217,2|0,0:0|0:0,0:0:0:0:
101,206,65922,2,0,B|139:209|165:182|165:182|228:173|266:234,1,175.499994644165,10|0,0:0|0:0,0:0:0:0:
290,319,66391,1,2,0:0:0:0:
290,319,66508,2,0,P|350:267|352:176,1,175.499994644165,10|0,0:0|0:0,0:0:0:0:
280,72,66977,22,0,B|196:32|196:116|112:72,1,175.499994644165,2|2,0:0|0:0,0:0:0:0:
52,8,67445,2,0,P|26:39|23:80,1,58.4999982147217,0|2,0:0|0:0,0:0:0:0:
44,136,67680,2,0,P|78:159|118:158,1,58.4999982147217,8|0,0:0|0:0,0:0:0:0:
211,104,67914,2,0,L|223:161,2,58.4999982147217,2|0|0,0:0|0:0|0:0,0:0:0:0:
322,69,68266,2,0,L|312:194,1,116.999996429443,2|0,0:0|0:0,0:0:0:0:
411,223,68617,2,0,L|405:164,1,58.4999982147217,8|0,0:0|0:0,0:0:0:0:
491,269,68852,22,0,P|448:311|390:312,1,116.999996429443,8|2,0:0|0:0,0:0:0:0:
322,252,69203,2,0,P|281:211|224:207,1,116.999996429443,10|0,0:0|0:0,0:0:0:0:
142,242,69555,2,0,L|153:344,1,58.4999982147217,2|0,0:0|0:0,0:0:0:0:
65,347,69789,2,0,L|51:219,1,116.999996429443,10|0,0:0|0:0,0:0:0:0:
30,140,70141,2,0,P|59:138|87:145,1,58.4999982147217,2|0,0:0|0:0,0:0:0:0:
140,211,70375,2,0,P|124:186|116:158,1,58.4999982147217,0|2,0:0|0:0,0:0:0:0:
146,80,70609,1,0,0:0:0:0:
146,80,70727,22,0,P|202:65|256:92,1,116.999996429443,2|0,0:0|0:0,0:0:0:0:
303,169,71078,2,0,P|360:164|400:123,1,116.999996429443,2|0,0:0|0:0,0:0:0:0:
456,53,71430,2,0,P|485:86|495:117,1,58.4999982147217,2|0,0:0|0:0,0:0:0:0:
476,199,71664,2,0,P|423:174|399:123,1,116.999996429443,2|0,0:0|0:0,0:0:0:0:
370,38,72016,2,0,P|331:59|311:84,1,58.4999982147217,2|0,0:0|0:0,0:0:0:0:
241,119,72250,2,0,L|259:238,1,116.999996429443,8|2,0:0|0:0,0:0:0:0:
296,337,72602,22,0,P|239:345|185:314,1,116.999996429443,2|8,0:0|0:0,0:0:0:0:
52,244,72953,2,0,P|27:227|0:224,1,58.4999982147217,2|0,0:0|0:0,0:0:0:0:
8,383,73187,2,0,P|36:380|60:363,1,58.4999982147217,2|8,0:0|0:0,0:0:0:0:
136,255,73422,1,0,0:0:0:0:
136,255,73539,22,0,L|157:140,1,116.999996429443,2|8,0:0|0:0,0:0:0:0:
245,205,73891,2,0,L|266:319,1,116.999996429443,2|2,0:0|0:0,0:0:0:0:
353,254,74242,2,0,L|363:197,1,58.4999982147217,8|0,0:0|0:0,0:0:0:0:
435,306,74477,21,2,0:0:0:0:
454,306,74594,1,2,0:0:0:0:
473,301,74711,1,8,0:0:0:0:
489,291,74828,1,2,0:0:0:0:
440,220,75062,21,2,0:0:0:0:
436,226,75180,2,0,L|427:194,2,29.2499991073609,8|0|2,0:0|0:0|0:0,0:0:0:0:
505,153,75414,1,10,0:0:0:0:
439,86,75648,1,10,0:0:0:0:
502,22,75883,1,4,0:0:0:0:
461,0,76000,1,4,0:0:0:0:
409,4,76117,1,4,0:0:0:0:
366,38,76234,1,4,0:0:0:0:
344,85,76352,6,0,P|294:121|226:112,1,130,6|0,0:0|0:0,0:0:0:0:
151,50,76703,1,8,0:0:0:0:
138,133,76820,2,0,L|151:51,1,65,0|2,0:0|0:0,0:0:0:0:
72,194,77055,2,0,P|100:218|138:226,1,65,8|0,0:0|0:0,0:0:0:0:
238,218,77289,21,2,0:0:0:0:
251,236,77406,2,0,L|246:315,1,65,8|0,0:0|0:0,0:0:0:0:
157,322,77641,1,8,0:0:0:0:
230,384,77758,2,0,P|259:386|294:371,1,65,0|2,0:0|0:0,0:0:0:0:
354,310,77992,2,0,P|382:308|418:325,1,65,8|8,0:0|0:0,0:0:0:0:
510,379,78227,22,0,B|506:326|506:326|493:311|493:311|488:251,1,130,6|0,0:0|0:0,0:0:0:0:
510,173,78578,1,8,0:0:0:0:
433,143,78695,2,0,P|457:143|500:159,1,65,0|2,0:0|0:0,0:0:0:0:
372,215,78930,21,8,0:0:0:0:
372,215,79047,1,0,0:0:0:0:
309,145,79164,2,0,L|312:69,2,65,8|0|2,0:0|0:0|0:0,0:0:0:0:
276,223,79516,22,0,P|211:223|164:272,1,130,8|2,0:0|0:0,0:0:0:0:
166,266,79867,2,0,P|197:263|226:278,1,65,8|0,0:0|0:0,0:0:0:0:
369,340,80102,22,0,B|386:297|386:297|372:215,1,130,6|0,0:0|0:0,0:0:0:0:
371,214,80453,1,8,0:0:0:0:
442,112,80687,1,2,0:0:0:0:
434,119,80805,22,0,L|369:109,1,65,8|0,0:0|0:0,0:0:0:0:
312,39,81039,2,0,L|235:45,2,65,8|0|2,0:0|0:0|0:0,0:0:0:0:
203,115,81391,2,0,B|111:108|111:108|134:141,1,130,8|0,0:0|0:0,0:0:0:0:
90,28,81742,2,0,P|59:44|37:71,1,65,2|0,0:0|0:0,0:0:0:0:
117,258,81977,22,0,P|103:196|133:139,1,130,6|0,0:0|0:0,0:0:0:0:
196,209,82328,1,12,0:0:0:0:
196,209,82445,2,0,L|277:203,1,65,0|0,0:0|0:0,0:0:0:0:
348,201,82680,21,2,0:0:0:0:
301,282,82797,2,0,P|370:294|421:261,1,130,0|8,0:0|0:0,0:0:0:0:
485,219,83148,2,0,P|454:228|430:249,1,65,0|8,0:0|0:0,0:0:0:0:
345,176,83383,22,0,L|352:106,1,65,2|0,0:0|0:0,0:0:0:0:
254,54,83617,2,0,L|262:122,1,65,2|0,0:0|0:0,0:0:0:0:
209,204,83852,22,0,B|146:223|155:171|83:200,1,130,6|0,0:0|0:0,0:0:0:0:
18,137,84203,1,8,0:0:0:0:
0,222,84320,2,0,P|-3:190|6:159,1,65,0|2,0:0|0:0,0:0:0:0:
69,283,84555,2,0,P|45:306|7:314,1,65,8|0,0:0|0:0,0:0:0:0:
83,199,84789,21,2,0:0:0:0:
83,199,84906,2,0,P|109:204|142:233,1,65,8|0,0:0|0:0,0:0:0:0:
194,307,85141,1,8,0:0:0:0:
277,328,85258,2,0,L|213:324,1,65,0|2,0:0|0:0,0:0:0:0:
326,241,85492,2,0,L|250:243,1,65,8|8,0:0|0:0,0:0:0:0:
402,306,85727,22,0,B|423:267|423:267|410:182,1,130,6|0,0:0|0:0,0:0:0:0:
396,89,86078,1,8,0:0:0:0:
482,67,86195,2,0,P|455:85|424:93,1,65,0|2,0:0|0:0,0:0:0:0:
311,29,86430,22,0,L|317:107,1,65,8|0,0:0|0:0,0:0:0:0:
237,141,86664,2,0,L|233:209,2,65,8|0|2,0:0|0:0|0:0,0:0:0:0:
180,65,87016,2,0,P|131:97|64:79,1,130,6|0,0:0|0:0,0:0:0:0:
0,33,87367,2,0,P|31:41|55:65,1,65,8|0,0:0|0:0,0:0:0:0:
100,178,87602,22,0,B|98:230|98:230|83:250|83:250|81:302,1,130,12|0,0:0|0:0,0:0:0:0:
152,367,87953,1,2,0:0:0:0:
242,177,88187,21,2,0:0:0:0:
242,177,88305,2,0,B|240:229|240:229|225:249|225:249|223:301,1,130,12|0,0:0|0:0,0:0:0:0:
304,355,88656,1,2,0:0:0:0:
385,160,88891,21,8,0:0:0:0:
453,223,89008,2,0,B|451:255|451:255|446:262|446:262|445:294,2,65,8|8|2,0:0|0:0|0:0,0:0:0:0:
385,160,89359,1,2,0:0:0:0:
473,127,89477,22,0,P|432:80|364:67,1,130,8|0,0:0|0:0,0:0:0:0:
299,113,89828,2,0,L|286:189,1,65,10|0,0:0|0:0,0:0:0:0:
195,163,90062,2,0,L|219:233,1,65,10|0,0:0|0:0,0:0:0:0:
129,258,90297,2,0,L|185:304,1,65,10|0,0:0|0:0,0:0:0:0:
246,354,90531,21,2,0:0:0:0:
333,351,90648,2,0,L|268:353,1,65,8|0,0:0|0:0,0:0:0:0:
127,359,90883,21,2,0:0:0:0:
323,248,91117,2,0,L|406:246,1,65,4|0,0:0|0:0,0:0:0:0:
384,136,91352,6,0,B|328:128|328:128|305:137|305:137|243:129,1,130,6|0,0:0|0:0,0:0:0:0:
162,64,91703,1,8,0:0:0:0:
154,77,91820,2,0,P|141:112|145:157,1,65,0|2,0:0|0:0,0:0:0:0:
243,214,92055,2,0,P|256:179|252:134,1,65,8|0,0:0|0:0,0:0:0:0:
126,250,92289,1,2,0:0:0:0:
109,247,92406,2,0,L|45:240,1,65,8|0,0:0|0:0,0:0:0:0:
73,336,92641,2,0,L|204:350,1,130,8|2,0:0|0:0,0:0:0:0:
269,262,92992,2,0,P|293:290|304:334,1,65,8|8,0:0|0:0,0:0:0:0:
482,372,93227,22,0,B|433:359|433:359|348:383,1,130,6|4,0:0|0:0,0:0:0:0:
386,280,93578,1,8,0:0:0:0:
386,280,93812,1,2,0:0:0:0:
407,273,93930,2,0,L|478:252,2,65,8|0|8,0:0|0:0|0:0,0:0:0:0:
313,216,94281,2,0,L|251:185,1,65,0|2,0:0|0:0,0:0:0:0:
342,50,94516,2,0,P|401:120|403:163,1,130,8|0,0:0|0:0,0:0:0:0:
400,182,94867,1,2,0:0:0:0:
313,216,95102,22,0,L|159:250,1,130,6|0,0:0|0:0,0:0:0:0:
110,188,95453,2,0,L|123:124,1,65,8|0,0:0|0:0,0:0:0:0:
22,181,95687,1,2,0:0:0:0:
19,194,95805,2,0,P|28:237|52:264,1,65,8|0,0:0|0:0,0:0:0:0:
105,319,96039,2,0,L|92:383,1,65,8|0,0:0|0:0,0:0:0:0:
199,346,96273,1,2,0:0:0:0:
212,346,96391,2,0,B|265:344|265:344|282:354|282:354|339:353,1,130,8|0,0:0|0:0,0:0:0:0:
415,294,96742,2,0,P|374:266|344:264,1,65,2|0,0:0|0:0,0:0:0:0:
453,365,96977,22,0,L|474:229,1,130,6|0,0:0|0:0,0:0:0:0:
402,163,97328,2,0,L|388:96,1,65,12|0,0:0|0:0,0:0:0:0:
469,42,97562,1,0,0:0:0:0:
462,32,97680,2,0,P|404:-1|340:9,1,130,2|2,0:0|0:0,0:0:0:0:
294,97,98031,2,0,P|261:98|230:89,1,65,8|0,0:0|0:0,0:0:0:0:
176,14,98266,1,2,0:0:0:0:
174,0,98383,2,0,P|158:29|135:51,1,65,2|0,0:0|0:0,0:0:0:0:
26,38,98617,2,0,P|43:66|50:97,1,65,8|0,0:0|0:0,0:0:0:0:
6,193,98852,22,0,B|0:238|0:238|31:324,1,130,6|0,0:0|0:0,0:0:0:0:
136,282,99203,1,8,0:0:0:0:
134,296,99320,2,0,L|127:371,1,65,0|2,0:0|0:0,0:0:0:0:
233,298,99555,2,0,L|240:223,1,65,8|0,0:0|0:0,0:0:0:0:
172,138,99789,1,2,0:0:0:0:
159,129,99906,2,0,P|123:115|96:112,1,65,8|0,0:0|0:0,0:0:0:0:
103,12,100141,2,0,P|169:23|237:67,1,130,8|2,0:0|0:0,0:0:0:0:
290,121,100492,2,0,P|322:118|353:110,1,65,8|8,0:0|0:0,0:0:0:0:
433,40,100727,1,6,0:0:0:0:
433,40,100961,1,0,0:0:0:0:
452,29,101078,22,0,L|478:196,1,130,8|2,0:0|0:0,0:0:0:0:
401,225,101429,2,0,L|411:297,1,65,8|0,0:0|0:0,0:0:0:0:
471,361,101664,1,8,0:0:0:0:
457,372,101782,2,0,P|418:385|388:383,1,65,0|2,0:0|0:0,0:0:0:0:
311,319,102016,2,0,B|266:304|266:304|176:339,1,130,8|0,0:0|0:0,0:0:0:0:
97,279,102367,2,0,L|161:249,1,65,2|0,0:0|0:0,0:0:0:0:
150,154,102602,22,0,P|226:176|249:243,1,130,12|0,0:0|0:0,0:0:0:0:
311,319,102953,2,0,B|355:186,1,130,2|2,0:0|0:0,0:0:0:0:
207,93,103305,2,0,B|247:216,1,130,12|0,0:0|0:0,0:0:0:0:
438,169,103656,2,0,P|402:116|340:105,1,130,2|8,0:0|0:0,0:0:0:0:
247,216,104008,2,0,L|225:148,1,65,8|8,0:0|0:0,0:0:0:0:
360,43,104242,2,0,L|338:111,1,65,2|2,0:0|0:0,0:0:0:0:
221,30,104477,22,0,B|168:28|168:28|151:38|151:38|94:37,1,130,8|0,0:0|0:0,0:0:0:0:
0,121,104828,2,0,L|73:121,1,65,10|0,0:0|0:0,0:0:0:0:
160,203,105062,2,0,L|87:203,1,65,10|0,0:0|0:0,0:0:0:0:
0,285,105297,1,10,0:0:0:0:
0,285,105531,1,2,0:0:0:0:
34,288,105648,2,0,L|107:288,1,65,8|2,0:0|0:0,0:0:0:0:
226,336,105883,22,0,L|215:394,6,32.5,6|4|4|4|6|4|4,0:0|0:0|0:0|0:0|0:0|0:0|0:0,0:0:0:0:
306,371,106352,5,4,0:0:0:0:
306,371,107055,1,0,0:0:0:0:
359,289,107289,2,0,B|466:295|466:295|498:321,2,146.250005578995,2|0|0,0:0|0:0|0:0,0:0:0:0:
271,245,108227,22,0,P|307:206|403:202,1,146.250005578995,2|0,0:0|0:0,0:0:0:0:
395,198,108812,1,4,0:0:0:0:
395,198,109486,1,0,0:0:0:0:
301,168,109789,1,0,0:0:0:0:
208,138,110102,22,0,B|108:99|117:193|17:151,1,195.00000743866,4|0,0:0|0:0,0:0:0:0:
62,63,110805,1,0,0:0:0:0:
165,226,111039,2,0,B|160:329|160:329|126:362,2,146.250005578995,2|0|0,0:0|0:0|0:0,0:0:0:0:
208,138,111977,2,0,P|260:104|349:120,1,146.250005578995,2|0,0:0|0:0,0:0:0:0:
340,114,113148,22,0,L|397:106,2,48.750001859665,2|0|0,0:0|0:0|0:0,0:0:0:0:
242,122,113617,1,8,0:0:0:0:
206,213,113852,22,0,P|253:219|298:200,1,97.50000371933,2|0,0:0|0:0,0:0:0:0:
242,122,114203,1,8,0:0:0:0:
180,303,114555,1,8,0:0:0:0:
160,301,114672,1,2,0:0:0:0:
140,299,114789,22,0,L|33:291,1,97.50000371933,0|0,0:0|0:0,0:0:0:0:
23,199,115141,1,2,0:0:0:0:
23,199,115258,2,0,L|130:191,1,97.50000371933
180,126,115609,1,0,0:0:0:0:
180,126,115727,22,0,L|301:135,1,97.50000371933,2|0,0:0|0:0,0:0:0:0:
343,61,116078,2,0,P|371:106|373:156,1,97.50000371933,8|8,0:0|0:0,0:0:0:0:
321,231,116430,2,0,L|271:238,2,48.750001859665,2|0|0,0:0|0:0|0:0,0:0:0:0:
223,322,116898,1,2,0:0:0:0:
193,318,117016,1,2,0:0:0:0:
163,314,117133,1,8,0:0:0:0:
323,338,117367,1,0,0:0:0:0:
95,382,117602,22,0,P|65:329|68:289,1,97.50000371933,2|2,0:0|0:0,0:0:0:0:
123,214,117953,1,8,0:0:0:0:
123,214,118070,2,0,L|234:220,1,97.50000371933,2|8,0:0|0:0,0:0:0:0:
19,208,118539,22,0,P|39:150|71:126,1,97.50000371933,2|2,0:0|0:0,0:0:0:0:
157,92,118890,1,8,0:0:0:0:
157,92,119008,2,0,L|268:98,1,97.50000371933,2|8,0:0|0:0,0:0:0:0:
399,141,119477,21,2,0:0:0:0:
396,165,119594,1,2,0:0:0:0:
391,216,119711,1,8,0:0:0:0:
388,240,119828,1,2,0:0:0:0:
378,349,120062,21,2,0:0:0:0:
406,340,120180,2,0,L|450:342,2,24.3750009298325,8|8|8,0:0|0:0|0:0,0:0:0:0:
301,287,120414,2,0,P|263:268|205:280,1,97.50000371933,8|0,0:0|0:0,0:0:0:0:
143,320,120766,1,2,0:0:0:0:
66,265,120883,22,0,L|49:211,1,48.750001859665,8|2,0:0|0:0,0:0:0:0:
128,184,121117,2,0,L|144:138,1,48.750001859665,8|2,0:0|0:0,0:0:0:0:
74,78,121352,6,0,P|115:46|158:44,1,97.50000371933,6|0,0:0|0:0,0:0:0:0:
241,90,121703,2,0,P|282:122|325:124,1,97.50000371933,8|2,0:0|0:0,0:0:0:0:
398,61,122055,2,0,P|391:38|384:15,1,48.750001859665,8|2,0:0|0:0,0:0:0:0:
500,73,122289,2,0,P|494:121|489:172,1,97.50000371933,0|2,0:0|0:0,0:0:0:0:
473,260,122641,1,2,0:0:0:0:
473,260,122758,1,8,0:0:0:0:
498,366,122992,22,0,L|424:357,1,73.1250027894975,8|0,0:0|0:0,0:0:0:0:
413,354,123227,22,0,L|305:367,1,97.50000371933,2|0,0:0|0:0,0:0:0:0:
241,298,123578,2,0,L|133:285,1,97.50000371933,2|0,0:0|0:0,0:0:0:0:
37,298,123930,2,0,P|36:272|62:226,1,48.750001859665,8|0,0:0|0:0,0:0:0:0:
143,192,124164,2,0,P|154:245|139:295,1,97.50000371933,2|0,0:0|0:0,0:0:0:0:
100,367,124516,2,0,P|126:375|159:373,1,48.750001859665,2|2,0:0|0:0,0:0:0:0:
233,346,124750,22,0,L|244:274,1,48.750001859665,0|8,0:0|0:0,0:0:0:0:
371,237,125102,22,0,P|403:263|458:273,1,97.50000371933,2|2,0:0|0:0,0:0:0:0:
492,183,125453,2,0,P|460:157|405:147,1,97.50000371933,2|0,0:0|0:0,0:0:0:0:
354,229,125805,2,0,P|328:240|306:244,1,48.750001859665,2|8,0:0|0:0,0:0:0:0:
221,193,126039,2,0,L|205:84,1,97.50000371933,0|0,0:0|0:0,0:0:0:0:
115,69,126391,1,8,0:0:0:0:
115,69,126508,2,0,L|108:20,1,48.750001859665,0|2,0:0|0:0,0:0:0:0:
30,128,126742,1,2,0:0:0:0:
30,128,126859,1,0,0:0:0:0:
30,128,126976,2,0,L|21:68,1,48.750001859665,2|0,0:0|0:0,0:0:0:0:
18,228,127211,22,0,P|62:204|126:200,1,97.50000371933,12|0,0:0|0:0,0:0:0:0:
126,280,127562,2,0,P|170:304|234:308,1,97.50000371933,2|0,0:0|0:0,0:0:0:0:
262,206,127914,2,0,P|306:182|370:178,1,97.50000371933,12|0,0:0|0:0,0:0:0:0:
399,297,128266,2,0,P|443:321|507:325,1,97.50000371933,6|0,0:0|0:0,0:0:0:0:
512,189,128617,2,0,P|485:190|465:199,1,48.750001859665,8|0,0:0|0:0,0:0:0:0:
384,314,128852,22,0,L|363:210,1,97.50000371933,6|0,0:0|0:0,0:0:0:0:
403,131,129203,2,0,L|382:27,1,97.50000371933,2|2,0:0|0:0,0:0:0:0:
293,96,129555,2,0,P|272:109|243:116,1,48.750001859665,8|0,0:0|0:0,0:0:0:0:
172,46,129789,2,0,P|132:18|81:20,1,97.50000371933,2|2,0:0|0:0,0:0:0:0:
59,114,130141,2,0,P|99:142|150:140,1,97.50000371933,2|2,0:0|0:0,0:0:0:0:
248,115,130492,2,0,L|258:169,1,48.750001859665,8|4,0:0|0:0,0:0:0:0:
237,277,130727,22,0,B|272:243|272:243|326:266,1,97.50000371933,0|0,0:0|0:0,0:0:0:0:
243,365,131078,1,0,0:0:0:0:
243,365,131195,22,0,L|174:349,2,65.0000024795533,2|2|8,0:0|0:0|0:0,0:0:0:0:
343,353,131664,2,0,L|398:309,2,65.0000024795533,8|12|4,0:0|0:0|0:0,0:0:0:0:
280,285,132133,1,14,0:0:0:0:
280,285,132602,22,0,L|267:178,1,97.50000371933,6|0,0:0|0:0,0:0:0:0:
278,85,132953,22,0,P|301:87|329:108,1,48.750001859665,8|2,0:0|0:0,0:0:0:0:
405,100,133187,2,0,P|406:120|391:148,1,48.750001859665,0|2,0:0|0:0,0:0:0:0:
280,285,133539,2,0,P|226:278|186:241,1,97.50000371933,2|0,0:0|0:0,0:0:0:0:
174,160,133891,1,8,0:0:0:0:
174,160,134008,2,0,L|112:148,1,48.750001859665,2|0,0:0|0:0,0:0:0:0:
176,41,134242,2,0,L|223:31,1,48.750001859665,2|0,0:0|0:0,0:0:0:0:
299,148,134477,21,6,0:0:0:0:
355,79,134711,21,0,0:0:0:0:
351,67,134828,1,8,0:0:0:0:
429,162,135062,21,0,0:0:0:0:
425,174,135179,1,2,0:0:0:0:
500,93,135414,21,10,0:0:0:0:
496,81,135531,1,10,0:0:0:0:
492,69,135648,1,10,0:0:0:0:
488,57,135766,1,10,0:0:0:0:
484,45,135883,1,10,0:0:0:0:
429,162,136117,21,8,0:0:0:0:
421,205,136234,1,8,0:0:0:0:
413,248,136352,6,0,L|420:324,2,48.750001859665,2|8|0,0:0|0:0|0:0,0:0:0:0:
324,195,136703,2,0,L|319:146,2,48.750001859665,2|8|0,0:0|0:0|0:0,0:0:0:0:
290,287,137055,22,0,L|297:363,2,48.750001859665,2|8|0,0:0|0:0|0:0,0:0:0:0:
202,244,137406,2,0,L|197:195,2,48.750001859665,2|8|0,0:0|0:0|0:0,0:0:0:0:
152,328,137758,21,2,0:0:0:0:
141,344,137875,2,0,P|116:335|83:331,1,48.750001859665,8|0,0:0|0:0,0:0:0:0:
24,246,138109,1,2,0:0:0:0:
35,262,138226,22,0,P|56:249|89:243,1,48.750001859665,8|0,0:0|0:0,0:0:0:0:
183,241,138461,1,2,0:0:0:0:
200,249,138578,1,8,0:0:0:0:
197,210,138695,1,0,0:0:0:0:
194,171,138812,1,2,0:0:0:0:
191,131,138930,22,0,B|146:109|146:109|47:138,1,146.250005578995,8|2,0:0|0:0,0:0:0:0:
55,50,139398,2,0,L|114:34,1,48.750001859665,8|8,0:0|0:0,0:0:0:0:
226,46,139633,1,2,0:0:0:0:
254,51,139750,1,2,0:0:0:0:
282,56,139867,1,2,0:0:0:0:
310,61,139984,1,2,0:0:0:0:
338,66,140102,22,0,B|415:79|415:79|395:98,1,97.50000371933,0|0,0:0|0:0,0:0:0:0:
327,155,140453,1,0,0:0:0:0:
327,155,140570,2,0,B|250:168|250:168|270:187,1,97.50000371933,0|0,0:0|0:0,0:0:0:0:
331,252,140922,1,0,0:0:0:0:
331,252,141039,1,0,0:0:0:0:
331,252,141156,22,0,P|357:249|385:239,1,48.750001859665,0|10,0:0|0:0,0:0:0:0:
313,334,141391,2,0,P|291:325|271:312,1,48.750001859665,0|2,0:0|0:0,0:0:0:0:
204,363,141625,1,0,0:0:0:0:
204,363,141742,2,0,P|192:342|186:319,1,48.750001859665,2|0,0:0|0:0,0:0:0:0:
247,222,141977,21,2,0:0:0:0:
262,204,142094,1,8,0:0:0:0:
264,181,142211,2,0,L|203:174,1,48.750001859665,2|0,0:0|0:0,0:0:0:0:
142,239,142445,2,0,L|81:246,1,48.750001859665,8|2,0:0|0:0,0:0:0:0:
29,170,142680,21,2,0:0:0:0:
41,154,142797,2,0,L|89:159,2,48.750001859665,8|0|2,0:0|0:0|0:0,0:0:0:0:
134,79,143148,1,8,0:0:0:0:
134,79,143266,2,0,P|174:115|183:170,1,97.50000371933,2|0,0:0|0:0,0:0:0:0:
142,239,143617,2,0,L|147:306,1,48.750001859665,2|2,0:0|0:0,0:0:0:0:
218,347,143852,22,0,P|254:310|312:303,1,97.50000371933,8|0,0:0|0:0,0:0:0:0:
389,269,144203,2,0,P|359:223|310:205,1,97.50000371933,2|0,0:0|0:0,0:0:0:0:
297,300,144555,1,8,0:0:0:0:
369,364,144672,2,0,P|415:376|482:355,1,97.50000371933,2|0,0:0|0:0,0:0:0:0:
506,267,145023,1,8,0:0:0:0:
490,278,145141,2,0,L|488:171,1,97.50000371933,2|0,0:0|0:0,0:0:0:0:
398,142,145492,2,0,L|400:200,1,48.750001859665,2|0,0:0|0:0,0:0:0:0:
512,86,145727,21,6,0:0:0:0:
499,70,145844,2,0,P|482:63|444:68,1,48.750001859665,0|0,0:0|0:0,0:0:0:0:
398,142,146078,1,2,0:0:0:0:
385,158,146195,2,0,P|368:165|330:160,1,48.750001859665,10|0,0:0|0:0,0:0:0:0:
258,124,146430,1,2,0:0:0:0:
242,112,146547,2,0,L|246:224,1,97.50000371933,8|2,0:0|0:0,0:0:0:0:
206,297,146898,22,0,P|194:310|176:321,3,24.3750009298325,8|0|0|0,0:0|0:0|0:0|0:0,0:0:0:0:
296,287,147133,22,0,P|295:304|288:324,3,24.3750009298325,8|0|0|0,0:0|0:0|0:0|0:0,0:0:0:0:
358,221,147367,22,0,P|368:235|376:254,3,24.3750009298325,6|0|0|0,0:0|0:0|0:0|0:0,0:0:0:0:
258,124,147602,22,0,P|215:148|160:140,1,97.50000371933,12|2,0:0|0:0,0:0:0:0:
99,86,147953,1,2,0:0:0:0:
78,177,148070,2,0,P|54:167|30:168,2,48.750001859665,12|0|2,0:0|0:0|0:0,0:0:0:0:
148,245,148422,22,0,L|145:321,1,48.750001859665,12|0,0:0|0:0,0:0:0:0:
238,375,148656,2,0,L|237:327,1,48.750001859665,12|0,0:0|0:0,0:0:0:0:
303,257,148891,2,0,P|329:249|357:249,1,48.750001859665,6|0,0:0|0:0,0:0:0:0:
421,314,149125,2,0,P|447:322|475:322,1,48.750001859665,2|8,0:0|0:0,0:0:0:0:
511,235,149359,1,0,0:0:0:0:
504,216,149477,22,0,L|499:158,2,48.750001859665,2|0|2,0:0|0:0|0:0,0:0:0:0:
420,166,149828,2,0,L|415:108,2,48.750001859665,8|0|2,0:0|0:0|0:0,0:0:0:0:
336,116,150180,2,0,L|331:58,2,48.750001859665,8|0|2,0:0|0:0|0:0,0:0:0:0:
251,188,150531,21,8,0:0:0:0:
221,190,150648,1,8,0:0:0:0:
169,193,150766,1,2,0:0:0:0:
139,195,150883,1,2,0:0:0:0:
19,208,151117,21,2,0:0:0:0:
19,208,151234,1,2,0:0:0:0:
19,208,151352,38,0,B|24:253|24:253|20:272|20:272|26:322,1,110.50000210762,4|0,0:0|0:0,0:0:0:0:
29,349,151703,1,0,0:0:0:0:
29,349,151937,1,0,0:0:0:0:
29,349,152172,21,0,0:0:0:0:
114,292,152406,1,0,0:0:0:0:
188,359,152641,2,0,P|234:379|293:368,1,110.50000210762,0|0,0:0|0:0,0:0:0:0:
322,344,152992,1,0,0:0:0:0:
205,240,153227,22,0,B|199:194|199:194|203:175|203:175|197:125,1,110.50000210762,4|0,0:0|0:0,0:0:0:0:
196,93,153578,1,0,0:0:0:0:
196,93,153812,1,0,0:0:0:0:
196,93,154047,21,0,0:0:0:0:
287,34,154281,1,0,0:0:0:0:
354,122,154516,2,0,L|464:135,1,110.50000210762,0|0,0:0|0:0,0:0:0:0:
499,142,154867,1,0,0:0:0:0:
401,207,155102,22,0,P|381:253|392:312,1,110.50000210762,4|0,0:0|0:0,0:0:0:0:
414,346,155453,1,0,0:0:0:0:
414,346,155687,1,0,0:0:0:0:
414,346,155922,21,0,0:0:0:0:
303,384,156156,1,0,0:0:0:0:
226,303,156391,2,0,B|181:290|181:290|163:290|163:290|114:276,1,110.50000210762,0|0,0:0|0:0,0:0:0:0:
83,263,156742,1,0,0:0:0:0:
155,184,156977,22,0,P|165:130|145:80,1,110.50000210762,4|0,0:0|0:0,0:0:0:0:
123,49,157328,1,0,0:0:0:0:
123,49,157562,1,0,0:0:0:0:
123,49,157797,21,0,0:0:0:0:
218,1,158031,1,0,0:0:0:0:
285,82,158266,2,0,L|275:193,1,110.50000210762,0|0,0:0|0:0,0:0:0:0:
271,235,158617,1,0,0:0:0:0:
358,354,158852,22,0,P|316:318|262:320,1,110.50000210762,6|0,0:0|0:0,0:0:0:0:
148,349,159203,2,0,L|86:336,2,55.2500010538101,8|0|2,0:0|0:0|0:0,0:0:0:0:
183,266,159555,2,0,L|158:181,1,55.2500010538101,8|0,0:0|0:0,0:0:0:0:
96,139,159789,2,0,B|135:102|135:102|200:119,1,110.50000210762,0|2,0:0|0:0,0:0:0:0:
306,152,160141,2,0,L|374:170,2,55.2500010538101,8|0|2,0:0|0:0|0:0,0:0:0:0:
271,70,160492,2,0,L|286:16,1,55.2500010538101,8|0,0:0|0:0,0:0:0:0:
420,99,160727,22,0,P|453:146|447:201,1,110.50000210762,6|0,0:0|0:0,0:0:0:0:
397,297,161078,2,0,P|377:274|368:240,2,55.2500010538101,8|0|2,0:0|0:0|0:0,0:0:0:0:
483,374,161430,2,0,P|503:351|512:317,1,55.2500010538101,8|0,0:0|0:0,0:0:0:0:
361,384,161664,2,0,L|243:370,1,110.50000210762,0|2,0:0|0:0,0:0:0:0:
130,313,162016,2,0,L|73:318,2,55.2500010538101,8|0|2,0:0|0:0|0:0,0:0:0:0:
218,243,162367,2,0,L|275:248,1,55.2500010538101,8|0,0:0|0:0,0:0:0:0:
388,165,162602,22,0,B|384:122|384:122|377:105|377:105|373:52,1,110.50000210762,6|0,0:0|0:0,0:0:0:0:
293,1,162953,2,0,P|276:28|273:70,2,55.2500010538101,8|0|2,0:0|0:0|0:0,0:0:0:0:
180,61,163305,2,0,P|186:87|201:110,1,55.2500010538101,8|0,0:0|0:0,0:0:0:0:
171,200,163539,2,0,P|230:200|278:168,1,110.50000210762,0|2,0:0|0:0,0:0:0:0:
370,214,163891,2,0,L|386:287,2,55.2500010538101,8|0|2,0:0|0:0|0:0,0:0:0:0:
344,90,164242,2,0,L|328:17,1,55.2500010538101,8|0,0:0|0:0,0:0:0:0:
446,126,164477,21,2,0:0:0:0:
460,124,164594,1,2,0:0:0:0:
474,122,164711,1,12,0:0:0:0:
488,120,164828,1,2,0:0:0:0:
370,214,165062,1,2,0:0:0:0:
352,208,165180,22,0,B|248:152|248:264|136:208,1,227.499993057251,8|0,0:0|0:0,0:0:0:0:
126,183,165883,2,0,L|117:156,6,27.6250005269051,0|0|0|4|4|4|4,0:0|0:0|0:0|0:0|0:0|0:0|0:0,0:0:0:0:
136,208,166352,6,0,B|132:261|132:261|118:278|118:278|112:346,1,130,6|0,0:0|0:0,0:0:0:0:
213,333,166703,1,8,0:0:0:0:
220,242,166820,2,0,L|214:325,1,65,0|2,0:0|0:0,0:0:0:0:
293,189,167055,2,0,P|268:165|236:152,1,65,8|0,0:0|0:0,0:0:0:0:
310,284,167289,21,2,0:0:0:0:
326,303,167406,2,0,L|390:296,1,65,8|0,0:0|0:0,0:0:0:0:
461,237,167641,2,0,P|470:212|464:169,1,65,8|0,0:0|0:0,0:0:0:0:
386,130,167875,2,0,P|377:105|383:62,1,65,2|8,0:0|0:0,0:0:0:0:
443,1,168109,1,8,0:0:0:0:
443,1,168227,22,0,B|372:32|372:32|308:20,1,130,6|0,0:0|0:0,0:0:0:0:
230,10,168578,1,8,0:0:0:0:
143,38,168695,2,0,L|220:31,1,65,0|2,0:0|0:0,0:0:0:0:
269,99,168930,21,8,0:0:0:0:
269,99,169047,1,0,0:0:0:0:
165,153,169164,2,0,L|100:146,2,65,2|8|0,0:0|0:0|0:0,0:0:0:0:
245,220,169516,2,0,B|314:238|303:188|374:206,1,130,8|2,0:0|0:0,0:0:0:0:
324,298,169867,2,0,P|351:284|388:287,1,65,8|0,0:0|0:0,0:0:0:0:
479,356,170102,22,0,B|474:305|474:305|486:284|486:284|480:213,1,130,6|0,0:0|0:0,0:0:0:0:
474,139,170453,1,8,0:0:0:0:
383,131,170570,2,0,L|463:139,1,65,0|2,0:0|0:0,0:0:0:0:
332,56,170805,21,8,0:0:0:0:
332,56,170922,1,0,0:0:0:0:
295,167,171039,2,0,L|230:171,2,65,2|8|0,0:0|0:0|0:0,0:0:0:0:
184,96,171391,2,0,P|144:153|156:220,1,130,8|2,0:0|0:0,0:0:0:0:
221,258,171742,2,0,P|190:249|164:231,1,65,8|2,0:0|0:0,0:0:0:0:
220,350,171977,22,0,P|280:328|312:266,1,130,6|0,0:0|0:0,0:0:0:0:
295,167,172328,2,0,P|316:188|360:197,2,65,12|0|0,0:0|0:0|0:0,0:0:0:0:
456,49,172680,22,0,P|422:102|360:114,1,130,8|0,0:0|0:0,0:0:0:0:
289,38,173031,1,2,0:0:0:0:
271,57,173148,2,0,L|186:52,1,65,0|8,0:0|0:0,0:0:0:0:
122,91,173383,22,0,B|116:120|116:120|125:176,1,65,2|0,0:0|0:0,0:0:0:0:
201,198,173617,2,0,B|207:227|207:227|198:283,1,65,2|0,0:0|0:0,0:0:0:0:
132,357,173852,22,0,P|209:344|282:353,1,130,6|0,0:0|0:0,0:0:0:0:
346,376,174203,1,8,0:0:0:0:
327,287,174320,2,0,P|343:313|350:353,1,65,0|2,0:0|0:0,0:0:0:0:
409,248,174555,2,0,P|389:221|362:203,1,65,8|0,0:0|0:0,0:0:0:0:
271,167,174789,21,2,0:0:0:0:
193,192,174906,2,0,L|264:187,1,65,8|0,0:0|0:0,0:0:0:0:
126,128,175141,1,8,0:0:0:0:
103,141,175258,22,0,L|107:75,1,65,0|2,0:0|0:0,0:0:0:0:
27,201,175492,2,0,L|30:265,1,65,8|8,0:0|0:0,0:0:0:0:
41,356,175727,22,0,P|111:373|164:341,1,130,6|0,0:0|0:0,0:0:0:0:
224,283,176078,1,8,0:0:0:0:
244,194,176195,2,0,L|245:275,1,65,0|2,0:0|0:0,0:0:0:0:
321,359,176430,22,0,P|344:348|387:346,1,65,8|8,0:0|0:0,0:0:0:0:
409,258,176664,2,0,P|436:269|464:301,2,65,8|2|0,0:0|0:0|0:0,0:0:0:0:
323,223,177016,2,0,P|365:175|437:171,1,130,2|2,0:0|0:0,0:0:0:0:
512,216,177367,2,0,L|507:140,1,65,8|0,0:0|0:0,0:0:0:0:
449,64,177602,22,0,B|397:66|397:66|377:81|377:81|325:83,1,130,12|0,0:0|0:0,0:0:0:0:
260,12,177953,1,2,0:0:0:0:
339,176,178187,21,2,0:0:0:0:
339,176,178305,2,0,B|287:178|287:178|267:193|267:193|215:195,1,130,8|0,0:0|0:0,0:0:0:0:
161,114,178656,1,0,0:0:0:0:
185,284,178891,21,8,0:0:0:0:
122,216,179008,2,0,B|90:218|90:218|83:223|83:223|51:224,2,65,8|8|2,0:0|0:0|0:0,0:0:0:0:
185,284,179359,1,2,0:0:0:0:
185,284,179477,22,0,B|266:282|266:282|310:308,1,130,8|0,0:0|0:0,0:0:0:0:
372,371,179828,2,0,P|389:344|396:306,1,65,10|0,0:0|0:0,0:0:0:0:
352,232,180062,2,0,P|335:205|328:167,1,65,10|0,0:0|0:0,0:0:0:0:
419,171,180297,1,10,0:0:0:0:
251,100,180531,21,2,0:0:0:0:
259,9,180648,2,0,L|254:77,1,65,8|0,0:0|0:0,0:0:0:0:
243,191,180883,1,2,0:0:0:0:
243,191,181117,2,0,L|238:259,1,65,4|0,0:0|0:0,0:0:0:0:
226,351,181352,38,0,P|167:314|104:318,1,130,6|0,0:0|0:0,0:0:0:0:
101,197,181703,1,8,0:0:0:0:
14,229,181820,2,0,P|46:227|76:216,1,65,0|2,0:0|0:0,0:0:0:0:
28,127,182055,2,0,L|17:60,1,65,8|0,0:0|0:0,0:0:0:0:
186,0,182289,21,2,0:0:0:0:
180,21,182406,2,0,L|170:86,1,65,8|0,0:0|0:0,0:0:0:0:
238,198,182641,2,0,B|282:191|282:191|315:200|315:200|367:191,1,130,8|2,0:0|0:0,0:0:0:0:
455,137,182992,2,0,P|432:109|397:98,1,65,8|8,0:0|0:0,0:0:0:0:
366,213,183227,22,0,P|398:277|387:348,1,130,6|0,0:0|0:0,0:0:0:0:
281,289,183578,1,8,0:0:0:0:
262,290,183695,2,0,L|195:295,1,65,0|2,0:0|0:0,0:0:0:0:
97,250,183930,1,8,0:0:0:0:
97,250,184047,1,0,0:0:0:0:
208,126,184164,22,0,P|196:156|186:191,2,65,8|2|0,0:0|0:0|0:0,0:0:0:0:
57,126,184516,2,0,P|81:190|97:258,1,130,2|0,0:0|0:0,0:0:0:0:
92,352,184867,2,0,P|124:351|157:334,1,65,2|0,0:0|0:0,0:0:0:0:
267,248,185102,22,0,B|332:224|326:273|392:252,1,130,6|0,0:0|0:0,0:0:0:0:
476,163,185453,1,8,0:0:0:0:
503,260,185570,2,0,L|480:182,1,65,0|2,0:0|0:0,0:0:0:0:
370,103,185805,2,0,L|351:165,1,65,8|0,0:0|0:0,0:0:0:0:
430,42,186039,21,2,0:0:0:0:
417,32,186156,2,0,P|388:21|336:30,1,65,0|2,0:0|0:0,0:0:0:0:
242,114,186391,2,0,B|252:164|252:164|250:190|250:190|261:244,1,130,8|0,0:0|0:0,0:0:0:0:
340,300,186742,2,0,P|369:283|402:276,1,65,2|0,0:0|0:0,0:0:0:0:
271,374,186977,22,0,P|207:370|157:329,1,130,6|0,0:0|0:0,0:0:0:0:
101,238,187328,2,0,P|80:262|51:278,2,65,4|0|0,0:0|0:0|0:0,0:0:0:0:
33,93,187680,22,0,P|95:105|139:151,1,130,2|2,0:0|0:0,0:0:0:0:
230,200,188031,1,8,0:0:0:0:
238,179,188148,2,0,P|240:146|232:115,1,65,0|8,0:0|0:0,0:0:0:0:
292,279,188383,2,0,P|315:257|329:228,1,65,2|0,0:0|0:0,0:0:0:0:
278,377,188617,2,0,P|310:374|339:362,1,65,2|0,0:0|0:0,0:0:0:0:
496,276,188852,22,0,B|492:229|492:229|476:202|476:202|469:148,1,130,6|0,0:0|0:0,0:0:0:0:
320,53,189203,1,8,0:0:0:0:
331,145,189320,2,0,L|320:61,1,65,0|2,0:0|0:0,0:0:0:0:
450,0,189555,2,0,L|460:83,1,65,8|0,0:0|0:0,0:0:0:0:
392,214,189789,21,2,0:0:0:0:
380,223,189906,2,0,P|341:238|294:229,1,65,8|0,0:0|0:0,0:0:0:0:
231,150,190141,2,0,P|185:108|101:120,1,130,8|2,0:0|0:0,0:0:0:0:
29,186,190492,2,0,L|40:254,1,65,8|8,0:0|0:0,0:0:0:0:
114,342,190727,1,6,0:0:0:0:
118,347,190961,21,0,0:0:0:0:
118,347,191078,2,0,B|164:331|164:331|240:362,1,130,8|2,0:0|0:0,0:0:0:0:
316,291,191430,2,0,L|388:267,1,65,8|0,0:0|0:0,0:0:0:0:
232,238,191664,1,8,0:0:0:0:
220,224,191781,2,0,P|204:189|202:152,1,65,0|2,0:0|0:0,0:0:0:0:
273,37,192016,2,0,P|306:98|304:164,1,130,8|0,0:0|0:0,0:0:0:0:
187,154,192367,2,0,L|115:130,1,65,2|0,0:0|0:0,0:0:0:0:
3,54,192602,22,0,B|53:43|53:43|70:24|70:24|121:13,1,130,12|0,0:0|0:0,0:0:0:0:
125,133,192953,2,0,L|141:287,1,130,2|2,0:0|0:0,0:0:0:0:
209,383,193305,22,0,B|158:371|158:371|135:380|135:380|84:369,1,130,12|0,0:0|0:0,0:0:0:0:
138,262,193656,2,0,L|292:246,1,130,2|8,0:0|0:0,0:0:0:0:
355,178,194008,1,8,0:0:0:0:
360,165,194125,1,8,0:0:0:0:
274,104,194242,1,2,0:0:0:0:
270,93,194359,1,2,0:0:0:0:
337,18,194477,22,0,B|389:22|389:22|406:39|406:39|472:45,1,130,8|0,0:0|0:0,0:0:0:0:
274,104,194828,2,0,L|188:97,1,65,10|0,0:0|0:0,0:0:0:0:
355,178,195062,2,0,L|441:171,1,65,10|0,0:0|0:0,0:0:0:0:
267,248,195297,1,10,0:0:0:0:
267,248,195531,21,2,0:0:0:0:
267,248,195648,2,0,L|181:241,2,65,8|0|4,0:0|0:0|0:0,0:0:0:0:
347,314,196000,2,0,L|388:309,4,32.5,4|4|4|4|4,0:0|0:0|0:0|0:0|0:0,0:0:0:0:
465,299,196352,5,2,0:0:0:0:
510,220,196469,2,0,L|507:149,1,65,2|8,0:0|0:0,0:0:0:0:
465,299,196703,21,8,0:0:0:0:
419,172,196820,2,0,L|422:101,2,65,2|2|0,0:0|0:0|0:0,0:0:0:0:
354,254,197172,22,0,P|327:264|278:258,1,65,8|0,0:0|0:0,0:0:0:0:
222,184,197406,2,0,P|195:174|146:180,1,65,2|0,0:0|0:0,0:0:0:0:
68,227,197641,2,0,L|77:369,1,130,2|0,0:0|0:0,0:0:0:0:
66,197,197992,2,0,L|61:125,1,65,8|0,0:0|0:0,0:0:0:0:
55,40,198227,21,2,0:0:0:0:
68,227,198344,2,0,P|126:248|193:222,1,130,0|0,0:0|0:0,0:0:0:0:
274,129,198695,2,0,L|270:205,2,65,2|8|0,0:0|0:0|0:0,0:0:0:0:
318,279,199047,22,0,P|378:245|449:251,1,130,8|0,0:0|0:0,0:0:0:0:
495,316,199398,1,2,0:0:0:0:
439,222,199516,2,0,L|442:149,2,65,8|0|2,0:0|0:0|0:0,0:0:0:0:
497,380,199867,2,0,L|495:316,1,65,2|2,0:0|0:0,0:0:0:0:
412,71,200102,22,0,P|352:130|349:183,1,130,6|0,0:0|0:0,0:0:0:0:
347,172,200570,2,0,L|279:166,2,65,2|0|2,0:0|0:0|0:0,0:0:0:0:
375,258,200922,2,0,L|245:248,1,130,8|2,0:0|0:0,0:0:0:0:
206,324,201273,1,0,0:0:0:0:
206,324,201391,1,0,0:0:0:0:
154,250,201508,22,0,P|156:221|177:181,1,65,2|8,0:0|0:0,0:0:0:0:
104,325,201742,2,0,P|81:306|60:266,1,65,0|2,0:0|0:0,0:0:0:0:
245,248,201977,22,0,P|269:233|376:233,1,130,8|0,0:0|0:0,0:0:0:0:
491,211,202328,2,0,P|431:236|367:229,1,130,2|0,0:0|0:0,0:0:0:0:
313,142,202680,1,2,0:0:0:0:
313,142,202797,2,0,P|322:80|328:9,1,130,2|0,0:0|0:0,0:0:0:0:
231,86,203148,22,0,P|198:93|153:80,1,65,2|0,0:0|0:0,0:0:0:0:
96,40,203383,1,4,0:0:0:0:
96,40,203500,1,0,0:0:0:0:
96,40,203617,2,0,L|56:32,2,32.5,4|0|0,0:0|0:0|0:0,0:0:0:0:
143,195,203852,22,0,L|137:275,2,65,8|0|2,0:0|0:0|0:0,0:0:0:0:
51,292,204203,1,8,0:0:0:0:
122,347,204320,2,0,P|150:349|189:332,1,65,0|2,0:0|0:0,0:0:0:0:
268,116,204555,22,0,L|274:196,2,65,8|0|2,0:0|0:0|0:0,0:0:0:0:
360,213,204906,1,8,0:0:0:0:
289,268,205023,2,0,P|261:270|222:253,1,65,0|2,0:0|0:0,0:0:0:0:
71,140,205258,22,0,L|81:60,1,65,8|8,0:0|0:0,0:0:0:0:
219,192,205492,2,0,L|227:256,1,65,2|8,0:0|0:0,0:0:0:0:
9,349,205727,22,0,P|20:317|47:288,2,65,8|0|2,0:0|0:0|0:0,0:0:0:0:
98,365,206078,1,8,0:0:0:0:
98,365,206195,2,0,P|122:339|149:326,1,65,0|2,0:0|0:0,0:0:0:0:
233,272,206430,1,8,0:0:0:0:
227,256,206547,22,0,L|234:174,1,65,0|2,0:0|0:0,0:0:0:0:
381,213,206781,2,0,L|306:247,1,65,8|0,0:0|0:0,0:0:0:0:
211,67,207016,2,0,L|320:139,1,130,8|0,0:0|0:0,0:0:0:0:
409,122,207367,2,0,P|395:87|373:64,1,65,2|0,0:0|0:0,0:0:0:0:
211,67,207602,21,2,0:0:0:0:
214,105,207719,1,2,0:0:0:0:
217,143,207836,2,2,L|141:156,1,65
92,103,208070,2,0,L|95:32,1,65,4|4,0:0|0:0,0:0:0:0:
217,143,208305,21,2,0:0:0:0:
213,194,208422,1,2,0:0:0:0:
210,245,208539,2,2,L|287:255,1,65
317,186,208773,2,0,L|314:115,1,65,4|4,0:0|0:0,0:0:0:0:
210,245,209008,22,0,P|185:250|139:231,1,65,8|2,0:0|0:0,0:0:0:0:
38,180,209242,2,0,P|69:169|101:174,1,65,8|2,0:0|0:0,0:0:0:0:
270,309,209477,21,12,0:0:0:0:
271,309,209594,2,0,B|357:287|357:287|394:304,1,130,6|0,0:0|0:0,0:0:0:0:
193,339,209945,2,0,L|131:356,2,65,12|0|2,0:0|0:0|0:0,0:0:0:0:
43,278,210297,2,0,P|103:298|131:356,1,130,12|0,0:0|0:0,0:0:0:0:
210,245,210648,22,0,L|213:163,1,65,2|2,0:0|0:0,0:0:0:0:
218,88,210883,1,4,0:0:0:0:
218,88,211117,2,0,L|222:9,1,65,2|2,0:0|0:0,0:0:0:0:
296,139,211352,38,0,P|324:164|359:173,1,65,8|0,0:0|0:0,0:0:0:0:
477,123,211586,1,2,0:0:0:0:
424,66,211703,2,0,L|455:238,1,130,2|0,0:0|0:0,0:0:0:0:
481,348,212055,1,8,0:0:0:0:
501,331,212172,2,0,L|513:267,1,65,2|0,0:0|0:0,0:0:0:0:
417,164,212406,2,0,L|429:227,1,65,0|2,0:0|0:0,0:0:0:0:
345,333,212641,22,0,B|291:322|291:322|269:330|269:330|211:318,1,130,2|8,0:0|0:0,0:0:0:0:
69,384,212992,2,0,L|132:371,1,65,8|0,0:0|0:0,0:0:0:0:
150,239,213227,22,0,P|132:202|134:168,1,65,8|0,0:0|0:0,0:0:0:0:
185,53,213461,1,2,0:0:0:0:
107,85,213578,2,0,P|175:94|226:160,1,130,2|0,0:0|0:0,0:0:0:0:
313,215,213930,1,8,0:0:0:0:
292,242,214047,2,0,P|324:239|352:223,1,65,2|0,0:0|0:0,0:0:0:0:
445,136,214281,2,0,P|417:119|384:116,1,65,0|2,0:0|0:0,0:0:0:0:
324,36,214516,1,8,0:0:0:0:
247,94,214633,21,0,0:0:0:0:
241,99,214750,1,2,0:0:0:0:
187,21,214867,1,8,0:0:0:0:
183,14,214984,1,0,0:0:0:0:
107,85,215102,22,0,L|94:158,1,65,8|0,0:0|0:0,0:0:0:0:
62,253,215336,1,2,0:0:0:0:
11,196,215453,2,0,L|34:327,1,130,2|0,0:0|0:0,0:0:0:0:
175,224,215805,1,8,0:0:0:0:
190,205,215922,2,0,L|178:268,1,65,2|0,0:0|0:0,0:0:0:0:
5,305,216156,2,0,L|17:368,1,65,2|0,0:0|0:0,0:0:0:0:
116,337,216391,1,2,0:0:0:0:
208,377,216508,21,2,0:0:0:0:
217,381,216625,1,0,0:0:0:0:
267,303,216742,21,8,0:0:0:0:
276,298,216859,1,0,0:0:0:0:
345,359,216977,22,0,P|403:385|465:372,1,130,6|0,0:0|0:0,0:0:0:0:
470,228,217328,22,0,P|445:269|404:294,1,97.50000371933,12|0,0:0|0:0,0:0:0:0:
333,170,217680,22,0,P|355:199|382:213,1,65,2|0,0:0|0:0,0:0:0:0:
415,122,218031,21,2,0:0:0:0:
423,105,218148,2,0,L|414:33,1,65,8|0,0:0|0:0,0:0:0:0:
299,167,218383,2,0,L|307:102,1,65,2|0,0:0|0:0,0:0:0:0:
192,105,218617,2,0,L|183:40,1,65,8|0,0:0|0:0,0:0:0:0:
77,102,218852,22,0,B|66:158|66:158|70:178|70:178|60:252,1,130,6|0,0:0|0:0,0:0:0:0:
72,325,219203,1,8,0:0:0:0:
57,329,219320,2,0,P|26:323|-4:301,2,65,2|0|2,0:0|0:0|0:0,0:0:0:0:
145,274,219672,2,0,P|171:255|203:249,1,65,8|0,0:0|0:0,0:0:0:0:
268,337,219906,2,0,P|294:355|326:361,1,65,0|2,0:0|0:0,0:0:0:0:
345,249,220141,2,0,P|335:183|318:119,1,130,0|0,0:0|0:0,0:0:0:0:
335,20,220492,2,0,P|366:25|393:43,1,65,0|2,0:0|0:0,0:0:0:0:
495,151,220727,22,0,L|480:229,1,65,8|0,0:0|0:0,0:0:0:0:
430,306,220961,1,2,0:0:0:0:
502,334,221078,2,0,L|357:361,1,130,2|0,0:0|0:0,0:0:0:0:
255,269,221430,1,8,0:0:0:0:
223,284,221547,2,0,L|293:297,1,65,2|0,0:0|0:0,0:0:0:0:
408,204,221781,2,0,L|344:216,1,65,0|2,0:0|0:0,0:0:0:0:
284,58,222016,1,0,0:0:0:0:
196,65,222133,2,0,P|260:88|284:162,1,130,8|0,0:0|0:0,0:0:0:0:
255,269,222484,1,2,0:0:0:0:
223,284,222602,22,0,B|169:269|169:269|147:273|147:273|95:259,1,130,12|0,0:0|0:0,0:0:0:0:
18,226,222953,1,2,0:0:0:0:
207,379,223305,22,0,B|153:364|153:364|131:368|131:368|79:354,1,130,4|0,0:0|0:0,0:0:0:0:
2,321,223656,1,2,0:0:0:0:
119,247,223891,21,8,0:0:0:0:
67,167,224008,21,8,0:0:0:0:
64,159,224125,1,8,0:0:0:0:
112,87,224242,21,2,0:0:0:0:
117,79,224359,1,2,0:0:0:0:
203,104,224477,22,0,B|257:119|257:119|279:115|279:115|331:129,1,130,0|0,0:0|0:0,0:0:0:0:
426,213,224828,2,0,L|344:235,1,65,10|0,0:0|0:0,0:0:0:0:
267,311,225063,2,0,L|329:327,1,65,10|0,0:0|0:0,0:0:0:0:
433,199,225297,2,0,L|351:221,1,65,10|0,0:0|0:0,0:0:0:0:
254,320,225531,21,2,0:0:0:0:
174,369,225648,2,0,B|158:343|158:343|160:304,1,65,8|0,0:0|0:0,0:0:0:0:
220,237,225883,2,0,L|213:192,2,32.5,2|0|2,0:0|0:0|0:0,0:0:0:0:
282,144,226117,2,0,B|283:109|283:109|267:83,1,65,8|2,0:0|0:0,0:0:0:0:
198,31,226354,21,4,0:0:0:0:
256,192,226479,12,0,232380,0:0:0:0:
256,192,232785,12,0,237481,0:0:0:0:
