osu file format v14

[General]
AudioFilename: audio.mp3
AudioLeadIn: 0
PreviewTime: -1
Countdown: 0
SampleSet: Soft
StackLeniency: 0.7
Mode: 3
LetterboxInBreaks: 0
SpecialStyle: 0
WidescreenStoryboard: 1

[Editor]
DistanceSpacing: 0.8
BeatDivisor: 4
GridSize: 8
TimelineZoom: 2.1

[Metadata]
Title:Frey's Philosophy
TitleUnicode:Frey's Philosophy
Artist:Powerless
ArtistUnicode:Powerless
Creator:genkicho
Version:Whisper - Purify
Source:Lanota
Tags:lanota frey
BeatmapID:1463174
BeatmapSetID:690699

[Difficulty]
HPDrainRate:10
CircleSize:4
OverallDifficulty:7
ApproachRate:5
SliderMultiplier:1.4
SliderTickRate:1

[Events]
//Background and Video events
0,0,"69613.jpg",0,0
//Break Periods
//Storyboard Layer 0 (Background)
//Storyboard Layer 1 (Fail)
//Storyboard Layer 2 (Pass)
//Storyboard Layer 3 (Foreground)
//Storyboard Sound Samples

[TimingPoints]
37,300,4,2,0,30,1,0
70237,300,4,2,0,30,1,1
108637,-100,4,2,0,16,0,0

[HitObjects]
64,192,2437,128,0,2587:0:0:0:30:soft-hitfinish2.wav
448,192,3337,128,0,3487:0:0:0:30:soft-hitfinish2.wav
192,192,4837,128,0,4987:0:0:0:30:soft-hitfinish2.wav
320,192,5737,128,0,5887:0:0:0:30:soft-hitfinish2.wav
448,192,7237,128,0,9637:0:0:0:30:soft-hitfinish2.wav
64,192,7237,128,0,9637:0:0:0:0:
320,192,9637,1,0,0:0:0:0:
320,192,10237,1,0,0:0:0:0:
192,192,10837,1,0,0:0:0:0:
64,192,11137,1,0,0:0:0:0:
448,192,11437,1,0,0:0:0:0:
320,192,11737,1,0,0:0:0:0:
192,192,12037,1,0,0:0:0:0:
64,192,12037,1,4,2:0:0:0:
448,192,12337,1,0,0:0:0:60:short.wav
320,192,12637,1,0,0:0:0:0:
64,192,12937,1,0,0:0:0:60:short.wav
192,192,13237,1,0,0:0:0:0:
320,192,13537,1,0,0:0:0:60:short.wav
448,192,13837,1,0,0:0:0:0:
192,192,14137,1,0,0:0:0:60:short.wav
64,192,14437,1,0,0:0:0:0:
320,192,14737,1,0,0:0:0:60:short.wav
192,192,15037,1,0,0:0:0:0:
448,192,15337,1,0,0:0:0:60:short.wav
320,192,15637,1,0,0:0:0:0:
64,192,15937,1,0,0:0:0:60:short.wav
192,192,16237,1,0,0:0:0:0:
320,192,16537,1,0,0:0:0:60:short.wav
448,192,16837,1,0,0:0:0:20:soft-hitfinish2.wav
192,192,17137,1,0,0:0:0:60:short.wav
64,192,17437,1,0,0:0:0:0:
448,192,17737,1,0,0:0:0:60:short.wav
320,192,18037,1,0,0:0:0:0:
192,192,18337,1,0,0:0:0:60:short.wav
320,192,18637,1,0,0:0:0:0:
448,192,18937,1,0,0:0:0:60:short.wav
64,192,19237,1,0,0:0:0:0:
192,192,19537,1,0,0:0:0:60:short.wav
320,192,19837,1,0,0:0:0:0:
192,192,20137,1,0,0:0:0:60:short.wav
448,192,20437,1,0,0:0:0:0:
64,192,20437,128,0,20737:0:0:0:0:
192,192,20737,128,0,21037:0:0:0:0:
320,192,21037,128,0,21337:0:0:0:0:
448,192,21337,128,0,21637:0:0:0:0:
192,192,21637,1,0,0:0:0:0:
64,192,21637,1,0,0:0:0:0:
320,192,21937,1,0,0:0:0:60:short.wav
192,192,22237,1,0,0:0:0:0:
448,192,22387,1,0,0:0:0:60:short.wav
64,192,22687,128,0,23137:0:0:0:0:
192,192,22687,128,6,23137:2:0:0:0:
448,192,23137,1,0,0:0:0:60:short.wav
320,192,23437,1,0,0:0:0:0:
64,192,23737,1,0,0:0:0:60:short.wav
192,192,24037,1,0,0:0:0:0:
320,192,24337,1,0,0:0:0:60:short.wav
448,192,24637,1,0,0:0:0:0:
192,192,24937,1,0,0:0:0:60:short.wav
64,192,25087,128,0,25537:0:0:0:0:
448,192,25087,128,6,25537:2:0:0:0:
320,192,25537,1,0,0:0:0:60:short.wav
192,192,25837,1,0,0:0:0:0:
64,192,26137,1,0,0:0:0:60:short.wav
320,192,26437,1,0,0:0:0:0:
448,192,26737,1,4,2:0:0:0:
192,192,26737,1,0,0:0:0:0:
64,192,27037,1,0,0:0:0:0:
192,192,27337,1,0,0:0:0:60:short.wav
320,192,27637,1,0,0:0:0:0:
448,192,27937,1,0,0:0:0:60:short.wav
64,192,28237,1,0,0:0:0:0:
320,192,28537,1,0,0:0:0:60:short.wav
192,192,28837,1,4,2:0:0:0:
64,192,28837,1,0,0:0:0:0:
448,192,29137,128,0,29287:0:0:0:0:
320,192,29287,1,4,2:0:0:0:
64,192,29587,128,0,29737:0:0:0:0:
192,192,29737,1,4,2:0:0:0:
320,192,30037,128,0,30187:0:0:0:0:
448,192,30187,1,4,2:0:0:0:
320,192,30487,1,0,0:0:0:0:
64,192,30637,1,0,0:0:0:0:
192,192,30637,128,0,31237:0:0:0:0:
320,192,30937,128,0,31237:0:0:0:0:
64,192,31237,1,4,2:0:0:0:
448,192,31237,1,0,0:0:0:0:
192,192,31687,1,0,0:0:0:0:
320,192,31837,1,0,0:0:0:0:
448,192,31837,1,0,0:0:0:70:hitsound2.wav
192,192,32587,1,0,0:0:0:0:
64,192,33037,1,0,0:0:0:70:hitsound2.wav
448,192,33037,1,0,0:0:0:0:
320,192,33187,1,0,0:0:0:0:
64,192,33637,1,0,0:0:0:0:
192,192,34087,1,0,0:0:0:0:
448,192,34237,1,0,0:0:0:70:hitsound2.wav
320,192,34237,1,0,0:0:0:0:
64,192,34987,1,0,0:0:0:0:
192,192,35437,1,0,0:0:0:70:hitsound2.wav
448,192,35437,1,0,0:0:0:0:
320,192,35587,1,0,0:0:0:0:
192,192,36037,1,0,0:0:0:0:
320,192,36487,1,0,0:0:0:0:
192,192,36637,1,0,0:0:0:0:
64,192,36637,1,0,0:0:0:70:hitsound2.wav
448,192,37387,1,0,0:0:0:0:
192,192,37837,1,0,0:0:0:0:
320,192,37837,1,0,0:0:0:70:hitsound2.wav
64,192,37987,1,0,0:0:0:0:
448,192,38437,1,0,0:0:0:0:
192,192,38887,1,0,0:0:0:0:
64,192,39037,1,0,0:0:0:0:
448,192,39037,1,0,0:0:0:70:hitsound2.wav
64,192,39637,128,0,40237:0:0:0:0:
448,192,39637,1,0,0:0:0:0:
448,192,40237,128,0,40837:0:0:0:0:
320,192,40237,1,0,0:0:0:0:
192,192,40837,1,4,2:0:0:0:
64,192,40837,1,0,0:0:0:0:
320,192,41287,1,0,0:0:0:0:
192,192,41437,1,0,0:0:0:0:
448,192,41437,1,0,0:0:0:70:hitsound2.wav
64,192,42187,1,0,0:0:0:0:
320,192,42637,1,0,0:0:0:70:hitsound2.wav
448,192,42637,1,0,0:0:0:0:
192,192,42787,1,0,0:0:0:0:
320,192,43237,1,0,0:0:0:0:
192,192,43687,1,0,0:0:0:0:
64,192,43837,1,0,0:0:0:70:hitsound2.wav
320,192,43837,1,0,0:0:0:0:
448,192,44587,1,0,0:0:0:0:
192,192,45037,1,0,0:0:0:70:hitsound2.wav
320,192,45037,1,0,0:0:0:0:
64,192,45187,1,0,0:0:0:0:
448,192,45637,1,0,0:0:0:0:
192,192,46087,1,0,0:0:0:0:
320,192,46237,1,0,0:0:0:70:hitsound2.wav
448,192,46237,1,0,0:0:0:0:
64,192,46987,1,0,0:0:0:0:
192,192,47437,1,0,0:0:0:0:
448,192,47437,1,0,0:0:0:70:hitsound2.wav
320,192,47587,1,0,0:0:0:0:
192,192,48037,1,0,0:0:0:0:
448,192,48487,1,0,0:0:0:0:
64,192,48637,1,0,0:0:0:70:hitsound2.wav
320,192,48637,1,0,0:0:0:0:
448,192,48937,1,0,0:0:0:0:
192,192,49237,128,0,50437:0:0:0:0:
64,192,49237,128,0,50437:0:0:0:0:
320,192,50437,128,4,50737:2:0:0:0:
448,192,50437,128,0,50737:0:0:0:0:
320,192,50887,128,4,51187:2:0:0:0:
448,192,50887,128,0,51187:0:0:0:0:
320,192,51337,128,4,51637:2:0:0:0:
448,192,51337,128,0,51637:0:0:0:0:
320,192,51787,128,4,52087:2:0:0:0:
448,192,51787,128,0,52087:0:0:0:0:
320,192,52237,128,2,52387:2:0:0:0:
448,192,52237,128,0,52387:0:0:0:0:
320,192,52537,1,2,2:0:0:0:
192,192,52837,128,4,53137:2:0:0:0:
64,192,52837,128,0,53137:0:0:0:0:
64,192,53287,128,0,53587:0:0:0:0:
192,192,53287,128,4,53587:2:0:0:0:
64,192,53737,128,0,54037:0:0:0:0:
192,192,53737,128,4,54037:2:0:0:0:
64,192,54187,128,0,54487:0:0:0:0:
192,192,54187,128,4,54487:2:0:0:0:
64,192,54637,128,0,54787:0:0:0:0:
192,192,54637,128,2,54787:2:0:0:0:
192,192,54937,1,2,2:0:0:0:
64,192,55237,128,0,55537:0:0:0:0:
448,192,55237,128,4,55537:2:0:0:0:
64,192,55687,128,0,55987:0:0:0:0:
448,192,55687,128,4,55987:2:0:0:0:
64,192,56137,128,0,56437:0:0:0:0:
448,192,56137,128,4,56437:2:0:0:0:
64,192,56587,128,0,56887:0:0:0:0:
448,192,56587,128,4,56887:2:0:0:0:
64,192,57037,128,0,57187:0:0:0:0:
448,192,57037,128,2,57187:2:0:0:0:
448,192,57337,1,2,2:0:0:0:
192,192,57637,128,4,57937:2:0:0:0:
320,192,57637,128,0,57937:0:0:0:0:
192,192,58087,128,4,58387:2:0:0:0:
320,192,58087,128,0,58387:0:0:0:0:
192,192,58537,128,4,58837:2:0:0:0:
320,192,58537,128,0,58837:0:0:0:0:
192,192,58987,128,4,59287:2:0:0:0:
320,192,58987,128,0,59287:0:0:0:0:
192,192,59437,128,4,60037:2:0:0:0:
448,192,59437,128,0,59737:0:0:0:0:
320,192,59737,128,0,60037:0:0:0:0:
64,192,60037,1,0,0:0:0:80:bass-dry.wav
448,192,60037,1,4,2:0:0:0:
64,192,60337,1,0,0:0:0:80:bass-dry.wav
64,192,60637,1,0,0:0:0:80:bass-dry.wav
64,192,60937,1,0,0:0:0:80:bass-dry.wav
448,192,61237,1,0,0:0:0:80:bass-dry.wav
448,192,61537,1,0,0:0:0:80:bass-dry.wav
448,192,61837,1,0,0:0:0:80:bass-dry.wav
448,192,62137,1,0,0:0:0:80:bass-dry.wav
320,192,62437,1,0,0:0:0:80:bass-dry.wav
320,192,62737,1,0,0:0:0:80:bass-dry.wav
320,192,63037,1,0,0:0:0:80:bass-dry.wav
320,192,63337,1,0,0:0:0:80:bass-dry.wav
192,192,63637,1,0,0:0:0:80:bass-dry.wav
192,192,63937,1,0,0:0:0:80:bass-dry.wav
192,192,64237,1,0,0:0:0:80:bass-dry.wav
192,192,64537,1,0,0:0:0:80:bass-dry.wav
64,192,64837,1,0,0:0:0:80:bass-dry.wav
64,192,65137,1,0,0:0:0:80:bass-dry.wav
64,192,65437,1,0,0:0:0:80:bass-dry.wav
64,192,65737,1,0,0:0:0:80:bass-dry.wav
448,192,66037,1,0,0:0:0:80:bass-dry.wav
448,192,66337,1,0,0:0:0:80:bass-dry.wav
448,192,66637,1,0,0:0:0:80:bass-dry.wav
448,192,66937,1,0,0:0:0:80:bass-dry.wav
64,192,67237,1,0,0:0:0:0:
192,192,67237,128,6,67687:2:0:0:0:
448,192,67687,1,0,0:0:0:0:
320,192,67687,128,6,68137:2:0:0:0:
192,192,68137,1,0,0:0:0:0:
64,192,68137,128,6,68587:2:0:0:0:
320,192,68587,128,6,68737:2:0:0:0:
448,192,68587,128,0,68737:0:0:0:0:
64,192,70237,1,0,0:0:0:0:
448,192,70237,128,6,70537:2:0:0:0:
320,192,70537,1,0,0:0:0:60:short.wav
192,192,70837,1,0,0:0:0:0:
64,192,71137,1,0,0:0:0:60:short.wav
320,192,71437,1,0,0:0:0:0:
448,192,71737,1,0,0:0:0:60:short.wav
64,192,72037,1,0,0:0:0:0:
192,192,72337,1,0,0:0:0:60:short.wav
320,192,72637,128,2,72937:2:0:0:0:
448,192,72637,128,0,72937:0:0:0:0:
64,192,72937,1,0,0:0:0:60:short.wav
448,192,73237,1,0,0:0:0:0:
192,192,73537,1,0,0:0:0:60:short.wav
320,192,73837,1,0,0:0:0:0:
448,192,74137,1,0,0:0:0:60:short.wav
192,192,74437,1,0,0:0:0:0:
64,192,74737,1,0,0:0:0:60:short.wav
448,192,75037,128,0,75337:0:0:0:0:
192,192,75037,128,2,75337:2:0:0:0:
320,192,75337,1,0,0:0:0:60:short.wav
192,192,75637,1,0,0:0:0:0:
64,192,75937,1,0,0:0:0:60:short.wav
320,192,76237,1,0,0:0:0:0:
448,192,76537,1,0,0:0:0:60:short.wav
192,192,76837,1,0,0:0:0:0:
320,192,77137,1,0,0:0:0:60:short.wav
64,192,77437,128,0,77737:0:0:0:0:
192,192,77737,128,0,78037:0:0:0:0:
320,192,78037,128,0,78337:0:0:0:0:
448,192,78337,128,0,78637:0:0:0:0:
320,192,78637,128,0,78937:0:0:0:0:
192,192,78937,128,0,79237:0:0:0:0:
448,192,79237,128,0,79537:0:0:0:0:
320,192,79537,128,0,79837:0:0:0:0:
64,192,79837,128,6,80137:2:0:0:0:
448,192,79837,128,0,80137:0:0:0:0:
192,192,80137,1,0,0:0:0:60:short.wav
320,192,80437,1,0,0:0:0:0:
448,192,80737,1,0,0:0:0:60:short.wav
64,192,81037,1,0,0:0:0:0:
192,192,81337,1,0,0:0:0:60:short.wav
64,192,81637,1,0,0:0:0:0:
320,192,81937,1,0,0:0:0:60:short.wav
192,192,82237,128,2,82537:2:0:0:0:
64,192,82237,128,0,82537:0:0:0:0:
448,192,82537,1,0,0:0:0:60:short.wav
320,192,82837,1,0,0:0:0:0:
192,192,83137,1,0,0:0:0:60:short.wav
320,192,83437,1,0,0:0:0:0:
448,192,83737,1,0,0:0:0:60:short.wav
64,192,84037,1,0,0:0:0:0:
320,192,84337,1,0,0:0:0:60:short.wav
192,192,84637,128,0,84937:0:0:0:0:
448,192,84637,128,2,84937:2:0:0:0:
64,192,84937,1,4,2:0:0:0:
320,192,85237,1,0,0:0:0:0:
192,192,85537,1,0,0:0:0:60:short.wav
64,192,85837,1,0,0:0:0:0:
448,192,86137,128,0,86437:0:0:0:0:
320,192,86437,128,0,86737:0:0:0:0:
192,192,86737,128,0,87037:0:0:0:0:
64,192,87037,1,0,0:0:0:0:
448,192,87037,1,4,2:0:0:0:
192,192,87337,128,0,87487:0:0:0:0:
320,192,87487,1,4,2:0:0:0:
320,192,87787,128,0,87937:0:0:0:0:
192,192,87937,1,4,2:0:0:0:
192,192,88237,128,0,88387:0:0:0:0:
448,192,88387,1,4,2:0:0:0:
320,192,88687,128,0,88837:0:0:0:0:
64,192,88837,1,0,0:0:0:0:
192,192,88987,1,0,0:0:0:0:
320,192,89137,1,0,0:0:0:0:
448,192,89287,1,0,0:0:0:0:
192,192,89737,128,6,90037:2:0:0:0:
64,192,89737,128,0,90037:0:0:0:0:
448,192,90037,128,0,90187:0:0:0:0:
320,192,90187,1,4,2:0:0:0:
64,192,90487,128,0,90637:0:0:0:0:
192,192,90637,1,4,2:0:0:0:
448,192,90937,128,0,91087:0:0:0:0:
64,192,91087,1,4,2:0:0:0:
64,192,91387,128,0,91537:0:0:0:0:
448,192,91537,128,0,91837:0:0:0:0:
192,192,91837,128,6,92137:2:0:0:0:
64,192,91837,128,0,92137:0:0:0:0:
320,192,92137,1,0,0:0:0:60:short.wav
192,192,92437,1,0,0:0:0:0:
64,192,92737,1,0,0:0:0:60:short.wav
320,192,92887,128,4,93337:2:0:0:0:
448,192,92887,128,0,93337:0:0:0:0:
192,192,93337,1,0,0:0:0:60:short.wav
64,192,93637,1,0,0:0:0:0:
448,192,93937,1,0,0:0:0:60:short.wav
64,192,94237,128,0,94537:0:0:0:0:
320,192,94237,128,6,94537:2:0:0:0:
192,192,94537,1,0,0:0:0:60:short.wav
64,192,94837,1,0,0:0:0:0:
320,192,95137,1,0,0:0:0:60:short.wav
448,192,95437,1,0,0:0:0:0:
192,192,95737,1,0,0:0:0:60:short.wav
320,192,96037,1,0,0:0:0:0:
64,192,96337,128,4,96637:2:0:0:0:
320,192,96637,1,4,2:0:0:0:
448,192,96937,128,0,97237:0:0:0:0:
192,192,97237,1,4,2:0:0:0:
64,192,97537,128,0,97837:0:0:0:0:
448,192,97837,1,4,2:0:0:0:
448,192,98137,128,0,98437:0:0:0:0:
64,192,98437,1,4,2:0:0:0:
64,192,98737,128,0,99037:0:0:0:0:
320,192,99037,1,4,2:0:0:0:
448,192,99037,1,0,0:0:0:0:
192,192,99337,1,0,0:0:0:60:short.wav
64,192,99637,1,0,0:0:0:0:
320,192,99937,1,0,0:0:0:60:short.wav
448,192,100237,1,0,0:0:0:0:
64,192,100537,1,0,0:0:0:60:short.wav
192,192,100837,1,0,0:0:0:0:
320,192,101137,1,0,0:0:0:60:short.wav
192,192,101437,1,2,2:0:0:0:
448,192,101737,1,0,0:0:0:60:short.wav
320,192,102037,1,0,0:0:0:0:
192,192,102337,1,0,0:0:0:60:short.wav
64,192,102637,1,0,0:0:0:0:
320,192,102937,1,0,0:0:0:60:short.wav
64,192,103087,1,0,0:0:0:0:
320,192,103387,1,0,0:0:0:60:short.wav
192,192,103537,1,0,0:0:0:0:
448,192,103687,1,0,0:0:0:0:
64,192,103837,1,0,0:0:0:0:
320,192,103837,128,6,104137:2:0:0:0:
320,192,104437,128,2,104737:2:0:0:0:
64,192,104437,1,0,0:0:0:0:
192,192,105037,128,2,105337:2:0:0:0:
448,192,105037,1,0,0:0:0:0:
192,192,105637,128,2,105937:2:0:0:0:
448,192,105637,1,0,0:0:0:0:
64,192,106237,1,0,0:0:0:0:
320,192,106237,128,2,108637:2:0:0:0:
192,192,107437,128,2,108637:2:0:0:0:
64,192,108637,1,0,0:0:0:0:
448,192,108637,1,4,2:0:0:0:
192,192,109237,1,0,0:0:0:0:
448,192,109837,1,2,2:0:0:0:
320,192,110437,1,0,0:0:0:0:
64,192,111037,1,2,2:0:0:0:
192,192,111637,1,0,0:0:0:0:
320,192,112237,1,2,2:0:0:0:
448,192,112837,1,0,0:0:0:0:
64,192,113437,1,2,2:0:0:0:
448,192,114037,1,0,0:0:0:0:
192,192,114637,1,2,2:0:0:0:
64,192,115237,1,0,0:0:0:0:
320,192,115837,1,2,2:0:0:0:
192,192,116437,1,0,0:0:0:0:
448,192,117037,1,2,2:0:0:0:
320,192,117637,1,0,0:0:0:0:
64,192,118237,1,2,2:0:0:0:
448,192,118837,1,0,0:0:0:0:
192,192,119437,1,2,2:0:0:0:
320,192,120037,1,0,0:0:0:0:
64,192,120637,1,2,2:0:0:0:
320,192,121237,1,0,0:0:0:0:
192,192,121837,1,2,2:0:0:0:
448,192,122437,1,0,0:0:0:0:
320,192,123037,1,2,2:0:0:0:
64,192,123637,1,0,0:0:0:0:
192,192,124237,1,2,2:0:0:0:
320,192,124837,1,0,0:0:0:0:
448,192,125437,1,2,2:0:0:0:
64,192,126037,1,0,0:0:0:0:
320,192,126637,1,2,2:0:0:0:
192,192,127237,1,0,0:0:0:0:
448,192,127837,128,0,132337:0:0:0:0:
64,192,127837,128,0,132337:0:0:0:0:
