osu file format v14

[General]
AudioFilename: audio.mp3
AudioLeadIn: 0
PreviewTime: -1
Countdown: 0
SampleSet: Soft
StackLeniency: 0.7
Mode: 3
LetterboxInBreaks: 0
SpecialStyle: 0
WidescreenStoryboard: 1

[Editor]
DistanceSpacing: 0.8
BeatDivisor: 4
GridSize: 8
TimelineZoom: 2.1

[Metadata]
Title:Frey's Philosophy
TitleUnicode:Frey's Philosophy
Artist:Powerless
ArtistUnicode:Powerless
Creator:genkicho
Version:Fisica
Source:Lanota
Tags:lanota frey
BeatmapID:1463339
BeatmapSetID:690699

[Difficulty]
HPDrainRate:10
CircleSize:4
OverallDifficulty:8
ApproachRate:5
SliderMultiplier:1.4
SliderTickRate:1

[Events]
//Background and Video events
0,0,"69613.jpg",0,0
//Break Periods
//Storyboard Layer 0 (Background)
//Storyboard Layer 1 (Fail)
//Storyboard Layer 2 (Pass)
//Storyboard Layer 3 (Foreground)
//Storyboard Sound Samples

[TimingPoints]
37,300,4,2,0,16,1,0
2437,-66.6666666666667,4,2,0,16,0,0
2512,-500,4,2,0,16,0,0
2587,-66.6666666666667,4,2,0,16,0,0
2662,-100,4,2,0,16,0,0
3337,-66.6666666666667,4,2,0,16,0,0
3412,-500,4,2,0,16,0,0
3487,-66.6666666666667,4,2,0,16,0,0
3562,-100,4,2,0,16,0,0
4837,-66.6666666666667,4,2,0,16,0,0
4912,-500,4,2,0,16,0,0
4987,-66.6666666666667,4,2,0,16,0,0
5062,-100,4,2,0,16,0,0
5737,-66.6666666666667,4,2,0,16,0,0
5812,-333.333333333333,4,2,0,16,0,0
5887,-66.6666666666667,4,2,0,16,0,0
6937,-90.9090909090909,4,2,0,16,0,0
7087,-100,4,2,0,16,0,0
7237,-142.857142857143,4,2,0,16,0,0
9637,-125,4,2,0,16,0,0
10762,-111.111111111111,4,2,0,16,0,0
11287,-100,4,2,0,16,0,0
11737,-90.9090909090909,4,2,0,16,0,0
12037,-100,4,2,0,16,0,0
20437,-71.4285714285714,4,2,0,16,0,0
20512,-125,4,2,0,16,0,0
20587,-100,4,2,0,16,0,0
20887,-71.4285714285714,4,2,0,16,0,0
20962,-125,4,2,0,16,0,0
21037,-100,4,2,0,16,0,0
21337,-76.9230769230769,4,2,0,16,0,0
21374,-142.857142857143,4,2,0,16,0,0
21412,-76.9230769230769,4,2,0,16,0,0
21449,-142.857142857143,4,2,0,16,0,0
21487,-76.9230769230769,4,2,0,16,0,0
21524,-142.857142857143,4,2,0,16,0,0
21562,-76.9230769230769,4,2,0,16,0,0
21599,-142.857142857143,4,2,0,16,0,0
21637,-100,4,2,0,16,0,0
21937,-66.6666666666667,4,2,0,16,0,0
22012,-142.857142857143,4,2,0,16,0,0
22087,-100,4,2,0,16,0,0
22387,-66.6666666666667,4,2,0,16,0,0
22462,-142.857142857143,4,2,0,16,0,0
22537,-200,4,2,0,16,0,0
22612,-76.9230769230769,4,2,0,16,0,0
22687,-111.111111111111,4,2,0,16,0,0
22837,-100,4,2,0,16,0,0
24937,-66.6666666666667,4,2,0,16,0,0
25012,-142.857142857143,4,2,0,16,0,0
25049,-66.6666666666667,4,2,0,16,0,0
25087,-111.111111111111,4,2,0,16,0,0
25237,-100,4,2,0,16,0,0
28837,-71.4285714285714,4,2,0,16,0,0
28912,-125,4,2,0,16,0,0
29058,-100,4,2,0,16,0,0
29137,-83.3333333333333,4,2,0,16,0,0
29212,-76.9230769230769,4,2,0,16,0,0
29287,-125,4,2,0,16,0,0
29512,-100,4,2,0,16,0,0
29587,-83.3333333333333,4,2,0,16,0,0
29662,-76.9230769230769,4,2,0,16,0,0
29737,-125,4,2,0,16,0,0
29962,-100,4,2,0,16,0,0
30037,-83.3333333333333,4,2,0,16,0,0
30112,-76.9230769230769,4,2,0,16,0,0
30187,-125,4,2,0,16,0,0
30412,-100,4,2,0,16,0,0
30487,-83.3333333333333,4,2,0,16,0,0
30562,-76.9230769230769,4,2,0,16,0,0
30637,-71.4285714285714,4,2,0,16,0,0
30687,-166.666666666667,4,2,0,16,0,0
30737,-71.4285714285714,4,2,0,16,0,0
30787,-166.666666666667,4,2,0,16,0,0
30837,-71.4285714285714,4,2,0,16,0,0
30887,-166.666666666667,4,2,0,16,0,0
30937,-71.4285714285714,4,2,0,16,0,0
30987,-166.666666666667,4,2,0,16,0,0
31037,-71.4285714285714,4,2,0,16,0,0
31087,-166.666666666667,4,2,0,16,0,0
31137,-71.4285714285714,4,2,0,16,0,0
31187,-166.666666666667,4,2,0,16,0,0
31212,-83.3333333333333,4,2,0,16,0,0
31237,-166.666666666667,4,2,0,16,0,0
31837,-10000,4,2,0,16,0,0
31874,-71.4285714285714,4,2,0,16,0,0
31893,-166.666666666667,4,2,0,16,0,0
33037,-10000,4,2,0,16,0,0
33074,-71.4285714285714,4,2,0,16,0,0
33093,-166.666666666667,4,2,0,16,0,0
34237,-10000,4,2,0,16,0,0
34274,-71.4285714285714,4,2,0,16,0,0
34293,-166.666666666667,4,2,0,16,0,0
35437,-10000,4,2,0,16,0,0
35474,-71.4285714285714,4,2,0,16,0,0
35493,-166.666666666667,4,2,0,16,0,0
36637,-10000,4,2,0,16,0,0
36674,-71.4285714285714,4,2,0,16,0,0
36693,-166.666666666667,4,2,0,16,0,0
37837,-10000,4,2,0,16,0,0
37874,-71.4285714285714,4,2,0,16,0,0
37893,-166.666666666667,4,2,0,16,0,0
38437,-142.857142857143,4,2,0,16,0,0
39037,-10000,4,2,0,16,0,0
39074,-71.4285714285714,4,2,0,16,0,0
39093,-133.333333333333,4,2,0,16,0,0
39337,-125,4,2,0,16,0,0
39637,-111.111111111111,4,2,0,16,0,0
40837,-166.666666666667,4,2,0,16,0,0
41437,-10000,4,2,0,16,0,0
41474,-71.4285714285714,4,2,0,16,0,0
41493,-166.666666666667,4,2,0,16,0,0
42637,-10000,4,2,0,16,0,0
42674,-71.4285714285714,4,2,0,16,0,0
42693,-166.666666666667,4,2,0,16,0,0
43837,-10000,4,2,0,16,0,0
43874,-71.4285714285714,4,2,0,16,0,0
43893,-166.666666666667,4,2,0,16,0,0
45037,-10000,4,2,0,16,0,0
45074,-71.4285714285714,4,2,0,16,0,0
45093,-166.666666666667,4,2,0,16,0,0
46237,-10000,4,2,0,16,0,0
46274,-71.4285714285714,4,2,0,16,0,0
46293,-166.666666666667,4,2,0,16,0,0
47437,-10000,4,2,0,16,0,0
47474,-71.4285714285714,4,2,0,16,0,0
47493,-166.666666666667,4,2,0,16,0,0
48037,-142.857142857143,4,2,0,16,0,0
48187,-133.333333333333,4,2,0,16,0,0
48337,-125,4,2,0,16,0,0
48487,-117.647058823529,4,2,0,16,0,0
48637,-10000,4,2,0,16,0,0
48674,-71.4285714285714,4,2,0,16,0,0
48693,-125,4,2,0,16,0,0
48787,-117.647058823529,4,2,0,16,0,0
48937,-105.263157894737,4,2,0,16,0,0
49087,-95.2380952380951,4,2,0,16,0,0
49237,-117.647058823529,4,2,0,5,0,0
50362,-10,4,2,0,16,0,0
50399,-90.9090909090909,4,2,0,20,0,1
50830,-20,4,2,0,20,0,1
50849,-90.9090909090909,4,2,0,20,0,1
51280,-20,4,2,0,20,0,1
51299,-90.9090909090909,4,2,0,20,0,1
51730,-20,4,2,0,20,0,1
51749,-90.9090909090909,4,2,0,20,0,1
52180,-33.3333333333333,4,2,0,20,0,1
52199,-90.9090909090909,4,2,0,20,0,1
52462,-66.6666666666667,4,2,0,20,0,1
52537,-90.9090909090909,4,2,0,20,0,1
52780,-20,4,2,0,20,0,1
52799,-90.9090909090909,4,2,0,20,0,1
53230,-20,4,2,0,20,0,1
53249,-90.9090909090909,4,2,0,20,0,1
53680,-20,4,2,0,20,0,1
53699,-90.9090909090909,4,2,0,20,0,1
54130,-20,4,2,0,20,0,1
54149,-90.9090909090909,4,2,0,20,0,1
54580,-33.3333333333333,4,2,0,20,0,1
54599,-90.9090909090909,4,2,0,20,0,1
54862,-66.6666666666667,4,2,0,20,0,1
54937,-90.9090909090909,4,2,0,20,0,1
55180,-20,4,2,0,20,0,1
55199,-90.9090909090909,4,2,0,20,0,1
55630,-20,4,2,0,20,0,1
55649,-90.9090909090909,4,2,0,20,0,1
56080,-20,4,2,0,20,0,1
56099,-90.9090909090909,4,2,0,20,0,1
56530,-20,4,2,0,20,0,1
56549,-90.9090909090909,4,2,0,20,0,1
56980,-33.3333333333333,4,2,0,20,0,1
56999,-90.9090909090909,4,2,0,20,0,1
57262,-66.6666666666667,4,2,0,20,0,1
57337,-90.9090909090909,4,2,0,20,0,1
57580,-20,4,2,0,20,0,1
57599,-90.9090909090909,4,2,0,20,0,1
58030,-20,4,2,0,20,0,1
58049,-90.9090909090909,4,2,0,20,0,1
58480,-20,4,2,0,20,0,1
58499,-90.9090909090909,4,2,0,20,0,1
58930,-20,4,2,0,20,0,1
58949,-90.9090909090909,4,2,0,20,0,1
59437,-66.6666666666667,4,2,0,23,0,0
59487,-200,4,2,0,23,0,0
59537,-66.6666666666667,4,2,0,23,0,0
59587,-200,4,2,0,23,0,0
59637,-66.6666666666667,4,2,0,23,0,0
59687,-200,4,2,0,23,0,0
59737,-66.6666666666667,4,2,0,23,0,0
59787,-200,4,2,0,23,0,0
59837,-66.6666666666667,4,2,0,23,0,0
59887,-200,4,2,0,23,0,0
59937,-66.6666666666667,4,2,0,23,0,0
59987,-200,4,2,0,23,0,0
60012,-76.9230769230769,4,2,0,23,0,0
60037,-100,4,2,0,23,0,0
67237,-76.9230769230769,4,2,0,23,0,0
67312,-111.111111111111,4,2,0,23,0,0
67687,-83.3333333333333,4,2,0,23,0,0
67762,-125,4,2,0,23,0,0
68137,-90.9090909090909,4,2,0,23,0,0
68212,-142.857142857143,4,2,0,23,0,0
68587,-100,4,2,0,23,0,0
68662,-333.333333333334,4,2,0,16,0,0
69112,-10,4,2,0,16,0,0
69168,-166.666666666667,4,2,0,16,0,0
69412,-100,4,2,0,16,0,0
69487,-142.857142857143,4,2,0,5,0,0
69787,-125,4,2,0,16,0,0
69937,-111.111111111111,4,2,0,16,0,0
70087,-100,4,2,0,16,0,0
70237,300,4,2,0,16,1,0
70237,-100,4,2,0,16,0,1
87037,-71.4285714285714,4,2,0,16,0,1
87087,-100,4,2,0,16,0,1
87337,-71.4285714285714,4,2,0,16,0,1
87387,-166.666666666667,4,2,0,16,0,1
87437,-71.4285714285714,4,2,0,16,0,1
87487,-100,4,2,0,16,0,1
87787,-71.4285714285714,4,2,0,16,0,1
87837,-166.666666666667,4,2,0,16,0,1
87887,-71.4285714285714,4,2,0,16,0,1
87937,-100,4,2,0,16,0,1
88237,-71.4285714285714,4,2,0,16,0,1
88287,-166.666666666667,4,2,0,16,0,1
88337,-71.4285714285714,4,2,0,16,0,1
88387,-100,4,2,0,16,0,1
88687,-71.4285714285714,4,2,0,16,0,1
88737,-166.666666666667,4,2,0,16,0,1
88787,-90.9090909090909,4,2,0,16,0,1
88837,-76.9230769230769,4,2,0,16,0,1
88874,-142.857142857143,4,2,0,16,0,1
88912,-76.9230769230769,4,2,0,16,0,1
88949,-142.857142857143,4,2,0,16,0,1
88987,-76.9230769230769,4,2,0,16,0,1
89024,-142.857142857143,4,2,0,16,0,1
89062,-76.9230769230769,4,2,0,16,0,1
89099,-142.857142857143,4,2,0,16,0,1
89137,-76.9230769230769,4,2,0,16,0,1
89174,-142.857142857143,4,2,0,16,0,1
89212,-76.9230769230769,4,2,0,16,0,1
89249,-142.857142857143,4,2,0,16,0,1
89287,-76.9230769230769,4,2,0,16,0,1
89324,-142.857142857143,4,2,0,16,0,1
89362,-76.9230769230769,4,2,0,16,0,1
89437,-125,4,2,0,16,0,0
89493,-10,4,2,0,16,0,0
89549,-1000,4,2,0,16,0,0
89587,-125,4,2,0,16,0,0
89624,-111.111111111111,4,2,0,16,0,0
89662,-100,4,2,0,16,0,0
89699,-83.3333333333333,4,2,0,16,0,0
89737,-125,4,2,0,16,0,0
89962,-111.111111111111,4,2,0,16,0,0
90037,-100,4,2,0,16,0,0
90112,-83.3333333333333,4,2,0,16,0,0
90187,-125,4,2,0,16,0,0
90412,-111.111111111111,4,2,0,16,0,0
90487,-100,4,2,0,16,0,0
90562,-83.3333333333333,4,2,0,16,0,0
90637,-125,4,2,0,16,0,0
90862,-111.111111111111,4,2,0,16,0,0
90937,-100,4,2,0,16,0,0
91012,-83.3333333333333,4,2,0,16,0,0
91087,-125,4,2,0,16,0,0
91237,-111.111111111111,4,2,0,16,0,0
91312,-100,4,2,0,16,0,0
91387,-83.3333333333333,4,2,0,16,0,0
91424,-125,4,2,0,16,0,0
91462,-83.3333333333333,4,2,0,16,0,0
91499,-125,4,2,0,16,0,0
91537,-76.9230769230769,4,2,0,16,0,0
91574,-142.857142857143,4,2,0,16,0,0
91612,-76.9230769230769,4,2,0,16,0,0
91649,-142.857142857143,4,2,0,16,0,0
91687,-76.9230769230769,4,2,0,16,0,0
91724,-142.857142857143,4,2,0,16,0,0
91762,-76.9230769230769,4,2,0,16,0,0
91799,-142.857142857143,4,2,0,16,0,0
91837,-100,4,2,0,16,0,1
96937,-83.3333333333333,4,2,0,16,0,1
97012,-100,4,2,0,16,0,1
97537,-83.3333333333333,4,2,0,16,0,1
97612,-100,4,2,0,16,0,1
98137,-83.3333333333333,4,2,0,16,0,1
98212,-100,4,2,0,16,0,1
98737,-83.3333333333333,4,2,0,16,0,1
98812,-100,4,2,0,16,0,1
103837,-142.857142857143,4,2,0,16,0,1
106237,-200,4,2,0,16,0,1
107437,-250.000000000001,4,2,0,16,0,1
108487,-200.000000000001,4,2,0,16,0,1
108637,-166.666666666667,4,2,0,13,0,0

[HitObjects]
64,192,2437,5,0,0:0:0:0:
192,192,2437,1,0,0:0:0:30:soft-hitfinish2.wav
448,192,2437,1,0,0:0:0:0:
64,192,2587,1,0,0:0:0:0:
192,192,2587,1,0,0:0:0:0:
448,192,2587,1,0,0:0:0:0:
64,192,3337,1,0,0:0:0:0:
320,192,3337,1,0,0:0:0:30:soft-hitfinish2.wav
448,192,3337,1,0,0:0:0:0:
64,192,3487,1,0,0:0:0:0:
320,192,3487,1,0,0:0:0:0:
448,192,3487,1,0,0:0:0:0:
64,192,4837,1,0,0:0:0:30:soft-hitfinish2.wav
192,192,4837,1,0,0:0:0:0:
320,192,4837,1,0,0:0:0:0:
64,192,4987,1,0,0:0:0:0:
192,192,4987,1,0,0:0:0:0:
320,192,4987,1,0,0:0:0:0:
192,192,5737,1,0,0:0:0:0:
320,192,5737,1,0,0:0:0:30:soft-hitfinish2.wav
448,192,5737,1,0,0:0:0:0:
192,192,5887,1,0,0:0:0:0:
320,192,5887,1,0,0:0:0:0:
448,192,5887,1,0,0:0:0:0:
64,192,7237,1,0,0:0:0:0:
192,192,7237,1,0,0:0:0:0:
448,192,7237,1,0,0:0:0:30:soft-hitfinish2.wav
320,192,7337,1,0,0:0:0:0:
448,192,7437,1,0,0:0:0:0:
64,192,7537,1,0,0:0:0:0:
192,192,7637,1,0,0:0:0:0:
448,192,7737,1,0,0:0:0:0:
320,192,7837,1,0,0:0:0:0:
192,192,7937,1,0,0:0:0:0:
64,192,8037,1,0,0:0:0:0:
320,192,8137,1,0,0:0:0:0:
448,192,8237,1,0,0:0:0:0:
192,192,8337,1,0,0:0:0:0:
320,192,8437,1,0,0:0:0:0:
64,192,8537,1,0,0:0:0:0:
192,192,8637,1,0,0:0:0:0:
448,192,8737,1,0,0:0:0:0:
320,192,8837,1,0,0:0:0:0:
192,192,8937,1,0,0:0:0:0:
64,192,9037,1,0,0:0:0:0:
320,192,9137,1,0,0:0:0:0:
448,192,9237,1,0,0:0:0:0:
64,192,9337,1,0,0:0:0:0:
192,192,9437,1,0,0:0:0:0:
320,192,9537,1,0,0:0:0:0:
448,192,9637,1,0,0:0:0:0:
64,192,9637,1,0,0:0:0:0:
192,192,9637,1,0,0:0:0:0:
320,192,9937,1,0,0:0:0:0:
64,192,10087,1,0,0:0:0:0:
448,192,10237,1,0,0:0:0:0:
192,192,10537,1,0,0:0:0:0:
64,192,10837,1,0,0:0:0:0:
320,192,10837,1,0,0:0:0:0:
448,192,10837,1,0,0:0:0:0:
192,192,10912,1,0,0:0:0:0:
64,192,10987,1,0,0:0:0:0:
192,192,11062,1,0,0:0:0:0:
64,192,11137,1,0,0:0:0:0:
192,192,11212,1,0,0:0:0:0:
64,192,11287,1,0,0:0:0:0:
448,192,11287,1,0,0:0:0:0:
320,192,11362,1,0,0:0:0:0:
448,192,11437,1,0,0:0:0:0:
320,192,11512,1,0,0:0:0:0:
448,192,11587,1,0,0:0:0:0:
320,192,11662,1,0,0:0:0:0:
448,192,11737,1,0,0:0:0:0:
64,192,11737,1,0,0:0:0:0:
192,192,11812,1,0,0:0:0:0:
320,192,11887,1,0,0:0:0:0:
192,192,11962,1,0,0:0:0:0:
320,192,12037,1,0,0:0:0:0:
64,192,12037,1,4,2:0:0:0:
448,192,12037,128,0,12187:0:0:0:0:
192,192,12187,1,0,0:0:0:0:
64,192,12337,1,0,0:0:0:0:
192,192,12337,1,0,0:0:0:60:short.wav
448,192,12337,128,0,12487:0:0:0:0:
320,192,12487,1,0,0:0:0:0:
64,192,12637,1,0,0:0:0:0:
448,192,12637,1,0,0:0:0:0:
320,192,12787,1,0,0:0:0:0:
192,192,12787,1,0,0:0:0:0:
64,192,12937,1,0,0:0:0:0:
320,192,12937,1,0,0:0:0:60:short.wav
448,192,12937,1,0,0:0:0:0:
192,192,13087,1,0,0:0:0:0:
64,192,13087,1,0,0:0:0:0:
320,192,13237,1,0,0:0:0:0:
448,192,13237,1,0,0:0:0:0:
192,192,13387,1,0,0:0:0:0:
320,192,13387,1,0,0:0:0:0:
192,192,13537,1,0,0:0:0:0:
64,192,13537,1,0,0:0:0:60:short.wav
448,192,13537,1,0,0:0:0:0:
320,192,13687,1,0,0:0:0:0:
448,192,13687,1,0,0:0:0:0:
64,192,13837,1,0,0:0:0:0:
192,192,13987,1,0,0:0:0:0:
448,192,13987,1,0,0:0:0:0:
320,192,14137,1,0,0:0:0:60:short.wav
192,192,14137,1,0,0:0:0:0:
64,192,14137,1,0,0:0:0:0:
64,192,14287,1,0,0:0:0:0:
448,192,14287,1,0,0:0:0:0:
192,192,14437,1,0,0:0:0:0:
320,192,14437,1,0,0:0:0:0:
64,192,14587,1,0,0:0:0:0:
320,192,14587,1,0,0:0:0:0:
192,192,14737,1,0,0:0:0:0:
448,192,14737,1,0,0:0:0:60:short.wav
64,192,14737,1,0,0:0:0:0:
320,192,14887,1,0,0:0:0:0:
448,192,14887,1,0,0:0:0:0:
192,192,15037,1,0,0:0:0:0:
64,192,15187,1,0,0:0:0:0:
320,192,15187,1,0,0:0:0:0:
448,192,15337,1,0,0:0:0:0:
192,192,15337,1,0,0:0:0:60:short.wav
320,192,15337,1,0,0:0:0:0:
64,192,15487,1,0,0:0:0:0:
448,192,15487,1,0,0:0:0:0:
320,192,15637,1,0,0:0:0:0:
64,192,15787,1,0,0:0:0:0:
192,192,15787,1,0,0:0:0:0:
320,192,15937,1,0,0:0:0:0:
448,192,15937,1,0,0:0:0:0:
64,192,15937,1,0,0:0:0:60:short.wav
192,192,16087,1,0,0:0:0:0:
320,192,16087,1,0,0:0:0:0:
448,192,16237,1,0,0:0:0:0:
192,192,16387,128,0,16687:0:0:0:0:
64,192,16537,128,0,16687:0:0:0:0:
448,192,16537,128,0,16687:0:0:0:60:short.wav
320,192,16687,128,0,16837:0:0:0:0:
64,192,16837,128,0,16987:0:0:0:0:
448,192,16837,1,0,0:0:0:0:
192,192,16837,1,0,0:0:0:0:
320,192,16987,1,0,0:0:0:0:
64,192,17137,128,0,17287:0:0:0:0:
448,192,17137,1,0,0:0:0:0:
320,192,17137,1,0,0:0:0:60:short.wav
192,192,17287,1,0,0:0:0:0:
64,192,17437,1,0,0:0:0:0:
448,192,17437,1,0,0:0:0:0:
320,192,17587,1,0,0:0:0:0:
192,192,17587,1,0,0:0:0:0:
64,192,17737,1,0,0:0:0:60:short.wav
320,192,17737,1,0,0:0:0:0:
448,192,17737,1,0,0:0:0:0:
192,192,17887,1,0,0:0:0:0:
64,192,17887,1,0,0:0:0:0:
448,192,18037,1,0,0:0:0:0:
320,192,18037,1,0,0:0:0:0:
64,192,18187,1,0,0:0:0:0:
448,192,18187,1,0,0:0:0:0:
64,192,18337,1,0,0:0:0:0:
192,192,18337,1,0,0:0:0:0:
320,192,18337,1,0,0:0:0:60:short.wav
192,192,18487,1,0,0:0:0:0:
448,192,18487,1,0,0:0:0:0:
320,192,18637,1,0,0:0:0:0:
64,192,18787,1,0,0:0:0:0:
192,192,18787,1,0,0:0:0:0:
448,192,18937,1,0,0:0:0:0:
320,192,18937,1,0,0:0:0:60:short.wav
64,192,18937,1,0,0:0:0:0:
192,192,19087,1,0,0:0:0:0:
448,192,19087,1,0,0:0:0:0:
64,192,19237,1,0,0:0:0:0:
320,192,19237,1,0,0:0:0:0:
448,192,19387,1,0,0:0:0:0:
320,192,19537,1,0,0:0:0:0:
192,192,19537,1,0,0:0:0:60:short.wav
64,192,19537,1,0,0:0:0:0:
64,192,19687,1,0,0:0:0:0:
448,192,19687,1,0,0:0:0:0:
192,192,19837,1,0,0:0:0:0:
64,192,19987,1,0,0:0:0:0:
320,192,19987,1,0,0:0:0:0:
448,192,20137,1,0,0:0:0:60:short.wav
192,192,20137,1,0,0:0:0:0:
320,192,20137,1,0,0:0:0:0:
448,192,20287,1,0,0:0:0:0:
64,192,20437,1,0,0:0:0:0:
192,192,20437,1,0,0:0:0:0:
320,192,20437,1,0,0:0:0:0:
448,192,20587,1,0,0:0:0:0:
64,192,20662,1,0,0:0:0:0:
320,192,20737,1,0,0:0:0:0:
448,192,20737,1,0,0:0:0:0:
192,192,20887,1,0,0:0:0:0:
320,192,20887,1,0,0:0:0:0:
448,192,20887,1,0,0:0:0:0:
64,192,21037,1,0,0:0:0:0:
448,192,21112,1,0,0:0:0:0:
320,192,21187,1,0,0:0:0:0:
192,192,21187,1,0,0:0:0:0:
64,192,21187,1,0,0:0:0:0:
64,192,21337,1,0,0:0:0:0:
192,192,21337,1,0,0:0:0:0:
320,192,21412,1,0,0:0:0:0:
64,192,21487,1,0,0:0:0:0:
448,192,21487,1,0,0:0:0:0:
192,192,21562,1,0,0:0:0:0:
320,192,21637,1,0,0:0:0:0:
448,192,21637,1,0,0:0:0:0:
64,192,21637,1,0,0:0:0:0:
320,192,21787,1,0,0:0:0:0:
64,192,21937,128,0,22012:0:0:0:0:
192,192,21937,128,0,22012:0:0:0:60:short.wav
448,192,21937,128,0,22012:0:0:0:0:
320,192,22087,1,0,0:0:0:0:
64,192,22237,1,0,0:0:0:0:
192,192,22237,1,0,0:0:0:0:
64,192,22387,128,0,22462:0:0:0:0:
320,192,22387,128,0,22462:0:0:0:60:short.wav
448,192,22387,128,0,22462:0:0:0:0:
192,192,22687,128,0,22987:0:0:0:0:
320,192,22687,128,6,22987:2:0:0:0:
448,192,22687,128,0,22837:0:0:0:0:
64,192,22687,128,0,22837:0:0:0:0:
64,192,22987,1,0,0:0:0:0:
448,192,22987,1,0,0:0:0:0:
192,192,23137,1,0,0:0:0:0:
320,192,23137,1,0,0:0:0:0:
64,192,23137,1,0,0:0:0:60:short.wav
192,192,23287,1,0,0:0:0:0:
448,192,23287,1,0,0:0:0:0:
320,192,23437,1,0,0:0:0:0:
64,192,23587,1,0,0:0:0:0:
448,192,23587,1,0,0:0:0:0:
192,192,23737,1,0,0:0:0:0:
448,192,23737,1,0,0:0:0:0:
320,192,23737,1,0,0:0:0:60:short.wav
320,192,23887,1,0,0:0:0:0:
64,192,23887,1,0,0:0:0:0:
192,192,24037,1,0,0:0:0:0:
448,192,24037,1,0,0:0:0:0:
64,192,24187,1,0,0:0:0:0:
448,192,24187,1,0,0:0:0:0:
192,192,24337,1,0,0:0:0:0:
320,192,24337,1,0,0:0:0:0:
64,192,24337,1,0,0:0:0:60:short.wav
320,192,24487,1,0,0:0:0:0:
448,192,24487,1,0,0:0:0:0:
192,192,24637,1,0,0:0:0:0:
64,192,24787,1,0,0:0:0:0:
448,192,24787,1,0,0:0:0:0:
192,192,24937,128,0,25012:0:0:0:0:
320,192,24937,128,0,25012:0:0:0:60:short.wav
448,192,24937,128,0,25012:0:0:0:0:
64,192,25087,128,0,25237:0:0:0:0:
448,192,25087,128,0,25237:0:0:0:0:
192,192,25087,128,6,25387:2:0:0:0:
320,192,25087,128,0,25387:0:0:0:0:
64,192,25387,1,0,0:0:0:0:
448,192,25387,1,0,0:0:0:0:
192,192,25537,1,0,0:0:0:0:
320,192,25537,1,0,0:0:0:0:
448,192,25537,1,0,0:0:0:60:short.wav
64,192,25687,1,0,0:0:0:0:
192,192,25687,1,0,0:0:0:0:
320,192,25837,1,0,0:0:0:0:
64,192,25987,1,0,0:0:0:0:
448,192,25987,1,0,0:0:0:0:
192,192,26137,1,0,0:0:0:0:
64,192,26137,1,0,0:0:0:60:short.wav
320,192,26137,1,0,0:0:0:0:
320,192,26287,1,0,0:0:0:0:
448,192,26287,1,0,0:0:0:0:
320,192,26437,1,0,0:0:0:0:
192,192,26437,1,0,0:0:0:0:
64,192,26587,1,0,0:0:0:0:
192,192,26587,1,0,0:0:0:0:
64,192,26737,1,0,0:0:0:0:
320,192,26737,1,4,2:0:0:0:
448,192,26737,1,0,0:0:0:0:
192,192,26737,1,0,0:0:0:0:
320,192,26887,1,0,0:0:0:0:
64,192,27037,1,0,0:0:0:0:
448,192,27037,1,0,0:0:0:0:
192,192,27187,1,0,0:0:0:0:
320,192,27187,1,0,0:0:0:0:
64,192,27337,1,0,0:0:0:0:
192,192,27337,1,0,0:0:0:60:short.wav
448,192,27337,1,0,0:0:0:0:
320,192,27487,1,0,0:0:0:0:
448,192,27487,1,0,0:0:0:0:
192,192,27637,1,0,0:0:0:0:
64,192,27637,1,0,0:0:0:0:
192,192,27787,1,0,0:0:0:0:
320,192,27787,1,0,0:0:0:0:
64,192,27937,1,0,0:0:0:0:
320,192,27937,1,0,0:0:0:0:
448,192,27937,1,0,0:0:0:60:short.wav
192,192,28087,1,0,0:0:0:0:
64,192,28087,1,0,0:0:0:0:
320,192,28237,1,0,0:0:0:0:
64,192,28387,1,0,0:0:0:0:
448,192,28387,1,0,0:0:0:0:
192,192,28537,1,0,0:0:0:60:short.wav
320,192,28537,1,0,0:0:0:0:
448,192,28537,1,0,0:0:0:0:
64,192,28687,1,0,0:0:0:0:
320,192,28687,1,0,0:0:0:0:
64,192,28837,1,0,0:0:0:0:
192,192,28837,1,4,2:0:0:0:
320,192,28837,1,0,0:0:0:0:
448,192,28837,1,0,0:0:0:0:
320,192,29137,128,0,29212:0:0:0:0:
448,192,29137,128,0,29212:0:0:0:0:
192,192,29287,1,0,0:0:0:0:
64,192,29287,1,0,0:0:0:0:
320,192,29287,1,4,2:0:0:0:
448,192,29287,1,0,0:0:0:0:
64,192,29587,128,0,29662:0:0:0:0:
192,192,29587,128,0,29662:0:0:0:0:
64,192,29737,1,0,0:0:0:0:
320,192,29737,1,0,0:0:0:0:
192,192,29737,1,4,2:0:0:0:
448,192,29737,1,0,0:0:0:0:
192,192,30037,128,0,30112:0:0:0:0:
320,192,30037,128,0,30112:0:0:0:0:
64,192,30187,1,0,0:0:0:0:
320,192,30187,1,4,2:0:0:0:
448,192,30187,1,0,0:0:0:0:
192,192,30187,1,0,0:0:0:0:
448,192,30487,128,0,30562:0:0:0:0:
64,192,30487,128,0,30562:0:0:0:0:
192,192,30637,1,0,0:0:0:0:
64,192,30637,1,0,0:0:0:0:
320,192,30637,1,0,0:0:0:0:
448,192,30637,1,0,0:0:0:0:
192,192,30737,1,0,0:0:0:0:
192,192,30837,1,0,0:0:0:0:
320,192,30937,1,0,0:0:0:0:
320,192,31037,1,0,0:0:0:0:
320,192,31137,1,0,0:0:0:0:
448,192,31237,1,0,0:0:0:0:
192,192,31237,1,0,0:0:0:0:
64,192,31237,128,4,32437:2:0:0:0:
320,192,31312,1,0,0:0:0:0:
448,192,31387,1,0,0:0:0:0:
192,192,31462,1,0,0:0:0:0:
320,192,31537,1,0,0:0:0:0:
448,192,31612,1,0,0:0:0:0:
192,192,31687,1,0,0:0:0:0:
320,192,31762,1,0,0:0:0:0:
192,192,31837,1,0,0:0:0:70:hitsound2.wav
448,192,31837,1,0,0:0:0:0:
320,192,31912,1,0,0:0:0:0:
448,192,31987,1,0,0:0:0:0:
192,192,32062,1,0,0:0:0:0:
320,192,32137,1,0,0:0:0:0:
448,192,32212,1,0,0:0:0:0:
320,192,32287,1,0,0:0:0:0:
192,192,32362,1,0,0:0:0:0:
448,192,32437,128,0,33637:0:0:0:0:
320,192,32437,1,0,0:0:0:0:
320,192,32537,1,0,0:0:0:0:
192,192,32637,1,0,0:0:0:0:
192,192,32737,1,0,0:0:0:0:
64,192,32837,1,0,0:0:0:0:
64,192,32937,1,0,0:0:0:0:
192,192,33037,1,0,0:0:0:70:hitsound2.wav
320,192,33037,1,0,0:0:0:0:
320,192,33137,1,0,0:0:0:0:
192,192,33237,1,0,0:0:0:0:
192,192,33337,1,0,0:0:0:0:
64,192,33437,1,0,0:0:0:0:
64,192,33537,1,0,0:0:0:0:
320,192,33637,128,0,36037:0:0:0:0:
192,192,33637,1,0,0:0:0:0:
448,192,33712,1,0,0:0:0:0:
64,192,33787,1,0,0:0:0:0:
192,192,33862,1,0,0:0:0:0:
448,192,33937,1,0,0:0:0:0:
64,192,34012,1,0,0:0:0:0:
192,192,34087,1,0,0:0:0:0:
448,192,34162,1,0,0:0:0:0:
64,192,34237,1,0,0:0:0:70:hitsound2.wav
192,192,34237,1,0,0:0:0:0:
448,192,34312,1,0,0:0:0:0:
64,192,34387,1,0,0:0:0:0:
192,192,34462,1,0,0:0:0:0:
448,192,34537,1,0,0:0:0:0:
64,192,34612,1,0,0:0:0:0:
192,192,34687,1,0,0:0:0:0:
448,192,34762,1,0,0:0:0:0:
192,192,34837,1,0,0:0:0:0:
192,192,34937,1,0,0:0:0:0:
64,192,35037,1,0,0:0:0:0:
64,192,35137,1,0,0:0:0:0:
448,192,35237,1,0,0:0:0:0:
448,192,35337,1,0,0:0:0:0:
192,192,35437,1,0,0:0:0:70:hitsound2.wav
64,192,35437,1,0,0:0:0:0:
192,192,35537,1,0,0:0:0:0:
64,192,35637,1,0,0:0:0:0:
64,192,35737,1,0,0:0:0:0:
448,192,35837,1,0,0:0:0:0:
448,192,35937,1,0,0:0:0:0:
192,192,36037,128,0,38362:0:0:0:0:
64,192,36037,1,0,0:0:0:0:
320,192,36112,1,0,0:0:0:0:
448,192,36187,1,0,0:0:0:0:
64,192,36262,1,0,0:0:0:0:
320,192,36337,1,0,0:0:0:0:
448,192,36412,1,0,0:0:0:0:
64,192,36487,1,0,0:0:0:0:
320,192,36562,1,0,0:0:0:0:
448,192,36637,1,0,0:0:0:70:hitsound2.wav
64,192,36637,1,0,0:0:0:0:
320,192,36712,1,0,0:0:0:0:
448,192,36787,1,0,0:0:0:0:
64,192,36862,1,0,0:0:0:0:
320,192,36937,1,0,0:0:0:0:
448,192,37012,1,0,0:0:0:0:
64,192,37087,1,0,0:0:0:0:
320,192,37162,1,0,0:0:0:0:
448,192,37237,1,0,0:0:0:0:
448,192,37337,1,0,0:0:0:0:
320,192,37437,1,0,0:0:0:0:
320,192,37537,1,0,0:0:0:0:
64,192,37637,1,0,0:0:0:0:
64,192,37737,1,0,0:0:0:0:
320,192,37837,1,0,0:0:0:70:hitsound2.wav
448,192,37837,1,0,0:0:0:0:
448,192,37937,1,0,0:0:0:0:
320,192,38037,1,0,0:0:0:0:
320,192,38137,1,0,0:0:0:0:
64,192,38237,1,0,0:0:0:0:
64,192,38337,1,0,0:0:0:0:
192,192,38437,128,0,39487:0:0:0:0:
320,192,38437,1,0,0:0:0:0:
448,192,38512,1,0,0:0:0:0:
64,192,38587,1,0,0:0:0:0:
320,192,38662,1,0,0:0:0:0:
448,192,38737,1,0,0:0:0:0:
64,192,38812,1,0,0:0:0:0:
320,192,38887,1,0,0:0:0:0:
448,192,38962,1,0,0:0:0:0:
64,192,39037,1,0,0:0:0:0:
320,192,39037,1,0,0:0:0:70:hitsound2.wav
448,192,39112,1,0,0:0:0:0:
64,192,39187,1,0,0:0:0:0:
320,192,39262,1,0,0:0:0:0:
448,192,39337,1,0,0:0:0:0:
64,192,39412,1,0,0:0:0:0:
320,192,39487,1,0,0:0:0:0:
448,192,39562,1,0,0:0:0:0:
64,192,39637,128,0,39712:0:0:0:0:
192,192,39637,128,0,39712:0:0:0:0:
320,192,39637,128,0,39712:0:0:0:0:
448,192,39712,1,0,0:0:0:0:
320,192,39787,1,0,0:0:0:0:
64,192,39787,1,0,0:0:0:0:
192,192,39862,1,0,0:0:0:0:
448,192,39937,1,0,0:0:0:0:
320,192,39937,1,0,0:0:0:0:
64,192,40012,1,0,0:0:0:0:
192,192,40087,128,0,40162:0:0:0:0:
320,192,40087,128,0,40162:0:0:0:0:
448,192,40087,128,0,40162:0:0:0:0:
64,192,40162,1,0,0:0:0:0:
192,192,40237,1,0,0:0:0:0:
448,192,40237,1,0,0:0:0:0:
320,192,40312,1,0,0:0:0:0:
192,192,40387,1,0,0:0:0:0:
64,192,40387,1,0,0:0:0:0:
448,192,40462,1,0,0:0:0:0:
320,192,40537,1,0,0:0:0:0:
64,192,40537,1,0,0:0:0:0:
192,192,40612,1,0,0:0:0:0:
320,192,40687,1,0,0:0:0:0:
448,192,40687,1,0,0:0:0:0:
192,192,40762,1,0,0:0:0:0:
64,192,40837,1,0,0:0:0:0:
320,192,40837,1,0,0:0:0:0:
448,192,40837,128,4,42037:2:0:0:0:
192,192,40912,1,0,0:0:0:0:
64,192,40987,1,0,0:0:0:0:
320,192,41062,1,0,0:0:0:0:
192,192,41137,1,0,0:0:0:0:
64,192,41212,1,0,0:0:0:0:
320,192,41287,1,0,0:0:0:0:
192,192,41362,1,0,0:0:0:0:
320,192,41437,1,0,0:0:0:70:hitsound2.wav
64,192,41437,1,0,0:0:0:0:
192,192,41512,1,0,0:0:0:0:
64,192,41587,1,0,0:0:0:0:
320,192,41662,1,0,0:0:0:0:
192,192,41737,1,0,0:0:0:0:
64,192,41812,1,0,0:0:0:0:
192,192,41887,1,0,0:0:0:0:
320,192,41962,1,0,0:0:0:0:
64,192,42037,128,0,43237:0:0:0:0:
192,192,42037,1,0,0:0:0:0:
192,192,42137,1,0,0:0:0:0:
320,192,42237,1,0,0:0:0:0:
320,192,42337,1,0,0:0:0:0:
448,192,42437,1,0,0:0:0:0:
448,192,42537,1,0,0:0:0:0:
192,192,42637,1,0,0:0:0:70:hitsound2.wav
320,192,42637,1,0,0:0:0:0:
192,192,42737,1,0,0:0:0:0:
320,192,42837,1,0,0:0:0:0:
320,192,42937,1,0,0:0:0:0:
448,192,43037,1,0,0:0:0:0:
448,192,43137,1,0,0:0:0:0:
192,192,43237,128,0,45637:0:0:0:0:
320,192,43237,1,0,0:0:0:0:
64,192,43312,1,0,0:0:0:0:
448,192,43387,1,0,0:0:0:0:
320,192,43462,1,0,0:0:0:0:
64,192,43537,1,0,0:0:0:0:
448,192,43612,1,0,0:0:0:0:
320,192,43687,1,0,0:0:0:0:
64,192,43762,1,0,0:0:0:0:
448,192,43837,1,0,0:0:0:0:
320,192,43837,1,0,0:0:0:70:hitsound2.wav
64,192,43912,1,0,0:0:0:0:
448,192,43987,1,0,0:0:0:0:
320,192,44062,1,0,0:0:0:0:
64,192,44137,1,0,0:0:0:0:
448,192,44212,1,0,0:0:0:0:
320,192,44287,1,0,0:0:0:0:
64,192,44362,1,0,0:0:0:0:
320,192,44437,1,0,0:0:0:0:
320,192,44537,1,0,0:0:0:0:
448,192,44637,1,0,0:0:0:0:
448,192,44737,1,0,0:0:0:0:
64,192,44837,1,0,0:0:0:0:
64,192,44937,1,0,0:0:0:0:
320,192,45037,1,0,0:0:0:70:hitsound2.wav
448,192,45037,1,0,0:0:0:0:
320,192,45137,1,0,0:0:0:0:
448,192,45237,1,0,0:0:0:0:
448,192,45337,1,0,0:0:0:0:
64,192,45437,1,0,0:0:0:0:
64,192,45537,1,0,0:0:0:0:
320,192,45637,128,0,47962:0:0:0:0:
448,192,45637,1,0,0:0:0:0:
192,192,45712,1,0,0:0:0:0:
64,192,45787,1,0,0:0:0:0:
448,192,45862,1,0,0:0:0:0:
192,192,45937,1,0,0:0:0:0:
64,192,46012,1,0,0:0:0:0:
448,192,46087,1,0,0:0:0:0:
192,192,46162,1,0,0:0:0:0:
64,192,46237,1,0,0:0:0:70:hitsound2.wav
448,192,46237,1,0,0:0:0:0:
192,192,46312,1,0,0:0:0:0:
64,192,46387,1,0,0:0:0:0:
448,192,46462,1,0,0:0:0:0:
192,192,46537,1,0,0:0:0:0:
64,192,46612,1,0,0:0:0:0:
448,192,46687,1,0,0:0:0:0:
192,192,46762,1,0,0:0:0:0:
64,192,46837,1,0,0:0:0:0:
64,192,46937,1,0,0:0:0:0:
192,192,47037,1,0,0:0:0:0:
192,192,47137,1,0,0:0:0:0:
448,192,47237,1,0,0:0:0:0:
448,192,47337,1,0,0:0:0:0:
192,192,47437,1,0,0:0:0:70:hitsound2.wav
64,192,47437,1,0,0:0:0:0:
64,192,47537,1,0,0:0:0:0:
192,192,47637,1,0,0:0:0:0:
192,192,47737,1,0,0:0:0:0:
448,192,47837,1,0,0:0:0:0:
448,192,47937,1,0,0:0:0:0:
320,192,48037,128,0,49087:0:0:0:0:
192,192,48037,1,0,0:0:0:0:
64,192,48112,1,0,0:0:0:0:
448,192,48187,1,0,0:0:0:0:
192,192,48262,1,0,0:0:0:0:
64,192,48337,1,0,0:0:0:0:
448,192,48412,1,0,0:0:0:0:
192,192,48487,1,0,0:0:0:0:
64,192,48562,1,0,0:0:0:0:
448,192,48637,1,0,0:0:0:70:hitsound2.wav
192,192,48637,1,0,0:0:0:0:
64,192,48712,1,0,0:0:0:0:
448,192,48787,1,0,0:0:0:0:
192,192,48862,1,0,0:0:0:0:
64,192,48937,1,0,0:0:0:0:
448,192,49012,1,0,0:0:0:0:
192,192,49087,1,0,0:0:0:0:
64,192,49162,1,0,0:0:0:0:
320,192,49237,1,0,0:0:0:0:
448,192,49237,1,0,0:0:0:0:
192,192,49337,1,0,0:0:0:0:
192,192,49437,1,0,0:0:0:0:
64,192,49537,1,0,0:0:0:0:
64,192,49637,1,0,0:0:0:0:
320,192,49737,1,0,0:0:0:0:
320,192,49837,1,0,0:0:0:0:
192,192,49937,1,0,0:0:0:0:
192,192,50037,1,0,0:0:0:0:
448,192,50137,1,0,0:0:0:0:
448,192,50237,1,0,0:0:0:0:
320,192,50337,1,0,0:0:0:0:
320,192,50437,128,0,50512:0:0:0:0:
192,192,50437,128,0,50587:0:0:0:0:
64,192,50437,128,0,50812:0:0:0:0:
448,192,50437,128,4,50812:2:0:0:0:
320,192,50587,1,0,0:0:0:0:
192,192,50662,1,0,0:0:0:0:
320,192,50737,1,0,0:0:0:0:
192,192,50887,128,0,50962:0:0:0:0:
320,192,50887,128,0,51037:0:0:0:0:
64,192,50887,128,0,51262:0:0:0:0:
448,192,50887,128,4,51262:2:0:0:0:
192,192,51037,1,0,0:0:0:0:
320,192,51112,1,0,0:0:0:0:
192,192,51187,1,0,0:0:0:0:
448,192,51337,128,4,51712:2:0:0:0:
64,192,51337,128,0,51712:0:0:0:0:
192,192,51337,128,0,51487:0:0:0:0:
320,192,51337,128,0,51412:0:0:0:0:
320,192,51487,1,0,0:0:0:0:
192,192,51562,1,0,0:0:0:0:
320,192,51637,1,0,0:0:0:0:
192,192,51787,128,0,51862:0:0:0:0:
320,192,51787,128,0,51937:0:0:0:0:
448,192,51787,128,4,52162:2:0:0:0:
64,192,51787,128,0,52162:0:0:0:0:
192,192,51937,1,0,0:0:0:0:
320,192,52012,1,0,0:0:0:0:
192,192,52087,1,0,0:0:0:0:
64,192,52237,128,0,52462:0:0:0:0:
448,192,52237,128,2,52462:2:0:0:0:
320,192,52312,1,0,0:0:0:0:
192,192,52387,1,0,0:0:0:0:
320,192,52462,1,0,0:0:0:0:
448,192,52537,128,2,52612:2:0:0:0:
64,192,52537,128,0,52687:0:0:0:0:
320,192,52687,1,0,0:0:0:0:
448,192,52687,1,0,0:0:0:0:
192,192,52762,1,0,0:0:0:0:
64,192,52762,1,0,0:0:0:0:
448,192,52837,128,0,52912:0:0:0:0:
64,192,52837,128,0,52987:0:0:0:0:
192,192,52837,128,0,53212:0:0:0:0:
320,192,52837,128,4,53212:2:0:0:0:
448,192,52987,1,0,0:0:0:0:
64,192,53062,1,0,0:0:0:0:
448,192,53137,1,0,0:0:0:0:
64,192,53287,128,0,53362:0:0:0:0:
448,192,53287,128,0,53437:0:0:0:0:
320,192,53287,128,4,53662:2:0:0:0:
192,192,53287,128,0,53662:0:0:0:0:
64,192,53437,1,0,0:0:0:0:
448,192,53512,1,0,0:0:0:0:
64,192,53587,1,0,0:0:0:0:
192,192,53737,128,0,54112:0:0:0:0:
320,192,53737,128,4,54112:2:0:0:0:
64,192,53737,128,0,53887:0:0:0:0:
448,192,53737,128,0,53812:0:0:0:0:
448,192,53887,1,0,0:0:0:0:
64,192,53962,1,0,0:0:0:0:
448,192,54037,1,0,0:0:0:0:
192,192,54187,128,0,54562:0:0:0:0:
320,192,54187,128,4,54562:2:0:0:0:
64,192,54187,128,0,54262:0:0:0:0:
448,192,54187,128,0,54337:0:0:0:0:
64,192,54337,1,0,0:0:0:0:
448,192,54412,1,0,0:0:0:0:
64,192,54487,1,0,0:0:0:0:
192,192,54637,128,0,54862:0:0:0:0:
320,192,54637,128,2,54862:2:0:0:0:
448,192,54712,1,0,0:0:0:0:
64,192,54787,1,0,0:0:0:0:
448,192,54862,1,0,0:0:0:0:
192,192,54937,128,0,55087:0:0:0:0:
320,192,54937,128,2,55012:2:0:0:0:
448,192,55087,1,0,0:0:0:0:
320,192,55087,1,0,0:0:0:0:
64,192,55162,1,0,0:0:0:0:
192,192,55162,1,0,0:0:0:0:
192,192,55237,128,0,55312:0:0:0:0:
320,192,55237,128,0,55387:0:0:0:0:
64,192,55237,128,4,55612:2:0:0:0:
448,192,55237,128,0,55612:0:0:0:0:
192,192,55387,1,0,0:0:0:0:
320,192,55462,1,0,0:0:0:0:
192,192,55537,1,0,0:0:0:0:
64,192,55687,128,4,56062:2:0:0:0:
448,192,55687,128,0,56062:0:0:0:0:
192,192,55687,128,0,55837:0:0:0:0:
320,192,55687,128,0,55762:0:0:0:0:
320,192,55837,1,0,0:0:0:0:
192,192,55912,1,0,0:0:0:0:
320,192,55987,1,0,0:0:0:0:
64,192,56137,128,4,56512:2:0:0:0:
448,192,56137,128,0,56512:0:0:0:0:
192,192,56137,128,0,56212:0:0:0:0:
320,192,56137,128,0,56287:0:0:0:0:
192,192,56287,1,0,0:0:0:0:
320,192,56362,1,0,0:0:0:0:
192,192,56437,1,0,0:0:0:0:
64,192,56587,128,4,56962:2:0:0:0:
448,192,56587,128,0,56962:0:0:0:0:
192,192,56587,128,0,56737:0:0:0:0:
320,192,56587,128,0,56662:0:0:0:0:
320,192,56737,1,0,0:0:0:0:
192,192,56812,1,0,0:0:0:0:
320,192,56887,1,0,0:0:0:0:
64,192,57037,128,2,57262:2:0:0:0:
448,192,57037,128,0,57262:0:0:0:0:
192,192,57112,1,0,0:0:0:0:
320,192,57187,1,0,0:0:0:0:
192,192,57262,1,0,0:0:0:0:
448,192,57337,128,0,57487:0:0:0:0:
64,192,57337,128,2,57412:2:0:0:0:
192,192,57487,1,0,0:0:0:0:
64,192,57487,1,0,0:0:0:0:
320,192,57562,1,0,0:0:0:0:
448,192,57562,1,0,0:0:0:0:
192,192,57637,128,4,58012:2:0:0:0:
320,192,57637,128,0,58012:0:0:0:0:
64,192,57637,128,0,57712:0:0:0:0:
448,192,57637,128,0,57787:0:0:0:0:
64,192,57787,1,0,0:0:0:0:
448,192,57862,1,0,0:0:0:0:
64,192,57937,1,0,0:0:0:0:
192,192,58087,128,4,58462:2:0:0:0:
320,192,58087,128,0,58462:0:0:0:0:
64,192,58087,128,0,58237:0:0:0:0:
448,192,58087,128,0,58162:0:0:0:0:
448,192,58237,1,0,0:0:0:0:
64,192,58312,1,0,0:0:0:0:
448,192,58387,1,0,0:0:0:0:
192,192,58537,128,4,58912:2:0:0:0:
320,192,58537,128,0,58912:0:0:0:0:
64,192,58537,128,0,58612:0:0:0:0:
448,192,58537,128,0,58687:0:0:0:0:
64,192,58687,1,0,0:0:0:0:
448,192,58762,1,0,0:0:0:0:
64,192,58837,1,0,0:0:0:0:
192,192,58987,128,4,59362:2:0:0:0:
320,192,58987,128,0,59362:0:0:0:0:
64,192,58987,128,0,59137:0:0:0:0:
448,192,58987,128,0,59062:0:0:0:0:
448,192,59137,1,0,0:0:0:0:
64,192,59212,1,0,0:0:0:0:
448,192,59287,1,0,0:0:0:0:
320,192,59437,1,0,0:0:0:0:
448,192,59437,1,0,0:0:0:0:
320,192,59537,1,0,0:0:0:0:
448,192,59537,1,0,0:0:0:0:
320,192,59637,1,0,0:0:0:0:
448,192,59637,1,0,0:0:0:0:
192,192,59737,1,0,0:0:0:0:
64,192,59737,1,0,0:0:0:0:
64,192,59837,1,0,0:0:0:0:
192,192,59837,1,0,0:0:0:0:
64,192,59937,1,0,0:0:0:0:
192,192,59937,1,0,0:0:0:0:
64,192,60037,128,0,60112:0:0:0:80:bass-dry.wav
320,192,60037,128,0,60112:0:0:0:0:
192,192,60037,128,4,60562:2:0:0:0:
448,192,60037,128,0,60262:0:0:0:0:
320,192,60187,128,0,60412:0:0:0:0:
64,192,60337,128,0,60412:0:0:0:80:bass-dry.wav
448,192,60337,128,0,60862:0:0:0:0:
320,192,60487,128,0,60712:0:0:0:0:
64,192,60637,128,0,60712:0:0:0:80:bass-dry.wav
192,192,60637,128,0,61087:0:0:0:0:
320,192,60787,128,0,61012:0:0:0:0:
64,192,60937,128,0,61012:0:0:0:80:bass-dry.wav
448,192,60937,128,0,61162:0:0:0:0:
320,192,61087,128,0,61462:0:0:0:0:
192,192,61162,128,0,61312:0:0:0:0:
448,192,61237,128,0,61312:0:0:0:80:bass-dry.wav
64,192,61237,128,0,61762:0:0:0:0:
192,192,61387,128,0,61612:0:0:0:0:
448,192,61537,128,0,61612:0:0:0:80:bass-dry.wav
320,192,61537,128,0,62062:0:0:0:0:
192,192,61687,128,0,61912:0:0:0:0:
448,192,61837,128,0,61912:0:0:0:80:bass-dry.wav
64,192,61837,128,0,62362:0:0:0:0:
192,192,61987,128,0,62212:0:0:0:0:
448,192,62137,128,0,62212:0:0:0:80:bass-dry.wav
320,192,62137,128,0,62287:0:0:0:0:
192,192,62287,128,0,62662:0:0:0:0:
320,192,62362,128,0,62512:0:0:0:0:
64,192,62437,128,0,62512:0:0:0:60:short.wav
448,192,62437,128,0,62962:0:0:0:0:
320,192,62587,128,0,62812:0:0:0:0:
64,192,62737,128,0,62812:0:0:0:60:short.wav
192,192,62737,128,0,63262:0:0:0:0:
320,192,62887,128,0,63112:0:0:0:0:
64,192,63037,128,0,63112:0:0:0:60:short.wav
448,192,63037,128,0,63562:0:0:0:0:
320,192,63187,128,0,63412:0:0:0:0:
64,192,63337,128,0,63412:0:0:0:60:short.wav
192,192,63337,128,0,63487:0:0:0:0:
320,192,63487,128,0,63862:0:0:0:0:
192,192,63562,128,0,63712:0:0:0:0:
448,192,63637,128,0,63712:0:0:0:60:short.wav
64,192,63637,128,0,64162:0:0:0:0:
192,192,63787,128,0,64012:0:0:0:0:
448,192,63937,128,0,64012:0:0:0:60:short.wav
320,192,63937,128,0,64462:0:0:0:0:
192,192,64087,128,0,64312:0:0:0:0:
448,192,64237,128,0,64312:0:0:0:60:short.wav
64,192,64237,128,0,64762:0:0:0:0:
192,192,64387,128,0,64612:0:0:0:0:
448,192,64537,128,0,64612:0:0:0:60:short.wav
320,192,64537,128,0,64687:0:0:0:0:
192,192,64687,128,0,65062:0:0:0:0:
320,192,64762,128,0,64912:0:0:0:0:
64,192,64837,128,0,64912:0:0:0:60:short.wav
448,192,64837,128,0,65362:0:0:0:0:
320,192,64987,128,0,65212:0:0:0:0:
64,192,65137,128,0,65212:0:0:0:60:short.wav
192,192,65137,128,0,65662:0:0:0:0:
320,192,65287,128,0,65512:0:0:0:0:
64,192,65437,128,0,65512:0:0:0:60:short.wav
448,192,65437,128,0,65962:0:0:0:0:
320,192,65587,128,0,65812:0:0:0:0:
64,192,65737,128,0,65812:0:0:0:60:short.wav
192,192,65737,128,0,65887:0:0:0:0:
320,192,65887,128,0,66262:0:0:0:0:
192,192,65962,128,0,66112:0:0:0:0:
448,192,66037,128,0,66112:0:0:0:80:bass-dry.wav
64,192,66037,128,0,66562:0:0:0:0:
192,192,66187,128,0,66412:0:0:0:0:
448,192,66337,128,0,66412:0:0:0:80:bass-dry.wav
320,192,66337,128,0,66862:0:0:0:0:
192,192,66487,128,0,66712:0:0:0:0:
448,192,66637,128,0,66712:0:0:0:80:bass-dry.wav
64,192,66637,128,0,67012:0:0:0:0:
192,192,66787,128,0,67087:0:0:0:0:
448,192,66937,128,0,67012:0:0:0:80:bass-dry.wav
320,192,66937,128,0,67162:0:0:0:0:
64,192,67087,1,0,0:0:0:0:
192,192,67162,1,0,0:0:0:0:
448,192,67237,1,0,0:0:0:0:
320,192,67237,1,0,0:0:0:0:
64,192,67237,128,6,67537:2:0:0:0:
192,192,67387,128,0,67537:0:0:0:0:
320,192,67537,1,0,0:0:0:0:
448,192,67537,1,0,0:0:0:0:
320,192,67612,1,0,0:0:0:0:
64,192,67687,1,0,0:0:0:0:
192,192,67687,1,0,0:0:0:0:
448,192,67687,128,6,67987:2:0:0:0:
320,192,67837,128,0,67987:0:0:0:0:
192,192,67987,1,0,0:0:0:0:
64,192,67987,1,0,0:0:0:0:
192,192,68062,1,0,0:0:0:0:
320,192,68137,1,0,0:0:0:0:
448,192,68137,1,0,0:0:0:0:
64,192,68137,128,6,68437:2:0:0:0:
192,192,68287,128,0,68437:0:0:0:0:
320,192,68437,1,0,0:0:0:0:
448,192,68437,1,0,0:0:0:0:
320,192,68512,1,0,0:0:0:0:
192,192,68587,128,0,68662:0:0:0:0:
64,192,68587,128,4,68662:2:0:0:0:
448,192,68587,128,6,68662:2:0:0:0:
64,192,69487,128,0,70162:0:0:0:0:
192,192,69487,128,0,70162:0:0:0:0:
320,192,69487,128,0,70162:0:0:0:0:
448,192,69487,128,0,70162:0:0:0:0:
64,192,70237,1,0,0:0:0:0:
192,192,70237,1,6,2:0:0:0:
320,192,70237,1,0,0:0:0:0:
448,192,70237,1,0,0:0:0:0:
64,192,70537,1,0,0:0:0:0:
320,192,70537,1,0,0:0:0:60:short.wav
448,192,70537,1,0,0:0:0:0:
192,192,70837,1,0,0:0:0:0:
320,192,70987,1,0,0:0:0:0:
448,192,70987,1,0,0:0:0:0:
192,192,71137,1,0,0:0:0:60:short.wav
64,192,71137,1,0,0:0:0:0:
448,192,71137,1,0,0:0:0:0:
64,192,71437,128,0,71512:0:0:0:0:
320,192,71437,128,0,71587:0:0:0:0:
192,192,71587,1,0,0:0:0:0:
448,192,71587,1,0,0:0:0:0:
64,192,71737,1,0,0:0:0:0:
320,192,71737,1,0,0:0:0:60:short.wav
448,192,71737,1,0,0:0:0:0:
192,192,71887,128,0,72037:0:0:0:0:
320,192,71887,128,0,71962:0:0:0:0:
64,192,72037,1,0,0:0:0:0:
192,192,72187,1,0,0:0:0:0:
320,192,72187,1,0,0:0:0:0:
448,192,72337,1,0,0:0:0:60:short.wav
64,192,72337,128,0,72412:0:0:0:0:
192,192,72337,128,0,72487:0:0:0:0:
320,192,72637,128,6,72787:2:0:0:0:
448,192,72637,128,0,72712:0:0:0:0:
320,192,72937,1,0,0:0:0:0:
192,192,72937,1,0,0:0:0:60:short.wav
448,192,72937,1,0,0:0:0:0:
320,192,73087,128,0,73162:0:0:0:0:
64,192,73087,128,0,73237:0:0:0:0:
192,192,73237,1,0,0:0:0:0:
64,192,73387,1,0,0:0:0:0:
448,192,73387,1,0,0:0:0:0:
192,192,73537,128,0,73612:0:0:0:0:
64,192,73537,1,0,0:0:0:60:short.wav
320,192,73537,128,0,73687:0:0:0:0:
448,192,73837,1,0,0:0:0:0:
64,192,73987,128,0,74062:0:0:0:0:
192,192,73987,128,0,74137:0:0:0:0:
64,192,74137,1,0,0:0:0:0:
320,192,74137,1,0,0:0:0:60:short.wav
448,192,74137,1,0,0:0:0:0:
320,192,74437,128,0,74512:0:0:0:0:
64,192,74437,128,0,74587:0:0:0:0:
448,192,74587,128,0,74662:0:0:0:0:
192,192,74587,128,0,74737:0:0:0:0:
64,192,74737,1,0,0:0:0:0:
320,192,74737,1,0,0:0:0:60:short.wav
448,192,74737,1,0,0:0:0:0:
192,192,74887,128,0,74962:0:0:0:0:
448,192,74887,128,0,75037:0:0:0:0:
64,192,75037,128,0,75112:0:0:0:0:
320,192,75037,128,2,75187:2:0:0:0:
64,192,75337,1,0,0:0:0:0:
448,192,75337,1,0,0:0:0:0:
192,192,75337,1,0,0:0:0:60:short.wav
320,192,75487,128,0,75562:0:0:0:0:
192,192,75487,128,0,75637:0:0:0:0:
64,192,75712,1,0,0:0:0:0:
320,192,75787,1,0,0:0:0:0:
448,192,75787,1,0,0:0:0:0:
64,192,75937,1,0,0:0:0:0:
192,192,75937,1,0,0:0:0:60:short.wav
320,192,75937,1,0,0:0:0:0:
64,192,76087,128,0,76162:0:0:0:0:
448,192,76087,128,0,76237:0:0:0:0:
192,192,76237,1,0,0:0:0:0:
448,192,76387,128,0,76537:0:0:0:0:
320,192,76387,128,0,76687:0:0:0:0:
192,192,76537,128,0,76837:0:0:0:60:short.wav
64,192,76537,128,0,76987:0:0:0:0:
448,192,76687,128,0,76987:0:0:0:0:
320,192,76837,128,0,77137:0:0:0:0:
192,192,76987,128,0,77287:0:0:0:0:
64,192,77137,128,0,77437:0:0:0:0:
448,192,77137,128,0,77587:0:0:0:60:short.wav
320,192,77287,128,0,77587:0:0:0:0:
192,192,77437,128,0,77737:0:0:0:0:
64,192,77587,128,0,77887:0:0:0:0:
448,192,77737,128,0,78037:0:0:0:0:
320,192,77737,128,0,78187:0:0:0:60:short.wav
192,192,77887,128,0,78187:0:0:0:0:
64,192,78037,128,0,78337:0:0:0:0:
448,192,78187,128,0,78487:0:0:0:0:
320,192,78337,128,0,78637:0:0:0:0:
192,192,78337,128,0,78787:0:0:0:60:short.wav
64,192,78487,128,0,78787:0:0:0:0:
448,192,78637,128,0,78937:0:0:0:0:
320,192,78787,128,0,78937:0:0:0:0:
64,192,78937,128,0,79087:0:0:0:0:
192,192,78937,128,0,79087:0:0:0:60:short.wav
320,192,79087,128,0,79237:0:0:0:0:
448,192,79087,128,0,79237:0:0:0:0:
64,192,79237,1,0,0:0:0:0:
192,192,79237,1,0,0:0:0:0:
64,192,79337,1,0,0:0:0:0:
448,192,79337,1,0,0:0:0:0:
448,192,79437,1,0,0:0:0:0:
320,192,79437,1,0,0:0:0:0:
192,192,79537,1,0,0:0:0:0:
64,192,79537,1,0,0:0:0:0:
64,192,79637,1,0,0:0:0:0:
320,192,79637,1,0,0:0:0:0:
448,192,79737,1,0,0:0:0:0:
192,192,79737,1,0,0:0:0:0:
192,192,79837,128,0,79987:0:0:0:0:
320,192,79837,128,6,79987:2:0:0:0:
64,192,79837,128,0,79987:0:0:0:0:
192,192,80137,1,0,0:0:0:0:
448,192,80137,1,0,0:0:0:0:
320,192,80137,1,0,0:0:0:60:short.wav
64,192,80437,1,0,0:0:0:0:
192,192,80587,1,0,0:0:0:0:
448,192,80587,1,0,0:0:0:0:
320,192,80737,1,0,0:0:0:0:
192,192,80737,1,0,0:0:0:60:short.wav
64,192,80737,1,0,0:0:0:0:
320,192,81037,1,0,0:0:0:0:
64,192,81187,1,0,0:0:0:0:
192,192,81187,1,0,0:0:0:0:
64,192,81337,1,0,0:0:0:0:
320,192,81337,1,0,0:0:0:60:short.wav
448,192,81337,1,0,0:0:0:0:
192,192,81637,128,0,81787:0:0:0:0:
64,192,81637,128,0,81712:0:0:0:0:
320,192,81787,128,0,81937:0:0:0:0:
448,192,81787,128,0,81862:0:0:0:0:
192,192,81937,1,0,0:0:0:60:short.wav
64,192,81937,1,0,0:0:0:0:
448,192,81937,1,0,0:0:0:0:
320,192,82087,128,0,82162:0:0:0:0:
448,192,82087,128,0,82237:0:0:0:0:
64,192,82237,128,0,82387:0:0:0:0:
192,192,82237,128,2,82312:2:0:0:0:
64,192,82537,1,0,0:0:0:0:
448,192,82537,1,0,0:0:0:60:short.wav
320,192,82537,1,0,0:0:0:0:
192,192,82837,1,0,0:0:0:0:
64,192,82987,1,0,0:0:0:0:
448,192,82987,1,0,0:0:0:0:
320,192,83137,1,0,0:0:0:60:short.wav
64,192,83137,128,0,83287:0:0:0:0:
192,192,83137,128,0,83212:0:0:0:0:
320,192,83437,1,0,0:0:0:0:
64,192,83587,1,0,0:0:0:0:
192,192,83587,1,0,0:0:0:0:
64,192,83737,1,0,0:0:0:0:
320,192,83737,1,0,0:0:0:60:short.wav
448,192,83737,1,0,0:0:0:0:
192,192,84037,128,0,84112:0:0:0:0:
320,192,84037,128,0,84187:0:0:0:0:
64,192,84187,1,0,0:0:0:0:
448,192,84187,1,0,0:0:0:0:
192,192,84337,1,0,0:0:0:60:short.wav
320,192,84337,1,0,0:0:0:0:
448,192,84337,1,0,0:0:0:0:
64,192,84637,128,0,84787:0:0:0:0:
192,192,84637,128,2,84712:2:0:0:0:
320,192,84787,1,0,0:0:0:0:
448,192,84787,1,0,0:0:0:0:
64,192,84937,1,0,0:0:0:0:
192,192,84937,1,4,2:0:0:0:
320,192,84937,1,0,0:0:0:0:
448,192,84937,1,0,0:0:0:0:
320,192,85087,128,0,85237:0:0:0:0:
64,192,85087,128,0,85162:0:0:0:0:
192,192,85237,1,0,0:0:0:0:
64,192,85387,1,0,0:0:0:0:
448,192,85387,1,0,0:0:0:0:
192,192,85537,1,0,0:0:0:60:short.wav
64,192,85537,1,0,0:0:0:0:
320,192,85537,1,0,0:0:0:0:
320,192,85837,1,0,0:0:0:0:
448,192,85837,1,0,0:0:0:0:
192,192,85937,1,0,0:0:0:0:
64,192,85937,1,0,0:0:0:0:
64,192,86037,1,0,0:0:0:0:
320,192,86037,1,0,0:0:0:0:
320,192,86137,1,0,0:0:0:0:
192,192,86137,1,0,0:0:0:60:short.wav
448,192,86237,1,0,0:0:0:0:
64,192,86237,1,0,0:0:0:0:
320,192,86337,1,0,0:0:0:0:
192,192,86337,1,0,0:0:0:0:
192,192,86437,1,0,0:0:0:0:
448,192,86437,1,0,0:0:0:0:
320,192,86537,1,0,0:0:0:0:
448,192,86537,1,0,0:0:0:0:
64,192,86637,1,0,0:0:0:0:
192,192,86637,1,0,0:0:0:0:
64,192,86737,1,0,0:0:0:60:short.wav
448,192,86737,1,0,0:0:0:0:
448,192,86837,1,0,0:0:0:0:
320,192,86837,1,0,0:0:0:0:
64,192,86937,1,0,0:0:0:0:
192,192,86937,1,0,0:0:0:0:
64,192,87037,1,0,0:0:0:0:
448,192,87037,1,4,2:0:0:0:
320,192,87037,128,0,87137:0:0:0:0:
192,192,87137,128,0,87237:0:0:0:0:
64,192,87187,1,0,0:0:0:0:
448,192,87237,128,0,87337:0:0:0:0:
64,192,87337,1,0,0:0:0:0:
320,192,87337,128,0,87437:0:0:0:0:
192,192,87437,128,0,87537:0:0:0:0:
64,192,87487,1,4,2:0:0:0:
448,192,87487,1,0,0:0:0:0:
320,192,87537,128,0,87637:0:0:0:0:
448,192,87637,1,0,0:0:0:0:
192,192,87637,128,0,87737:0:0:0:0:
64,192,87737,128,0,87837:0:0:0:0:
448,192,87787,1,0,0:0:0:0:
320,192,87837,128,0,87937:0:0:0:0:
448,192,87937,1,4,2:0:0:0:
64,192,87937,1,0,0:0:0:0:
192,192,87937,128,0,88037:0:0:0:0:
448,192,88037,128,0,88137:0:0:0:0:
64,192,88087,1,0,0:0:0:0:
320,192,88137,128,0,88237:0:0:0:0:
64,192,88237,1,0,0:0:0:0:
448,192,88237,1,0,0:0:0:0:
64,192,88387,1,4,2:0:0:0:
320,192,88387,1,0,0:0:0:0:
192,192,88462,1,0,0:0:0:0:
320,192,88537,1,0,0:0:0:0:
448,192,88537,1,0,0:0:0:0:
64,192,88612,1,0,0:0:0:0:
192,192,88687,1,0,0:0:0:0:
320,192,88687,1,0,0:0:0:0:
448,192,88762,1,0,0:0:0:0:
192,192,88837,1,0,0:0:0:0:
64,192,88837,1,0,0:0:0:0:
320,192,88912,1,0,0:0:0:0:
64,192,88987,1,0,0:0:0:0:
448,192,88987,1,0,0:0:0:0:
192,192,89062,1,0,0:0:0:0:
448,192,89137,1,0,0:0:0:0:
320,192,89137,1,0,0:0:0:0:
192,192,89212,1,0,0:0:0:0:
64,192,89287,1,0,0:0:0:0:
448,192,89287,1,0,0:0:0:0:
64,192,89362,128,0,89437:0:0:0:0:
448,192,89362,128,0,89437:0:0:0:0:
64,192,89737,1,0,0:0:0:0:
192,192,89737,1,0,0:0:0:0:
320,192,89737,1,4,2:0:0:0:
448,192,89737,1,0,0:0:0:0:
64,192,90037,1,0,0:0:0:0:
192,192,90037,1,0,0:0:0:0:
64,192,90187,1,0,0:0:0:0:
320,192,90187,1,4,2:0:0:0:
448,192,90187,1,0,0:0:0:0:
320,192,90487,1,0,0:0:0:0:
448,192,90487,1,0,0:0:0:0:
64,192,90637,128,0,90712:0:0:0:0:
192,192,90637,128,4,90712:2:0:0:0:
448,192,90637,128,0,90787:0:0:0:0:
64,192,90937,1,0,0:0:0:0:
192,192,90937,1,0,0:0:0:0:
448,192,91087,1,0,0:0:0:0:
64,192,91087,128,0,91237:0:0:0:0:
320,192,91087,128,4,91162:2:0:0:0:
320,192,91387,1,0,0:0:0:0:
448,192,91387,1,0,0:0:0:0:
192,192,91462,1,0,0:0:0:0:
64,192,91462,1,0,0:0:0:0:
320,192,91537,1,0,0:0:0:0:
448,192,91537,1,0,0:0:0:0:
192,192,91537,1,0,0:0:0:0:
64,192,91612,1,0,0:0:0:0:
192,192,91687,1,0,0:0:0:0:
320,192,91687,1,0,0:0:0:0:
448,192,91687,1,0,0:0:0:0:
64,192,91762,1,0,0:0:0:0:
192,192,91837,1,6,2:0:0:0:
320,192,91837,1,0,0:0:0:0:
64,192,91837,1,0,0:0:0:0:
448,192,91837,1,0,0:0:0:0:
64,192,92137,1,0,0:0:0:60:short.wav
192,192,92137,1,0,0:0:0:0:
320,192,92137,1,0,0:0:0:0:
448,192,92287,128,0,92437:0:0:0:0:
320,192,92287,128,0,92362:0:0:0:0:
64,192,92437,1,0,0:0:0:0:
320,192,92587,1,0,0:0:0:0:
448,192,92587,1,0,0:0:0:0:
64,192,92737,128,0,92812:0:0:0:0:
320,192,92737,128,0,92812:0:0:0:0:
192,192,92737,1,0,0:0:0:60:short.wav
192,192,92887,1,4,2:0:0:0:
320,192,92887,1,0,0:0:0:0:
448,192,92887,1,0,0:0:0:0:
64,192,92887,1,0,0:0:0:0:
64,192,93187,128,0,93337:0:0:0:0:
192,192,93187,128,0,93262:0:0:0:0:
192,192,93337,1,0,0:0:0:0:
448,192,93337,1,0,0:0:0:0:
320,192,93337,1,0,0:0:0:60:short.wav
320,192,93637,128,0,93937:0:0:0:0:
448,192,93637,128,0,93787:0:0:0:0:
64,192,93787,128,0,94087:0:0:0:0:
192,192,93937,128,0,94087:0:0:0:60:short.wav
448,192,93937,128,0,94087:0:0:0:0:
320,192,94087,128,0,94237:0:0:0:0:
448,192,94237,1,0,0:0:0:0:
192,192,94237,1,6,2:0:0:0:
64,192,94237,1,0,0:0:0:0:
320,192,94387,128,0,94687:0:0:0:0:
192,192,94537,128,0,94687:0:0:0:0:
64,192,94537,128,0,94837:0:0:0:60:short.wav
448,192,94687,128,0,94837:0:0:0:0:
320,192,94837,1,0,0:0:0:0:
192,192,94987,1,0,0:0:0:0:
64,192,94987,1,0,0:0:0:0:
64,192,95137,1,0,0:0:0:0:
320,192,95137,128,0,95287:0:0:0:60:short.wav
448,192,95137,128,0,95212:0:0:0:0:
64,192,95437,1,0,0:0:0:0:
192,192,95587,1,0,0:0:0:0:
448,192,95587,128,0,95887:0:0:0:0:
320,192,95737,128,0,96037:0:0:0:0:
64,192,95737,128,0,96187:0:0:0:60:short.wav
192,192,95887,128,0,96187:0:0:0:0:
448,192,96037,128,0,96487:0:0:0:0:
320,192,96187,128,0,96337:0:0:0:0:
64,192,96337,128,0,96487:0:0:0:0:
192,192,96337,128,4,96637:2:0:0:0:
320,192,96487,128,0,96637:0:0:0:0:
64,192,96637,1,0,0:0:0:0:
448,192,96637,1,4,2:0:0:0:
64,192,96937,1,0,0:0:0:0:
448,192,96937,1,0,0:0:0:0:
192,192,96937,1,0,0:0:0:0:
320,192,97037,1,0,0:0:0:0:
448,192,97037,1,0,0:0:0:0:
192,192,97137,1,0,0:0:0:0:
64,192,97137,1,0,0:0:0:0:
192,192,97237,1,4,2:0:0:0:
448,192,97237,1,0,0:0:0:0:
320,192,97337,1,0,0:0:0:0:
64,192,97337,1,0,0:0:0:0:
64,192,97437,1,0,0:0:0:0:
192,192,97437,1,0,0:0:0:0:
448,192,97537,1,0,0:0:0:0:
320,192,97537,1,0,0:0:0:0:
192,192,97537,1,0,0:0:0:0:
64,192,97637,1,0,0:0:0:0:
448,192,97637,1,0,0:0:0:0:
192,192,97737,1,0,0:0:0:0:
320,192,97737,1,0,0:0:0:0:
64,192,97837,1,0,0:0:0:0:
192,192,97837,1,4,2:0:0:0:
64,192,97937,1,0,0:0:0:0:
448,192,97937,1,0,0:0:0:0:
192,192,98037,1,0,0:0:0:0:
320,192,98037,1,0,0:0:0:0:
64,192,98137,1,0,0:0:0:0:
448,192,98137,1,0,0:0:0:0:
192,192,98137,1,0,0:0:0:0:
320,192,98237,1,0,0:0:0:0:
64,192,98237,1,0,0:0:0:0:
448,192,98337,1,0,0:0:0:0:
192,192,98337,1,0,0:0:0:0:
320,192,98437,1,4,2:0:0:0:
64,192,98437,1,0,0:0:0:0:
192,192,98537,1,0,0:0:0:0:
64,192,98537,1,0,0:0:0:0:
320,192,98637,1,0,0:0:0:0:
448,192,98637,1,0,0:0:0:0:
448,192,98737,1,0,0:0:0:0:
64,192,98737,1,0,0:0:0:0:
192,192,98737,1,0,0:0:0:0:
192,192,98837,1,0,0:0:0:0:
320,192,98837,1,0,0:0:0:0:
320,192,98937,1,0,0:0:0:0:
448,192,98937,1,0,0:0:0:0:
448,192,99037,1,0,0:0:0:0:
64,192,99037,1,0,0:0:0:0:
192,192,99037,1,6,2:0:0:0:
64,192,99337,1,0,0:0:0:0:
192,192,99337,1,0,0:0:0:0:
320,192,99337,1,0,0:0:0:60:short.wav
320,192,99562,1,0,0:0:0:0:
448,192,99562,1,0,0:0:0:0:
320,192,99637,128,0,99712:0:0:0:0:
448,192,99637,128,0,99712:0:0:0:0:
64,192,99787,1,0,0:0:0:0:
192,192,99787,1,0,0:0:0:0:
64,192,99937,1,0,0:0:0:0:
448,192,99937,1,0,0:0:0:0:
320,192,99937,1,0,0:0:0:60:short.wav
64,192,100162,1,0,0:0:0:0:
192,192,100162,1,0,0:0:0:0:
64,192,100237,128,0,100312:0:0:0:0:
192,192,100237,128,0,100312:0:0:0:0:
320,192,100387,1,0,0:0:0:0:
448,192,100387,1,0,0:0:0:0:
192,192,100537,1,0,0:0:0:60:short.wav
64,192,100537,1,0,0:0:0:0:
448,192,100537,1,0,0:0:0:0:
320,192,100762,1,0,0:0:0:0:
192,192,100837,1,0,0:0:0:0:
448,192,100987,1,0,0:0:0:0:
64,192,100987,1,0,0:0:0:0:
192,192,101062,1,0,0:0:0:0:
320,192,101137,1,0,0:0:0:60:short.wav
448,192,101137,1,0,0:0:0:0:
64,192,101137,128,0,101212:0:0:0:0:
192,192,101212,128,0,101287:0:0:0:0:
320,192,101287,128,0,101362:0:0:0:0:
448,192,101362,128,0,101437:0:0:0:0:
192,192,101437,1,2,2:0:0:0:
64,192,101437,1,0,0:0:0:0:
64,192,101737,1,0,0:0:0:0:
320,192,101737,1,0,0:0:0:60:short.wav
448,192,101737,1,0,0:0:0:0:
192,192,102037,1,0,0:0:0:0:
64,192,102187,1,0,0:0:0:0:
448,192,102187,1,0,0:0:0:0:
320,192,102337,1,0,0:0:0:0:
192,192,102337,1,0,0:0:0:60:short.wav
64,192,102337,1,0,0:0:0:0:
448,192,102637,1,0,0:0:0:0:
320,192,102637,1,0,0:0:0:0:
64,192,102937,1,0,0:0:0:0:
192,192,102937,1,0,0:0:0:60:short.wav
448,192,102937,1,0,0:0:0:0:
320,192,103087,1,0,0:0:0:0:
448,192,103087,1,0,0:0:0:0:
64,192,103387,1,0,0:0:0:60:short.wav
448,192,103387,1,0,0:0:0:0:
320,192,103462,1,0,0:0:0:0:
192,192,103537,1,0,0:0:0:0:
320,192,103612,1,0,0:0:0:0:
192,192,103687,1,0,0:0:0:0:
320,192,103762,1,0,0:0:0:0:
448,192,103837,128,0,104362:0:0:0:0:
64,192,103837,128,6,104362:2:0:0:0:
192,192,103837,1,0,0:0:0:0:
320,192,104137,1,0,0:0:0:0:
192,192,104287,1,0,0:0:0:0:
320,192,104362,1,0,0:0:0:0:
448,192,104437,128,0,104962:0:0:0:0:
64,192,104437,128,2,106162:2:0:0:0:
192,192,104737,1,0,0:0:0:0:
320,192,105037,1,0,0:0:0:0:
448,192,105037,128,2,105262:2:0:0:0:
192,192,105187,1,0,0:0:0:0:
320,192,105337,1,0,0:0:0:0:
448,192,105337,128,2,105562:2:0:0:0:
448,192,105637,128,2,105862:2:0:0:0:
320,192,105637,1,0,0:0:0:0:
192,192,105787,1,0,0:0:0:0:
320,192,105937,1,0,0:0:0:0:
448,192,105937,128,2,106162:2:0:0:0:
192,192,106087,1,0,0:0:0:0:
320,192,106162,1,0,0:0:0:0:
448,192,106237,128,2,108487:2:0:0:0:
64,192,106237,128,0,108487:0:0:0:0:
320,192,107437,128,6,108487:2:0:0:0:
192,192,107437,128,0,108487:0:0:0:0:
64,192,108637,1,0,0:0:0:0:
192,192,108637,1,0,0:0:0:0:
320,192,108637,1,4,2:0:0:0:
448,192,108637,1,0,0:0:0:0:
320,192,108787,1,0,0:0:0:0:
192,192,108937,1,0,0:0:0:0:
64,192,109087,128,0,109162:0:0:0:0:
320,192,109237,128,0,109312:0:0:0:0:
448,192,109237,128,0,109312:0:0:0:0:
192,192,109387,1,0,0:0:0:0:
320,192,109537,1,0,0:0:0:0:
448,192,109687,1,0,0:0:0:0:
192,192,109837,1,2,2:0:0:0:
64,192,109837,1,0,0:0:0:0:
448,192,109987,1,0,0:0:0:0:
320,192,110137,1,0,0:0:0:0:
192,192,110287,1,0,0:0:0:0:
448,192,110362,1,0,0:0:0:0:
64,192,110437,128,0,110587:0:0:0:0:
320,192,110437,128,0,110587:0:0:0:0:
448,192,110587,1,0,0:0:0:0:
192,192,110737,1,0,0:0:0:0:
192,192,110887,1,0,0:0:0:0:
64,192,111037,1,0,0:0:0:0:
320,192,111037,1,2,2:0:0:0:
448,192,111187,1,0,0:0:0:0:
320,192,111337,1,0,0:0:0:0:
192,192,111487,128,0,111562:0:0:0:0:
64,192,111637,128,0,111712:0:0:0:0:
448,192,111637,128,0,111712:0:0:0:0:
320,192,111787,1,0,0:0:0:0:
192,192,111937,1,0,0:0:0:0:
64,192,112087,1,0,0:0:0:0:
320,192,112237,1,2,2:0:0:0:
448,192,112237,1,0,0:0:0:0:
320,192,112387,1,0,0:0:0:0:
448,192,112387,1,0,0:0:0:0:
64,192,112537,1,0,0:0:0:0:
192,192,112687,1,0,0:0:0:0:
320,192,112762,1,0,0:0:0:0:
64,192,112837,128,0,112987:0:0:0:0:
448,192,112837,128,0,112987:0:0:0:0:
192,192,112987,1,0,0:0:0:0:
320,192,113137,1,0,0:0:0:0:
320,192,113287,1,0,0:0:0:0:
192,192,113437,1,2,2:0:0:0:
448,192,113437,1,0,0:0:0:0:
64,192,113587,1,0,0:0:0:0:
320,192,113737,1,0,0:0:0:0:
448,192,113887,128,0,113962:0:0:0:0:
64,192,114037,128,0,114112:0:0:0:0:
192,192,114037,128,0,114112:0:0:0:0:
320,192,114187,1,0,0:0:0:0:
192,192,114337,1,0,0:0:0:0:
64,192,114487,1,0,0:0:0:0:
320,192,114637,1,0,0:0:0:0:
448,192,114637,1,2,2:0:0:0:
64,192,114787,1,0,0:0:0:0:
192,192,114937,1,0,0:0:0:0:
448,192,115087,1,0,0:0:0:0:
192,192,115162,1,0,0:0:0:0:
64,192,115237,128,0,115387:0:0:0:0:
320,192,115237,128,0,115387:0:0:0:0:
448,192,115387,1,0,0:0:0:0:
320,192,115537,1,0,0:0:0:0:
320,192,115687,1,0,0:0:0:0:
64,192,115837,1,2,2:0:0:0:
192,192,115837,1,0,0:0:0:0:
448,192,115987,1,0,0:0:0:0:
320,192,116137,1,0,0:0:0:0:
64,192,116287,128,0,116362:0:0:0:0:
192,192,116437,128,0,116512:0:0:0:0:
448,192,116437,128,0,116512:0:0:0:0:
320,192,116587,1,0,0:0:0:0:
448,192,116737,1,0,0:0:0:0:
64,192,116887,1,0,0:0:0:0:
192,192,117037,1,2,2:0:0:0:
320,192,117037,1,0,0:0:0:0:
192,192,117187,1,0,0:0:0:0:
320,192,117187,1,0,0:0:0:0:
448,192,117337,1,0,0:0:0:0:
64,192,117487,1,0,0:0:0:0:
192,192,117562,1,0,0:0:0:0:
320,192,117637,128,0,117787:0:0:0:0:
448,192,117637,128,0,117787:0:0:0:0:
64,192,117787,1,0,0:0:0:0:
192,192,117937,1,0,0:0:0:0:
192,192,118087,1,0,0:0:0:0:
64,192,118237,1,0,0:0:0:0:
448,192,118237,1,2,2:0:0:0:
320,192,118387,1,0,0:0:0:0:
192,192,118537,1,0,0:0:0:0:
64,192,118687,128,0,118762:0:0:0:0:
192,192,118837,128,0,118912:0:0:0:0:
448,192,118837,128,0,118912:0:0:0:0:
320,192,118987,1,0,0:0:0:0:
192,192,119137,1,0,0:0:0:0:
320,192,119287,1,0,0:0:0:0:
448,192,119437,1,0,0:0:0:0:
64,192,119437,1,2,2:0:0:0:
192,192,119587,1,0,0:0:0:0:
320,192,119737,1,0,0:0:0:0:
448,192,119887,1,0,0:0:0:0:
64,192,119962,1,0,0:0:0:0:
320,192,120037,128,0,120187:0:0:0:0:
192,192,120037,128,0,120187:0:0:0:0:
448,192,120187,1,0,0:0:0:0:
64,192,120337,1,0,0:0:0:0:
64,192,120487,1,0,0:0:0:0:
320,192,120637,1,0,0:0:0:0:
448,192,120637,1,2,2:0:0:0:
192,192,120787,1,0,0:0:0:0:
320,192,120937,1,0,0:0:0:0:
448,192,121087,128,0,121162:0:0:0:0:
64,192,121237,128,0,121312:0:0:0:0:
192,192,121237,128,0,121312:0:0:0:0:
320,192,121387,1,0,0:0:0:0:
448,192,121537,1,0,0:0:0:0:
192,192,121687,1,0,0:0:0:0:
64,192,121837,1,2,2:0:0:0:
448,192,121837,1,0,0:0:0:0:
448,192,121987,1,0,0:0:0:0:
64,192,121987,1,0,0:0:0:0:
320,192,122137,1,0,0:0:0:0:
192,192,122287,1,0,0:0:0:0:
64,192,122362,1,0,0:0:0:0:
320,192,122437,128,0,122587:0:0:0:0:
448,192,122437,128,0,122587:0:0:0:0:
64,192,122587,1,0,0:0:0:0:
192,192,122737,1,0,0:0:0:0:
192,192,122887,1,0,0:0:0:0:
448,192,123037,1,2,2:0:0:0:
64,192,123037,1,0,0:0:0:0:
320,192,123187,1,0,0:0:0:0:
192,192,123337,1,0,0:0:0:0:
64,192,123487,128,0,123562:0:0:0:0:
320,192,123637,128,0,123712:0:0:0:0:
448,192,123637,128,0,123712:0:0:0:0:
192,192,123787,1,0,0:0:0:0:
320,192,123937,1,0,0:0:0:0:
448,192,124087,1,0,0:0:0:0:
64,192,124237,1,2,2:0:0:0:
192,192,124237,1,0,0:0:0:0:
320,192,124387,1,0,0:0:0:0:
448,192,124537,1,0,0:0:0:0:
192,192,124687,1,0,0:0:0:0:
320,192,124762,1,0,0:0:0:0:
64,192,124837,128,0,124987:0:0:0:0:
448,192,124837,128,0,124987:0:0:0:0:
192,192,124987,1,0,0:0:0:0:
320,192,125137,1,0,0:0:0:0:
320,192,125287,1,0,0:0:0:0:
192,192,125437,1,0,0:0:0:0:
64,192,125437,1,2,2:0:0:0:
448,192,125587,1,0,0:0:0:0:
320,192,125737,1,0,0:0:0:0:
192,192,125887,128,0,125962:0:0:0:0:
64,192,126037,128,0,126112:0:0:0:0:
320,192,126037,128,0,126112:0:0:0:0:
448,192,126187,1,0,0:0:0:0:
64,192,126337,1,0,0:0:0:0:
192,192,126487,1,0,0:0:0:0:
320,192,126637,1,2,2:0:0:0:
448,192,126637,1,0,0:0:0:0:
320,192,126787,1,0,0:0:0:0:
448,192,126787,1,0,0:0:0:0:
192,192,126937,1,0,0:0:0:0:
64,192,127087,1,0,0:0:0:0:
448,192,127162,1,0,0:0:0:0:
192,192,127237,128,0,127387:0:0:0:0:
320,192,127237,128,0,127387:0:0:0:0:
64,192,127387,1,0,0:0:0:0:
448,192,127537,1,0,0:0:0:0:
448,192,127612,1,0,0:0:0:0:
64,192,127687,1,0,0:0:0:0:
64,192,127762,1,0,0:0:0:0:
448,192,127837,128,0,134737:0:0:0:0:
320,192,127837,128,0,134737:0:0:0:0:
192,192,127837,128,0,134737:0:0:0:0:
