osu file format v14

[General]
AudioFilename: audio.mp3
AudioLeadIn: 0
PreviewTime: 91335
Countdown: 0
SampleSet: Normal
StackLeniency: 0.7
Mode: 1
LetterboxInBreaks: 0
WidescreenStoryboard: 1

[Editor]
DistanceSpacing: 0.2
BeatDivisor: 4
GridSize: 32
TimelineZoom: 1.3

[Metadata]
Title:Shounen wa Sora o Tadoru
TitleUnicode:少年は空を辿る
Artist:Power Of Nature
ArtistUnicode:Power Of Nature
Creator:TaikOseania
Version:Muzukashii
Source:pop'n music 20 fantasia
Tags:mtntwarz maimaing ムラクモ MURAKUMO ポップンミュージック poppun popn music PON 渡辺大地 daichi watanabe beatmania IIDX 22 PENDUAL jubeat saucer REFLEC BEAT colette -Summer- bemani konami electronic instrumental video game
BeatmapID:3245244
BeatmapSetID:1588080

[Difficulty]
HPDrainRate:5
CircleSize:5
OverallDifficulty:5
ApproachRate:5
SliderMultiplier:1.4
SliderTickRate:1

[Events]
//Background and Video events
0,0,"kaneki lol.jpg",0,80
//Break Periods
//Storyboard Layer 0 (Background)
//Storyboard Layer 1 (Fail)
//Storyboard Layer 2 (Pass)
//Storyboard Layer 3 (Foreground)
//Storyboard Layer 4 (Overlay)
//Storyboard Sound Samples

[TimingPoints]
274,428.571428571429,4,1,0,60,1,0
274,-100,4,1,0,60,0,0
8845,428.571428571429,8,1,0,70,1,0
8845,-100,8,1,0,70,0,0
12273,428.571428571429,4,1,0,75,1,0
12273,-100,4,1,0,75,0,0
13773,428.571428571429,4,1,0,75,1,0
13773,-100,4,1,0,75,0,8
15273,428.571428571429,4,1,0,75,1,0
15273,-100,4,1,0,75,0,0
15701,-100,4,1,0,60,0,0
20415,428.571428571429,4,1,0,60,1,8
20843,428.571428571429,7,1,0,55,1,0
20843,-100,7,1,0,55,0,8
23843,428.571428571429,4,1,0,55,1,0
23843,-100,4,1,0,55,0,0
25557,428.571428571429,5,1,0,55,1,0
25557,-100,5,1,0,55,0,0
27485,428.571428571429,7,1,0,60,1,0
27485,-100,7,1,0,60,0,0
30485,428.571428571429,4,1,0,60,1,0
30485,-100,4,1,0,60,0,0
32199,428.571428571429,5,1,0,60,1,0
32199,-100,5,1,0,60,0,0
34127,428.571428571429,4,1,0,75,1,0
34127,-100,4,1,0,75,0,0
37555,428.571428571429,7,1,0,60,1,0
37555,-100,7,1,0,60,0,0
40555,-100,7,1,0,60,0,0
43555,428.571428571429,7,1,0,70,1,0
43555,-100,7,1,0,70,0,0
46555,428.571428571429,8,1,0,70,1,0
46555,-100,7,1,0,70,0,0
49769,428.571428571429,6,1,0,75,1,0
49769,-100,6,1,0,75,0,0
52340,428.571428571429,4,1,0,60,1,0
52340,-100,4,1,0,60,0,0
57482,428.571428571429,4,1,0,70,1,0
57482,-100,4,1,0,70,0,0
64339,-100,4,1,0,55,0,0
66053,428.571428571429,4,1,0,70,1,0
66053,-100,4,1,0,70,0,0
71195,428.571428571429,5,1,0,75,1,0
71195,-100,5,1,0,75,0,0
72695,428.571428571429,4,1,0,75,1,0
72695,-100,4,1,0,75,0,0
74195,428.571428571429,4,1,0,75,1,0
74195,-100,4,1,0,75,0,0
77623,-100,4,1,0,60,0,0
84480,-100,4,1,0,80,0,0
91337,428.571428571429,4,1,0,100,1,0
91337,-76.9230769230769,4,1,0,100,0,0
103336,-76.9230769230769,4,1,0,100,0,0
103337,-76.9230769230769,4,1,0,100,0,1
103551,-83.3333333333333,4,1,0,100,0,1
117051,-83.3333333333333,4,1,0,100,0,0
117372,-100,4,1,0,50,0,0
123908,-100,4,1,0,50,0,0

[HitObjects]
256,192,274,5,0,0:0:0:0:
256,192,488,1,0,0:0:0:0:
256,192,702,1,8,0:0:0:0:
256,192,809,1,8,0:0:0:0:
256,192,916,1,8,0:0:0:0:
256,192,1131,1,0,0:0:0:0:
256,192,1559,1,8,0:0:0:0:
256,192,1774,1,0,0:0:0:0:
256,192,1988,1,8,0:0:0:0:
256,192,2202,1,0,0:0:0:0:
256,192,2416,1,8,0:0:0:0:
256,192,2524,1,8,0:0:0:0:
256,192,2631,1,8,0:0:0:0:
256,192,2845,1,0,0:0:0:0:
256,192,3274,1,8,0:0:0:0:
256,192,3381,1,8,0:0:0:0:
256,192,3488,1,8,0:0:0:0:
256,192,3702,1,0,0:0:0:0:
256,192,3809,1,0,0:0:0:0:
256,192,4024,1,8,0:0:0:0:
256,192,4131,1,8,0:0:0:0:
256,192,4666,1,0,0:0:0:0:
256,192,4881,1,8,0:0:0:0:
256,192,4988,1,8,0:0:0:0:
256,192,5202,1,0,0:0:0:0:
256,192,5416,1,0,0:0:0:0:
256,192,5524,1,0,0:0:0:0:
256,192,5738,1,8,0:0:0:0:
256,192,5845,1,8,0:0:0:0:
256,192,6381,1,0,0:0:0:0:
256,192,6595,1,8,0:0:0:0:
256,192,6702,1,8,0:0:0:0:
256,192,6916,1,0,0:0:0:0:
256,192,7131,1,0,0:0:0:0:
256,192,7238,1,0,0:0:0:0:
256,192,7452,1,8,0:0:0:0:
256,192,7559,1,8,0:0:0:0:
256,192,8095,1,0,0:0:0:0:
256,192,8309,1,8,0:0:0:0:
256,192,8416,1,8,0:0:0:0:
256,192,8631,1,0,0:0:0:0:
256,192,8845,1,8,0:0:0:0:
256,192,9487,1,8,0:0:0:0:
256,192,10023,1,8,0:0:0:0:
256,192,10666,1,8,0:0:0:0:
256,192,11095,1,8,0:0:0:0:
256,192,11737,1,8,0:0:0:0:
256,192,12273,1,4,0:0:0:0:
256,192,12487,1,8,0:0:0:0:
256,192,12808,1,8,0:0:0:0:
256,192,13023,1,8,0:0:0:0:
256,192,13237,1,8,0:0:0:0:
256,192,13344,1,0,0:0:0:0:
256,192,13558,1,0,0:0:0:0:
256,192,13773,1,12,0:0:0:0:
256,192,13987,1,8,0:0:0:0:
256,192,14308,1,8,0:0:0:0:
256,192,14523,1,8,0:0:0:0:
256,192,14737,1,8,0:0:0:0:
256,192,14844,1,0,0:0:0:0:
256,192,15058,1,8,0:0:0:0:
256,192,15273,1,4,0:0:0:0:
256,192,16987,1,8,0:0:0:0:
256,192,17415,1,8,0:0:0:0:
256,192,17630,1,0,0:0:0:0:
256,192,17737,1,0,0:0:0:0:
256,192,17844,1,0,0:0:0:0:
256,192,18058,1,0,0:0:0:0:
256,192,18273,1,8,0:0:0:0:
256,192,18380,1,8,0:0:0:0:
256,192,18487,1,8,0:0:0:0:
256,192,18701,1,12,0:0:0:0:
256,192,19130,1,8,0:0:0:0:
256,192,19344,1,0,0:0:0:0:
256,192,19558,1,8,0:0:0:0:
256,192,19773,1,0,0:0:0:0:
256,192,19880,1,0,0:0:0:0:
256,192,19987,1,0,0:0:0:0:
256,192,20201,1,0,0:0:0:0:
256,192,20415,1,12,0:0:0:0:
256,192,20843,1,8,0:0:0:0:
256,192,21057,1,0,0:0:0:0:
256,192,21378,1,0,0:0:0:0:
256,192,21700,1,8,0:0:0:0:
256,192,21914,1,0,0:0:0:0:
256,192,22128,1,0,0:0:0:0:
256,192,22235,1,0,0:0:0:0:
256,192,22343,1,0,0:0:0:0:
256,192,22557,1,8,0:0:0:0:
256,192,22771,1,0,0:0:0:0:
256,192,23093,1,0,0:0:0:0:
256,192,23414,1,8,0:0:0:0:
256,192,23843,1,0,0:0:0:0:
256,192,24057,1,0,0:0:0:0:
256,192,24271,1,8,0:0:0:0:
256,192,24485,1,0,0:0:0:0:
256,192,24593,1,8,0:0:0:0:
256,192,24807,1,8,0:0:0:0:
256,192,25021,1,0,0:0:0:0:
256,192,25235,1,8,0:0:0:0:
256,192,25557,1,0,0:0:0:0:
256,192,25771,1,0,0:0:0:0:
256,192,25985,1,8,0:0:0:0:
256,192,26199,1,0,0:0:0:0:
256,192,26307,1,8,0:0:0:0:
256,192,26628,1,0,0:0:0:0:
256,192,26842,1,8,0:0:0:0:
256,192,27485,1,8,0:0:0:0:
256,192,27699,1,0,0:0:0:0:
256,192,28020,1,0,0:0:0:0:
256,192,28342,1,8,0:0:0:0:
256,192,28556,1,0,0:0:0:0:
256,192,28770,1,0,0:0:0:0:
256,192,28877,1,0,0:0:0:0:
256,192,28985,1,0,0:0:0:0:
256,192,29199,1,8,0:0:0:0:
256,192,29413,1,0,0:0:0:0:
256,192,29735,1,0,0:0:0:0:
256,192,30056,1,8,0:0:0:0:
256,192,30485,1,0,0:0:0:0:
256,192,30699,1,0,0:0:0:0:
256,192,30913,1,8,0:0:0:0:
256,192,31127,1,0,0:0:0:0:
256,192,31235,1,8,0:0:0:0:
256,192,31449,1,8,0:0:0:0:
256,192,31663,1,0,0:0:0:0:
256,192,31877,1,8,0:0:0:0:
256,192,32199,1,0,0:0:0:0:
256,192,32413,1,0,0:0:0:0:
256,192,32627,1,8,0:0:0:0:
256,192,32841,1,0,0:0:0:0:
256,192,32949,1,8,0:0:0:0:
256,192,33270,1,8,0:0:0:0:
256,192,33484,1,0,0:0:0:0:
256,192,34127,1,8,0:0:0:0:
256,192,34341,1,8,0:0:0:0:
256,192,34662,1,8,0:0:0:0:
256,192,34877,1,8,0:0:0:0:
256,192,35091,1,0,0:0:0:0:
256,192,35412,1,8,0:0:0:0:
256,192,35627,1,8,0:0:0:0:
256,192,35734,1,8,0:0:0:0:
256,192,35841,1,8,0:0:0:0:
256,192,36055,1,0,0:0:0:0:
256,192,36377,1,0,0:0:0:0:
256,192,36591,1,0,0:0:0:0:
256,192,36912,1,8,0:0:0:0:
256,192,37127,1,0,0:0:0:0:
256,192,37555,1,4,0:0:0:0:
256,192,37769,1,8,0:0:0:0:
256,192,37983,1,0,0:0:0:0:
256,192,38197,1,0,0:0:0:0:
256,192,38305,1,0,0:0:0:0:
256,192,38519,1,8,0:0:0:0:
256,192,38840,1,0,0:0:0:0:
256,192,39055,1,8,0:0:0:0:
256,192,39162,1,0,0:0:0:0:
256,192,39376,1,8,0:0:0:0:
256,192,39590,1,0,0:0:0:0:
256,192,39697,1,8,0:0:0:0:
256,192,39912,1,0,0:0:0:0:
256,192,40126,1,8,0:0:0:0:
256,192,40233,1,8,0:0:0:0:
256,192,40340,1,8,0:0:0:0:
256,192,40555,1,0,0:0:0:0:
256,192,40769,1,8,0:0:0:0:
256,192,40983,1,0,0:0:0:0:
256,192,41197,1,0,0:0:0:0:
256,192,41305,1,0,0:0:0:0:
256,192,41519,1,8,0:0:0:0:
256,192,41840,1,0,0:0:0:0:
256,192,42055,1,8,0:0:0:0:
256,192,42162,1,0,0:0:0:0:
256,192,42376,1,8,0:0:0:0:
256,192,42590,1,0,0:0:0:0:
256,192,42697,1,8,0:0:0:0:
256,192,42912,1,0,0:0:0:0:
256,192,43126,1,0,0:0:0:0:
256,192,43233,1,0,0:0:0:0:
256,192,43340,1,0,0:0:0:0:
256,192,43555,1,12,0:0:0:0:
256,192,43983,1,8,0:0:0:0:
256,192,44305,1,4,0:0:0:0:
256,192,44626,1,0,0:0:0:0:
256,192,44840,1,0,0:0:0:0:
256,192,45055,1,8,0:0:0:0:
256,192,45162,1,8,0:0:0:0:
256,192,45269,1,8,0:0:0:0:
256,192,45483,1,0,0:0:0:0:
256,192,45805,1,4,0:0:0:0:
256,192,46340,1,0,0:0:0:0:
256,192,46555,1,12,0:0:0:0:
256,192,46983,1,8,0:0:0:0:
256,192,47305,1,4,0:0:0:0:
256,192,47626,1,8,0:0:0:0:
256,192,47840,1,0,0:0:0:0:
256,192,48055,1,8,0:0:0:0:
256,192,48162,1,8,0:0:0:0:
256,192,48269,1,8,0:0:0:0:
256,192,48483,1,0,0:0:0:0:
256,192,48805,1,4,0:0:0:0:
256,192,49126,1,8,0:0:0:0:
256,192,49769,1,8,0:0:0:0:
256,192,49983,1,0,0:0:0:0:
256,192,50197,1,8,0:0:0:0:
256,192,50411,1,0,0:0:0:0:
256,192,50626,1,8,0:0:0:0:
256,192,50840,1,8,0:0:0:0:
256,192,51054,1,0,0:0:0:0:
256,192,51483,1,8,0:0:0:0:
256,192,51697,1,8,0:0:0:0:
256,192,51911,1,8,0:0:0:0:
256,192,52340,1,4,0:0:0:0:
256,192,54054,1,0,0:0:0:0:
256,192,54375,1,8,0:0:0:0:
256,192,54482,1,8,0:0:0:0:
256,192,54697,1,0,0:0:0:0:
256,192,54911,1,8,0:0:0:0:
256,192,55125,1,8,0:0:0:0:
256,192,55340,1,0,0:0:0:0:
256,192,55447,1,0,0:0:0:0:
256,192,55554,1,0,0:0:0:0:
256,192,55768,1,8,0:0:0:0:
256,192,55875,1,0,0:0:0:0:
256,192,56090,1,0,0:0:0:0:
256,192,56197,1,8,0:0:0:0:
256,192,56411,1,8,0:0:0:0:
256,192,56840,1,0,0:0:0:0:
256,192,56982,1,0,0:0:0:0:
256,192,57125,1,0,0:0:0:0:
256,192,57482,5,4,0:0:0:0:
256,192,57910,1,0,0:0:0:0:
256,192,58124,1,8,0:0:0:0:
256,192,58446,1,0,0:0:0:0:
256,192,58553,1,0,0:0:0:0:
256,192,58767,1,8,0:0:0:0:
256,192,58874,1,8,0:0:0:0:
256,192,58982,1,8,0:0:0:0:
256,192,59303,1,8,0:0:0:0:
256,192,59410,1,8,0:0:0:0:
256,192,59624,1,0,0:0:0:0:
256,192,59732,1,0,0:0:0:0:
256,192,59839,1,0,0:0:0:0:
256,192,60267,1,8,0:0:0:0:
256,192,60410,1,8,0:0:0:0:
256,192,60553,1,8,0:0:0:0:
256,192,60910,1,0,0:0:0:0:
256,192,61339,1,0,0:0:0:0:
256,192,61553,1,8,0:0:0:0:
256,192,61874,1,0,0:0:0:0:
256,192,61982,1,0,0:0:0:0:
256,192,62196,1,8,0:0:0:0:
256,192,62303,1,8,0:0:0:0:
256,192,62410,1,8,0:0:0:0:
256,192,62732,1,8,0:0:0:0:
256,192,62839,1,8,0:0:0:0:
256,192,63053,1,0,0:0:0:0:
256,192,63160,1,0,0:0:0:0:
256,192,63267,1,0,0:0:0:0:
256,192,63696,1,8,0:0:0:0:
256,192,63839,1,8,0:0:0:0:
256,192,63982,1,8,0:0:0:0:
256,192,64339,1,0,0:0:0:0:
256,192,65624,1,8,0:0:0:0:
256,192,65732,1,8,0:0:0:0:
256,192,65839,1,8,0:0:0:0:
256,192,66053,1,4,0:0:0:0:
256,192,66481,1,8,0:0:0:0:
256,192,66695,1,0,0:0:0:0:
256,192,67124,1,8,0:0:0:0:
256,192,67267,1,8,0:0:0:0:
256,192,67410,1,8,0:0:0:0:
256,192,67767,1,0,0:0:0:0:
256,192,68195,1,0,0:0:0:0:
256,192,68410,1,8,0:0:0:0:
256,192,68731,1,0,0:0:0:0:
256,192,68838,1,0,0:0:0:0:
256,192,69053,1,8,0:0:0:0:
256,192,69160,1,8,0:0:0:0:
256,192,69267,1,8,0:0:0:0:
256,192,69588,1,8,0:0:0:0:
256,192,69695,1,8,0:0:0:0:
256,192,69910,1,0,0:0:0:0:
256,192,70017,1,0,0:0:0:0:
256,192,70124,1,0,0:0:0:0:
256,192,70553,1,8,0:0:0:0:
256,192,70695,1,8,0:0:0:0:
256,192,70838,1,8,0:0:0:0:
256,192,71195,1,4,0:0:0:0:
256,192,71409,1,8,0:0:0:0:
256,192,71730,1,8,0:0:0:0:
256,192,71945,1,8,0:0:0:0:
256,192,72159,1,8,0:0:0:0:
256,192,72266,1,0,0:0:0:0:
256,192,72480,1,0,0:0:0:0:
256,192,72695,1,12,0:0:0:0:
256,192,72909,1,8,0:0:0:0:
256,192,73230,1,8,0:0:0:0:
256,192,73445,1,8,0:0:0:0:
256,192,73659,1,8,0:0:0:0:
256,192,73766,1,0,0:0:0:0:
256,192,73980,1,8,0:0:0:0:
256,192,74195,1,4,0:0:0:0:
256,192,75909,1,8,0:0:0:0:
256,192,77623,1,4,0:0:0:0:
256,192,77837,1,8,0:0:0:0:
256,192,78052,1,0,0:0:0:0:
256,192,78480,1,8,0:0:0:0:
256,192,78909,1,8,0:0:0:0:
256,192,79123,1,8,0:0:0:0:
256,192,79337,1,0,0:0:0:0:
256,192,79766,1,8,0:0:0:0:
256,192,80195,1,0,0:0:0:0:
256,192,80409,1,8,0:0:0:0:
256,192,80623,1,0,0:0:0:0:
256,192,81052,1,8,0:0:0:0:
256,192,81480,1,0,0:0:0:0:
256,192,81909,1,0,0:0:0:0:
256,192,82123,1,8,0:0:0:0:
256,192,82337,1,0,0:0:0:0:
256,192,82766,1,0,0:0:0:0:
256,192,83195,1,8,0:0:0:0:
256,192,83623,1,0,0:0:0:0:
256,192,84480,1,12,0:0:0:0:
256,192,84802,1,8,0:0:0:0:
256,192,84909,1,8,0:0:0:0:
256,192,85445,1,0,0:0:0:0:
256,192,85659,1,8,0:0:0:0:
256,192,85766,1,8,0:0:0:0:
256,192,85980,1,0,0:0:0:0:
256,192,86195,1,0,0:0:0:0:
256,192,86302,1,0,0:0:0:0:
256,192,86516,1,8,0:0:0:0:
256,192,86623,1,8,0:0:0:0:
256,192,87159,1,0,0:0:0:0:
256,192,87373,1,8,0:0:0:0:
256,192,87480,1,8,0:0:0:0:
256,192,87695,1,0,0:0:0:0:
256,192,87909,1,0,0:0:0:0:
256,192,88016,1,0,0:0:0:0:
256,192,88230,1,8,0:0:0:0:
256,192,88337,1,8,0:0:0:0:
256,192,88873,1,0,0:0:0:0:
256,192,89087,1,8,0:0:0:0:
256,192,89195,1,8,0:0:0:0:
256,192,89409,1,0,0:0:0:0:
256,192,89516,1,0,0:0:0:0:
256,192,89623,1,0,0:0:0:0:
256,192,90052,1,8,0:0:0:0:
256,192,90480,1,0,0:0:0:0:
256,192,90623,1,0,0:0:0:0:
256,192,90766,1,0,0:0:0:0:
256,192,90909,1,0,0:0:0:0:
256,192,91337,1,8,0:0:0:0:
256,192,91622,1,0,0:0:0:0:
256,192,91765,1,0,0:0:0:0:
256,192,91908,1,8,0:0:0:0:
256,192,92051,1,0,0:0:0:0:
256,192,92194,1,8,0:0:0:0:
256,192,92479,1,0,0:0:0:0:
256,192,92765,1,8,0:0:0:0:
256,192,93051,1,0,0:0:0:0:
256,192,93337,1,8,0:0:0:0:
256,192,93479,1,0,0:0:0:0:
256,192,93622,1,8,0:0:0:0:
256,192,93765,1,8,0:0:0:0:
256,192,93908,1,0,0:0:0:0:
256,192,94479,1,0,0:0:0:0:
256,192,94765,1,8,0:0:0:0:
256,192,95051,1,0,0:0:0:0:
256,192,95194,1,0,0:0:0:0:
256,192,95337,1,8,0:0:0:0:
256,192,95479,1,0,0:0:0:0:
256,192,95622,1,8,0:0:0:0:
256,192,95908,1,0,0:0:0:0:
256,192,96194,1,8,0:0:0:0:
256,192,96479,1,0,0:0:0:0:
256,192,96765,1,8,0:0:0:0:
256,192,96908,1,0,0:0:0:0:
256,192,97051,1,8,0:0:0:0:
256,192,97194,1,8,0:0:0:0:
256,192,97337,1,0,0:0:0:0:
256,192,97908,1,0,0:0:0:0:
256,192,98194,1,8,0:0:0:0:
256,192,98479,1,0,0:0:0:0:
256,192,98622,1,0,0:0:0:0:
256,192,98765,1,8,0:0:0:0:
256,192,98908,1,0,0:0:0:0:
256,192,99051,1,8,0:0:0:0:
256,192,99337,1,0,0:0:0:0:
256,192,99622,1,0,0:0:0:0:
256,192,99765,1,0,0:0:0:0:
256,192,99908,1,8,0:0:0:0:
256,192,100194,1,0,0:0:0:0:
256,192,100337,1,0,0:0:0:0:
256,192,100479,1,8,0:0:0:0:
256,192,100622,1,8,0:0:0:0:
256,192,100765,1,0,0:0:0:0:
256,192,101051,1,0,0:0:0:0:
256,192,101337,1,0,0:0:0:0:
256,192,101479,1,0,0:0:0:0:
256,192,101622,1,8,0:0:0:0:
256,192,101908,1,0,0:0:0:0:
256,192,102051,1,0,0:0:0:0:
256,192,102194,1,8,0:0:0:0:
256,192,102337,1,0,0:0:0:0:
256,192,102479,1,8,0:0:0:0:
256,192,102765,1,8,0:0:0:0:
256,192,102908,1,0,0:0:0:0:
256,192,103051,1,8,0:0:0:0:
256,192,103337,1,12,0:0:0:0:
256,192,103765,1,0,0:0:0:0:
256,192,103979,1,8,0:0:0:0:
256,192,104087,1,8,0:0:0:0:
256,192,104194,1,8,0:0:0:0:
256,192,104408,1,0,0:0:0:0:
256,192,104622,1,8,0:0:0:0:
256,192,105051,1,0,0:0:0:0:
256,192,105265,1,8,0:0:0:0:
256,192,105372,1,8,0:0:0:0:
256,192,105479,1,8,0:0:0:0:
256,192,105694,1,0,0:0:0:0:
256,192,105908,1,8,0:0:0:0:
256,192,106015,1,8,0:0:0:0:
256,192,106122,1,8,0:0:0:0:
256,192,106337,1,0,0:0:0:0:
256,192,106444,1,0,0:0:0:0:
256,192,106551,1,0,0:0:0:0:
256,192,106765,1,12,0:0:0:0:
256,192,107194,1,0,0:0:0:0:
256,192,107408,1,8,0:0:0:0:
256,192,107515,1,8,0:0:0:0:
256,192,107622,1,8,0:0:0:0:
256,192,107837,1,0,0:0:0:0:
256,192,108051,1,8,0:0:0:0:
256,192,108479,1,0,0:0:0:0:
256,192,109337,1,8,0:0:0:0:
256,192,109444,1,8,0:0:0:0:
256,192,109551,1,8,0:0:0:0:
256,192,109765,1,0,0:0:0:0:
256,192,109872,1,0,0:0:0:0:
256,192,109979,1,0,0:0:0:0:
256,192,110194,1,12,0:0:0:0:
256,192,110622,1,0,0:0:0:0:
256,192,110837,1,8,0:0:0:0:
256,192,110944,1,8,0:0:0:0:
256,192,111051,1,8,0:0:0:0:
256,192,111265,1,0,0:0:0:0:
256,192,111479,1,8,0:0:0:0:
256,192,111908,1,0,0:0:0:0:
256,192,112122,1,8,0:0:0:0:
256,192,112229,1,8,0:0:0:0:
256,192,112337,1,8,0:0:0:0:
256,192,112551,1,0,0:0:0:0:
256,192,112765,1,8,0:0:0:0:
256,192,112872,1,8,0:0:0:0:
256,192,112979,1,8,0:0:0:0:
256,192,113194,1,0,0:0:0:0:
256,192,113301,1,0,0:0:0:0:
256,192,113408,1,0,0:0:0:0:
256,192,113622,1,12,0:0:0:0:
256,192,113944,1,8,0:0:0:0:
256,192,114051,1,0,0:0:0:0:
256,192,114265,1,8,0:0:0:0:
256,192,114479,1,0,0:0:0:0:
256,192,114801,1,0,0:0:0:0:
256,192,114908,1,8,0:0:0:0:
256,192,115122,1,0,0:0:0:0:
256,192,115337,1,8,0:0:0:0:
256,192,115658,1,8,0:0:0:0:
256,192,115765,1,0,0:0:0:0:
256,192,115979,1,8,0:0:0:0:
256,192,116194,1,0,0:0:0:0:
256,192,116515,1,0,0:0:0:0:
256,192,116622,1,8,0:0:0:0:
256,192,116837,1,8,0:0:0:0:
256,192,117051,1,4,0:0:0:0:
256,192,118337,1,8,0:0:0:0:
256,192,118551,1,8,0:0:0:0:
256,192,118765,1,0,0:0:0:0:
256,192,119622,1,8,0:0:0:0:
256,192,120479,1,0,0:0:0:0:
256,192,121765,1,8,0:0:0:0:
256,192,122194,1,0,0:0:0:0:
256,192,123051,1,8,0:0:0:0:
256,192,123908,1,0,0:0:0:0:
256,192,125194,1,8,0:0:0:0:
256,192,125622,1,8,0:0:0:0:
256,192,126479,1,0,0:0:0:0:
256,192,127337,1,0,0:0:0:0:
256,192,128622,1,8,0:0:0:0:
256,192,129051,1,8,0:0:0:0:
256,192,129908,1,8,0:0:0:0:
