osu file format v14

[General]
AudioFilename: audio.mp3
AudioLeadIn: 0
PreviewTime: 91335
Countdown: 0
SampleSet: Normal
StackLeniency: 0.7
Mode: 1
LetterboxInBreaks: 0
WidescreenStoryboard: 1

[Editor]
DistanceSpacing: 0.2
BeatDivisor: 12
GridSize: 32
TimelineZoom: 1.3

[Metadata]
Title:Shounen wa Sora o Tadoru
TitleUnicode:少年は空を辿る
Artist:Power Of Nature
ArtistUnicode:Power Of Nature
Creator:TaikOseania
Version:Kantan
Source:pop'n music 20 fantasia
Tags:mtntwarz maimaing ムラクモ MURAKUMO ポップンミュージック poppun popn music PON 渡辺大地 daichi watanabe beatmania IIDX 22 PENDUAL jubeat saucer REFLEC BEAT colette -Summer- bemani konami electronic instrumental video game
BeatmapID:3244697
BeatmapSetID:1588080

[Difficulty]
HPDrainRate:7
CircleSize:5
OverallDifficulty:3
ApproachRate:5
SliderMultiplier:1.4
SliderTickRate:1

[Events]
//Background and Video events
0,0,"kaneki lol.jpg",0,80
//Break Periods
2,52540,56282
//Storyboard Layer 0 (Background)
//Storyboard Layer 1 (Fail)
//Storyboard Layer 2 (Pass)
//Storyboard Layer 3 (Foreground)
//Storyboard Layer 4 (Overlay)
//Storyboard Sound Samples

[TimingPoints]
274,428.571428571429,4,1,0,60,1,0
274,-100,4,1,0,60,0,0
8845,428.571428571429,8,1,0,70,1,0
8845,-100,8,1,0,70,0,0
12273,428.571428571429,4,1,0,75,1,0
12273,-100,4,1,0,75,0,0
13773,428.571428571429,4,1,0,75,1,0
13773,-100,4,1,0,75,0,8
15273,428.571428571429,4,1,0,75,1,0
15273,-100,4,1,0,75,0,0
15701,-100,4,1,0,60,0,0
20415,428.571428571429,4,1,0,60,1,8
20843,428.571428571429,7,1,0,55,1,0
20843,-100,7,1,0,55,0,8
23843,428.571428571429,4,1,0,55,1,0
23843,-100,4,1,0,55,0,0
25557,428.571428571429,5,1,0,55,1,0
25557,-100,5,1,0,55,0,0
27485,428.571428571429,7,1,0,60,1,0
27485,-100,7,1,0,60,0,0
30485,428.571428571429,4,1,0,60,1,0
30485,-100,4,1,0,60,0,0
32199,428.571428571429,5,1,0,60,1,0
32199,-100,5,1,0,60,0,0
34127,428.571428571429,4,1,0,75,1,0
34127,-100,4,1,0,75,0,0
37555,428.571428571429,7,1,0,60,1,0
37555,-100,7,1,0,60,0,0
40555,-100,7,1,0,60,0,0
43555,428.571428571429,7,1,0,70,1,0
43555,-100,7,1,0,70,0,0
46555,428.571428571429,8,1,0,70,1,0
46555,-100,7,1,0,70,0,0
49769,428.571428571429,6,1,0,75,1,0
49769,-100,6,1,0,75,0,0
52340,428.571428571429,4,1,0,60,1,0
52340,-100,4,1,0,60,0,0
57482,428.571428571429,4,1,0,70,1,0
57482,-100,4,1,0,70,0,0
64339,-100,4,1,0,55,0,0
66053,428.571428571429,4,1,0,70,1,0
66053,-100,4,1,0,70,0,0
71195,428.571428571429,5,1,0,75,1,0
71195,-100,5,1,0,75,0,0
72695,428.571428571429,4,1,0,75,1,0
72695,-100,4,1,0,75,0,0
74195,428.571428571429,4,1,0,75,1,0
74195,-100,4,1,0,75,0,0
77623,-100,4,1,0,60,0,0
84480,-100,4,1,0,80,0,0
91337,428.571428571429,4,1,0,100,1,0
91337,-90.9090909090909,4,1,0,100,0,0
103336,-90.9090909090909,4,1,0,100,0,0
103337,-90.9090909090909,4,1,0,100,0,1
103551,-100,4,1,0,100,0,1
117051,-100,4,1,0,100,0,0
117372,-100,4,1,0,50,0,0
123908,-100,4,1,0,50,0,0

[HitObjects]
256,192,274,5,0,0:0:0:0:
256,192,702,1,8,0:0:0:0:
256,192,1131,1,0,0:0:0:0:
256,192,1988,1,8,0:0:0:0:
256,192,2416,1,0,0:0:0:0:
256,192,2845,1,8,0:0:0:0:
256,192,3702,1,0,0:0:0:0:
256,192,4131,1,8,0:0:0:0:
256,192,4988,1,8,0:0:0:0:
256,192,5416,1,0,0:0:0:0:
256,192,5845,1,8,0:0:0:0:
256,192,6702,1,8,0:0:0:0:
256,192,7131,1,0,0:0:0:0:
256,192,7559,1,8,0:0:0:0:
256,192,8416,1,0,0:0:0:0:
256,192,8845,1,8,0:0:0:0:
256,192,12273,1,4,0:0:0:0:
256,192,12808,1,8,0:0:0:0:
256,192,13237,1,8,0:0:0:0:
256,192,13773,1,12,0:0:0:0:
256,192,14308,1,8,0:0:0:0:
256,192,14737,1,8,0:0:0:0:
256,192,15273,1,4,0:0:0:0:
256,192,16987,1,8,0:0:0:0:
256,192,17844,1,0,0:0:0:0:
256,192,18701,1,12,0:0:0:0:
256,192,19130,1,8,0:0:0:0:
256,192,19558,1,0,0:0:0:0:
256,192,19987,1,0,0:0:0:0:
256,192,20415,1,12,0:0:0:0:
256,192,20843,1,0,0:0:0:0:
256,192,22557,1,8,0:0:0:0:
256,192,23843,1,0,0:0:0:0:
256,192,25557,1,0,0:0:0:0:
256,192,27485,1,0,0:0:0:0:
256,192,28342,1,8,0:0:0:0:
256,192,29199,1,8,0:0:0:0:
256,192,30056,1,8,0:0:0:0:
256,192,30485,1,0,0:0:0:0:
256,192,32199,1,0,0:0:0:0:
256,192,34127,1,8,0:0:0:0:
256,192,34662,1,8,0:0:0:0:
256,192,35091,1,8,0:0:0:0:
256,192,35841,1,0,0:0:0:0:
256,192,36377,1,0,0:0:0:0:
256,192,36912,1,0,0:0:0:0:
256,192,37555,1,4,0:0:0:0:
256,192,38519,1,0,0:0:0:0:
256,192,38840,1,0,0:0:0:0:
256,192,39376,1,8,0:0:0:0:
256,192,39697,1,8,0:0:0:0:
256,192,40126,1,8,0:0:0:0:
256,192,40555,1,0,0:0:0:0:
256,192,41519,1,0,0:0:0:0:
256,192,41840,1,0,0:0:0:0:
256,192,42376,1,8,0:0:0:0:
256,192,42697,1,8,0:0:0:0:
256,192,43126,1,0,0:0:0:0:
256,192,43555,1,12,0:0:0:0:
256,192,44305,1,4,0:0:0:0:
256,192,45055,1,8,0:0:0:0:
256,192,45805,1,4,0:0:0:0:
256,192,46555,1,12,0:0:0:0:
256,192,47305,1,4,0:0:0:0:
256,192,48269,1,8,0:0:0:0:
256,192,48805,1,4,0:0:0:0:
256,192,49769,1,8,0:0:0:0:
256,192,50197,1,0,0:0:0:0:
256,192,50626,1,8,0:0:0:0:
256,192,51054,1,0,0:0:0:0:
256,192,51483,1,8,0:0:0:0:
256,192,51911,1,8,0:0:0:0:
256,192,52340,1,4,0:0:0:0:
256,192,57482,5,4,0:0:0:0:
256,192,58446,1,0,0:0:0:0:
256,192,59303,1,8,0:0:0:0:
256,192,60267,1,8,0:0:0:0:
256,192,60910,1,0,0:0:0:0:
256,192,61874,1,0,0:0:0:0:
256,192,62732,1,8,0:0:0:0:
256,192,63696,1,8,0:0:0:0:
256,192,64339,1,0,0:0:0:0:
256,192,66053,1,4,0:0:0:0:
256,192,67124,1,8,0:0:0:0:
256,192,67767,1,0,0:0:0:0:
256,192,68731,1,0,0:0:0:0:
256,192,69588,1,8,0:0:0:0:
256,192,70553,1,8,0:0:0:0:
256,192,71195,1,4,0:0:0:0:
256,192,71730,1,8,0:0:0:0:
256,192,72159,1,8,0:0:0:0:
256,192,72695,1,12,0:0:0:0:
256,192,73230,1,8,0:0:0:0:
256,192,73659,1,8,0:0:0:0:
256,192,74195,1,4,0:0:0:0:
256,192,75909,1,8,0:0:0:0:
256,192,77623,1,4,0:0:0:0:
256,192,78909,1,8,0:0:0:0:
256,192,79337,1,8,0:0:0:0:
256,192,80195,1,8,0:0:0:0:
256,192,81052,1,0,0:0:0:0:
256,192,82337,1,8,0:0:0:0:
256,192,82766,1,8,0:0:0:0:
256,192,83623,1,0,0:0:0:0:
256,192,84480,1,12,0:0:0:0:
256,192,84909,1,8,0:0:0:0:
256,192,85766,1,8,0:0:0:0:
256,192,86195,1,0,0:0:0:0:
256,192,86623,1,8,0:0:0:0:
256,192,87480,1,8,0:0:0:0:
256,192,87909,1,0,0:0:0:0:
256,192,88337,1,8,0:0:0:0:
256,192,89195,1,0,0:0:0:0:
256,192,89623,1,8,0:0:0:0:
256,192,91337,1,8,0:0:0:0:
256,192,92194,1,0,0:0:0:0:
256,192,93051,1,0,0:0:0:0:
256,192,93908,1,8,0:0:0:0:
256,192,94765,1,0,0:0:0:0:
256,192,95622,1,8,0:0:0:0:
256,192,96479,1,0,0:0:0:0:
256,192,97337,1,8,0:0:0:0:
256,192,98194,1,8,0:0:0:0:
256,192,99051,1,0,0:0:0:0:
256,192,99908,1,0,0:0:0:0:
256,192,100765,1,8,0:0:0:0:
256,192,101622,1,0,0:0:0:0:
256,192,102479,1,8,0:0:0:0:
256,192,103337,1,12,0:0:0:0:
256,192,103765,1,0,0:0:0:0:
256,192,104194,1,8,0:0:0:0:
256,192,104622,1,8,0:0:0:0:
256,192,105051,1,0,0:0:0:0:
256,192,105908,1,0,0:0:0:0:
256,192,106765,1,12,0:0:0:0:
256,192,107194,1,0,0:0:0:0:
256,192,107622,1,8,0:0:0:0:
256,192,108051,1,8,0:0:0:0:
256,192,108479,1,0,0:0:0:0:
256,192,109337,1,0,0:0:0:0:
256,192,110194,1,12,0:0:0:0:
256,192,110622,1,0,0:0:0:0:
256,192,111051,1,8,0:0:0:0:
256,192,111479,1,8,0:0:0:0:
256,192,111908,1,0,0:0:0:0:
256,192,112765,1,0,0:0:0:0:
256,192,113622,1,12,0:0:0:0:
256,192,113944,1,8,0:0:0:0:
256,192,114479,1,0,0:0:0:0:
256,192,115337,1,8,0:0:0:0:
256,192,115658,1,8,0:0:0:0:
256,192,116194,1,0,0:0:0:0:
256,192,117051,1,4,0:0:0:0:
256,192,118765,1,8,0:0:0:0:
256,192,120479,1,0,0:0:0:0:
256,192,122194,1,8,0:0:0:0:
256,192,123051,1,8,0:0:0:0:
256,192,123908,1,0,0:0:0:0:
256,192,127337,1,0,0:0:0:0:
256,192,129908,1,0,0:0:0:0:
