osu file format v14

[General]
AudioFilename: audio.mp3
AudioLeadIn: 0
PreviewTime: 91335
Countdown: 0
SampleSet: Normal
StackLeniency: 0.7
Mode: 1
LetterboxInBreaks: 0
WidescreenStoryboard: 1

[Editor]
DistanceSpacing: 0.2
BeatDivisor: 12
GridSize: 32
TimelineZoom: 2.1

[Metadata]
Title:Shounen wa Sora o Tadoru
TitleUnicode:少年は空を辿る
Artist:Power Of Nature
ArtistUnicode:Power Of Nature
Creator:TaikOseania
Version:Inner Oni
Source:pop'n music 20 fantasia
Tags:mtntwarz maimaing ムラクモ MURAKUMO ポップンミュージック poppun popn music PON 渡辺大地 daichi watanabe beatmania IIDX 22 PENDUAL jubeat saucer REFLEC BEAT colette -Summer- bemani konami electronic instrumental video game
BeatmapID:3244577
BeatmapSetID:1588080

[Difficulty]
HPDrainRate:5.5
CircleSize:5
OverallDifficulty:6
ApproachRate:5
SliderMultiplier:1.4
SliderTickRate:1

[Events]
//Background and Video events
0,0,"kaneki lol.jpg",0,80
//Break Periods
//Storyboard Layer 0 (Background)
//Storyboard Layer 1 (Fail)
//Storyboard Layer 2 (Pass)
//Storyboard Layer 3 (Foreground)
//Storyboard Layer 4 (Overlay)
//Storyboard Sound Samples

[TimingPoints]
274,428.571428571429,4,1,0,60,1,0
274,-100,4,1,0,60,0,0
381,-99.6884735202492,4,1,0,60,0,0
488,-99.3788819875776,4,1,0,60,0,0
595,-99.0712074303406,4,1,0,60,0,0
702,-98.7654320987654,4,1,0,60,0,0
809,-98.4615384615385,4,1,0,60,0,0
916,-98.159509202454,4,1,0,60,0,0
1024,-97.8593272171254,4,1,0,60,0,0
1131,-97.5609756097561,4,1,0,60,0,0
1345,-96.969696969697,4,1,0,60,0,0
1452,-96.6767371601208,4,1,0,60,0,0
1559,-96.3855421686747,4,1,0,60,0,0
1666,-96.0960960960961,4,1,0,60,0,0
1774,-95.8083832335329,4,1,0,60,0,0
1881,-95.5223880597015,4,1,0,60,0,0
1988,-95.2380952380952,4,1,0,60,0,0
2202,-94.6745562130178,4,1,0,60,0,0
2309,-94.3952802359882,4,1,0,60,0,0
2416,-94.1176470588235,4,1,0,60,0,0
2524,-93.841642228739,4,1,0,60,0,0
2631,-93.5672514619883,4,1,0,60,0,0
2738,-93.2944606413994,4,1,0,60,0,0
2845,-93.0232558139535,4,1,0,60,0,0
3059,-92.485549132948,4,1,0,60,0,0
3166,-92.2190201729107,4,1,0,60,0,0
3274,-91.9540229885058,4,1,0,60,0,0
3381,-91.6905444126075,4,1,0,60,0,0
3488,-91.4285714285714,4,1,0,60,0,0
3702,-90.9090909090909,4,1,0,60,0,0
7131,-90.9090909090909,4,1,0,60,0,0
7238,-91.4997634731114,4,1,0,60,0,0
7452,-92.7043528401833,4,1,0,60,0,0
7559,-93.3185765557606,4,1,0,60,0,0
7774,-94.5719484469395,4,1,0,60,0,0
7988,-95.8593551541179,4,1,0,60,0,0
8095,-96.5162460971243,4,1,0,60,0,0
8309,-97.8576034868621,4,1,0,60,0,0
8416,-98.5422642844403,4,1,0,60,0,0
8524,-99.2366715226478,4,1,0,60,0,0
8631,-99.9408350256648,4,1,0,60,0,0
8737,-99.9408350256648,4,1,0,60,0,0
8845,428.571428571429,8,1,0,70,1,0
8845,-83.3333333333333,8,1,0,70,0,0
9487,-85.4700854700855,8,1,0,70,0,0
10023,-87.3362445414847,8,1,0,70,0,0
10666,-89.6860986547085,8,1,0,70,0,0
11095,-91.324200913242,8,1,0,70,0,0
11737,-93.8967136150235,8,1,0,70,0,0
12273,428.571428571429,4,1,0,75,1,0
12273,-83.3333333333333,4,1,0,75,0,0
12487,-85.5262989092831,4,1,0,75,0,0
12701,-87.837802227918,4,1,0,75,0,0
12808,-89.0410897917062,4,1,0,75,0,0
13023,-91.5492699861211,4,1,0,75,0,0
13237,-94.2029395085244,4,1,0,75,0,0
13344,-95.5882212370263,4,1,0,75,0,0
13558,-98.4848111799958,4,1,0,75,0,0
13665,-100,4,1,0,75,0,0
13773,428.571428571429,4,1,0,75,1,0
13773,-83.3333333333333,4,1,0,75,0,8
13987,-85.3535086266791,4,1,0,75,0,8
14201,-87.4741404572273,4,1,0,75,0,8
14308,-88.5744299792559,4,1,0,75,0,8
14523,-90.8601916059721,4,1,0,75,0,8
14737,-93.2671385362096,4,1,0,75,0,8
14844,-94.5190304615931,4,1,0,75,0,8
15058,-97.1264178028839,4,1,0,75,0,8
15165,-98.4848111799958,4,1,0,75,0,8
15273,428.571428571429,4,1,0,75,1,0
15273,-100,4,1,0,75,0,0
15701,-111.111111111111,4,1,0,60,0,0
17415,-100,4,1,0,60,0,0
19987,-100,4,1,0,60,0,0
20094,-101.26582278481,4,1,0,60,0,0
20201,-102.564102564103,4,1,0,60,0,0
20308,-103.896103896104,4,1,0,60,0,0
20415,428.571428571429,4,1,0,60,1,8
20415,-105.263157894737,4,1,0,60,0,0
20629,-108.108108108108,4,1,0,60,0,0
20736,-109.58904109589,4,1,0,60,0,0
20843,428.571428571429,7,1,0,55,1,0
20843,-111.111111111111,4,1,0,55,0,0
23843,428.571428571429,4,1,0,55,1,0
23843,-111.111111111111,4,1,0,55,0,0
25557,428.571428571429,5,1,0,55,1,0
25557,-111.111111111111,5,1,0,55,0,0
27485,428.571428571429,7,1,0,60,1,0
27485,-100,7,1,0,60,0,0
30485,428.571428571429,4,1,0,60,1,0
30485,-100,4,1,0,60,0,0
32199,428.571428571429,5,1,0,60,1,0
32199,-100,5,1,0,60,0,0
34127,428.571428571429,4,1,0,75,1,0
34127,-86.9565217391304,4,1,0,75,0,0
34341,-88.1542699724518,4,1,0,75,0,0
34662,-90.014024184968,4,1,0,75,0,0
34877,-91.2981871831953,4,1,0,75,0,0
35091,-92.6193492934996,4,1,0,75,0,0
35412,-94.6745562130178,4,1,0,75,0,0
35627,-96.0960960960961,4,1,0,75,0,0
35734,-96.823042334907,4,1,0,75,0,0
35841,-97.5609756097561,4,1,0,75,0,0
36055,-99.0712074303406,4,1,0,75,0,0
36377,-101.426358885,4,1,0,75,0,0
36591,-103.059634426865,4,1,0,75,0,0
36912,-105.610561056106,4,1,0,75,0,0
37127,-107.38255033557,4,1,0,75,0,0
37341,-109.215017064846,4,1,0,75,0,0
37448,-110.154966006178,4,1,0,75,0,0
37555,428.571428571429,7,1,0,60,1,0
37555,-111.111111111111,7,1,0,60,0,0
40555,-111.111111111111,7,1,0,60,0,0
43555,428.571428571429,7,1,0,70,1,0
43555,-100,7,1,0,70,0,0
46555,428.571428571429,8,1,0,70,1,0
46555,-100,4,1,0,70,0,0
49769,428.571428571429,6,1,0,75,1,0
49769,-90.9090909090909,6,1,0,75,0,0
49983,-92.3077207100679,6,1,0,75,0,0
50197,-93.7499707031342,6,1,0,75,0,0
50411,-95.2380952380952,6,1,0,75,0,0
50626,-96.774224765879,6,1,0,75,0,0
50840,-98.3606234883202,6,1,0,75,0,0
51054,-100,6,1,0,75,0,0
51269,-101.694949727102,6,1,0,75,0,0
51376,-102.564102564103,6,1,0,75,0,0
51483,-103.448240190262,6,1,0,75,0,0
51697,-105.263157894737,6,1,0,75,0,0
51911,-107.142895408177,6,1,0,75,0,0
52340,428.571428571429,4,1,0,60,1,0
52340,-111.111111111111,4,1,0,60,0,0
57482,428.571428571429,4,1,0,70,1,0
57482,-100,4,1,0,70,0,0
57696,-101.010101010101,4,1,0,70,0,0
57803,-101.522842639594,4,1,0,70,0,0
57910,-102.040816326531,4,1,0,70,0,0
58124,-103.092783505155,4,1,0,70,0,0
58446,-104.712041884817,4,1,0,70,0,0
58553,-105.263157894737,4,1,0,70,0,0
58660,-105.820105820106,4,1,0,70,0,0
58767,-106.382978723404,4,1,0,70,0,0
58874,-106.951871657754,4,1,0,70,0,0
58982,-107.52688172043,4,1,0,70,0,0
59303,-109.289617486339,4,1,0,70,0,0
59410,-109.89010989011,4,1,0,70,0,0
59517,-110.497237569061,4,1,0,70,0,0
59624,-111.111111111111,4,1,0,70,0,0
59732,-111.731843575419,4,1,0,70,0,0
59839,-112.359550561798,4,1,0,70,0,0
59946,-112.994350282486,4,1,0,70,0,0
60053,-113.636363636364,4,1,0,70,0,0
60267,-114.942528735632,4,1,0,70,0,0
60410,-115.830160552186,4,1,0,70,0,0
60553,-116.731472088921,4,1,0,70,0,0
60696,-117.647058823529,4,1,0,70,0,0
60910,-100,4,1,0,70,0,0
61124,-101.010101010101,4,1,0,70,0,0
61232,-101.522842639594,4,1,0,70,0,0
61339,-102.040816326531,4,1,0,70,0,0
61553,-103.092783505155,4,1,0,70,0,0
61874,-104.712041884817,4,1,0,70,0,0
61982,-105.263157894737,4,1,0,70,0,0
62089,-105.820105820106,4,1,0,70,0,0
62196,-106.382978723404,4,1,0,70,0,0
62303,-106.951871657754,4,1,0,70,0,0
62410,-107.52688172043,4,1,0,70,0,0
62732,-109.289617486339,4,1,0,70,0,0
62839,-109.89010989011,4,1,0,70,0,0
62946,-110.497237569061,4,1,0,70,0,0
63053,-111.111111111111,4,1,0,70,0,0
63160,-111.731843575419,4,1,0,70,0,0
63267,-112.359550561798,4,1,0,70,0,0
63374,-112.994350282486,4,1,0,70,0,0
63482,-113.636363636364,4,1,0,70,0,0
63696,-114.942528735632,4,1,0,70,0,0
63839,-115.830160552186,4,1,0,70,0,0
63982,-116.731472088921,4,1,0,70,0,0
64124,-117.647058823529,4,1,0,70,0,0
64339,-117.647058823529,4,1,0,55,0,0
65517,-117.647058823529,4,1,0,55,0,0
65624,-113.69993223484,4,1,0,55,0,0
65732,-110.009064746935,4,1,0,55,0,0
65839,-106.550171812152,4,1,0,55,0,0
65946,-103.302263455895,4,1,0,55,0,0
66053,428.571428571429,4,1,0,70,1,0
66053,-100,4,1,0,70,0,0
66267,-102.176565191714,4,1,0,70,0,0
66374,-103.300769487432,4,1,0,70,0,0
66482,-104.449987257102,4,1,0,70,0,0
66589,-105.62495114846,4,1,0,70,0,0
66696,-106.826764377547,4,1,0,70,0,0
66803,-108.056241112374,4,1,0,70,0,0
66910,-109.314347617439,4,1,0,70,0,0
67124,-111.920545366433,4,1,0,70,0,0
67267,-113.728121552616,4,1,0,70,0,0
67410,-115.595042822184,4,1,0,70,0,0
67553,-117.524280516355,4,1,0,70,0,0
67767,-100,4,1,0,70,0,0
67982,-101.007244239557,4,1,0,70,0,0
68089,-101.518513931386,4,1,0,70,0,0
68196,-102.035089867405,4,1,0,70,0,0
68410,-103.083962918637,4,1,0,70,0,0
68732,-104.698337913886,4,1,0,70,0,0
68839,-105.247758485864,4,1,0,70,0,0
68946,-105.803087757313,4,1,0,70,0,0
69053,-106.364195259135,4,1,0,70,0,0
69160,-106.931285955645,4,1,0,70,0,0
69267,-107.504456059704,4,1,0,70,0,0
69374,-108.083803858159,4,1,0,70,0,0
69589,-109.261555775293,4,1,0,70,0,0
69696,-109.860049283218,4,1,0,70,0,0
69803,-110.465135546245,4,1,0,70,0,0
69910,-111.076924102249,4,1,0,70,0,0
70017,-111.695526929233,4,1,0,70,0,0
70124,-112.321058513655,4,1,0,70,0,0
70232,-112.953635921063,4,1,0,70,0,0
70339,-113.593507903836,4,1,0,70,0,0
70553,-114.894985982812,4,1,0,70,0,0
70696,-115.779333852025,4,1,0,70,0,0
70839,-116.677400987558,4,1,0,70,0,0
70982,-117.589509134353,4,1,0,70,0,0
71195,428.571428571429,5,1,0,75,1,0
71195,-83.3333333333333,5,1,0,75,0,0
71409,-85.5262989092831,5,1,0,75,0,0
71623,-87.837802227918,5,1,0,75,0,0
71730,-89.0410897917062,5,1,0,75,0,0
71945,-91.5492699861211,5,1,0,75,0,0
72159,-94.2029395085244,5,1,0,75,0,0
72266,-95.5882212370263,5,1,0,75,0,0
72480,-98.4848111799958,5,1,0,75,0,0
72587,-100,5,1,0,75,0,0
72695,428.571428571429,4,1,0,75,1,0
72695,-83.3333333333333,4,1,0,75,0,0
72909,-85.3535086266791,4,1,0,75,0,0
73123,-87.4741404572273,4,1,0,75,0,0
73230,-88.5744299792559,4,1,0,75,0,0
73445,-90.8601916059721,4,1,0,75,0,0
73659,-93.2671385362096,4,1,0,75,0,0
73766,-94.5190304615931,4,1,0,75,0,0
73980,-97.1264178028839,4,1,0,75,0,0
74087,-98.4848111799958,4,1,0,75,0,0
74195,428.571428571429,4,1,0,75,1,0
74195,-100,4,1,0,75,0,0
75909,-125,4,1,0,75,0,0
77623,-125,4,1,0,60,0,0
84052,-125,4,1,0,60,0,0
84123,-117.647058823529,4,1,0,60,0,0
84195,-111.111111111111,4,1,0,60,0,0
84266,-105.263157894737,4,1,0,60,0,0
84337,-100,4,1,0,60,0,0
84480,-90.9090909090909,4,1,0,60,0,0
89623,-90.9090909090909,4,1,0,80,0,0
89837,-93.4417007884611,4,1,0,80,0,0
90052,-96.1193725711836,4,1,0,80,0,0
90266,-98.9551327532583,4,1,0,80,0,0
90480,-101.963303407104,4,1,0,80,0,0
90623,-104.072351098484,4,1,0,80,0,0
90766,-106.270603213198,4,1,0,80,0,0
90909,-108.56372364887,4,1,0,80,0,0
91052,-110.957989086172,4,1,0,80,0,0
91337,428.571428571429,4,1,0,100,1,0
91337,-66.6666666666667,4,1,0,100,0,0
103229,-66.6666666666667,4,1,0,100,0,0
103336,-66.6666666666667,4,1,0,100,0,0
103337,-66.6666666666667,4,1,0,100,0,1
103551,-83.3333333333333,4,1,0,100,0,1
117051,-83.3333333333333,4,1,0,100,0,0
117372,-100,4,1,0,50,0,0
123908,-142.857142857143,4,1,0,50,0,0

[HitObjects]
256,192,274,5,0,0:0:0:0:
256,192,381,1,0,0:0:0:0:
256,192,488,1,0,0:0:0:0:
256,192,595,1,0,0:0:0:0:
256,192,702,1,8,0:0:0:0:
256,192,809,1,8,0:0:0:0:
256,192,916,1,8,0:0:0:0:
256,192,1024,1,8,0:0:0:0:
256,192,1131,1,0,0:0:0:0:
256,192,1345,1,0,0:0:0:0:
256,192,1452,1,0,0:0:0:0:
256,192,1559,1,8,0:0:0:0:
256,192,1666,1,8,0:0:0:0:
256,192,1774,1,0,0:0:0:0:
256,192,1881,1,0,0:0:0:0:
256,192,1988,1,8,0:0:0:0:
256,192,2202,1,8,0:0:0:0:
256,192,2309,1,8,0:0:0:0:
256,192,2416,1,0,0:0:0:0:
256,192,2524,1,0,0:0:0:0:
256,192,2631,1,0,0:0:0:0:
256,192,2738,1,0,0:0:0:0:
256,192,2845,1,8,0:0:0:0:
256,192,3059,1,8,0:0:0:0:
256,192,3166,1,8,0:0:0:0:
256,192,3274,1,8,0:0:0:0:
256,192,3381,1,0,0:0:0:0:
256,192,3488,1,0,0:0:0:0:
256,192,3702,1,8,0:0:0:0:
256,192,3809,1,0,0:0:0:0:
256,192,4024,1,0,0:0:0:0:
256,192,4131,1,8,0:0:0:0:
256,192,4345,1,0,0:0:0:0:
256,192,4559,1,8,0:0:0:0:
256,192,4666,1,0,0:0:0:0:
256,192,4881,1,0,0:0:0:0:
256,192,4988,1,8,0:0:0:0:
256,192,5202,1,0,0:0:0:0:
256,192,5416,1,8,0:0:0:0:
256,192,5524,1,0,0:0:0:0:
256,192,5738,1,0,0:0:0:0:
256,192,5845,1,8,0:0:0:0:
256,192,6059,1,0,0:0:0:0:
256,192,6274,1,8,0:0:0:0:
256,192,6381,1,0,0:0:0:0:
256,192,6595,1,0,0:0:0:0:
256,192,6702,1,8,0:0:0:0:
256,192,6916,1,0,0:0:0:0:
256,192,7024,1,0,0:0:0:0:
256,192,7131,1,8,0:0:0:0:
256,192,7238,1,0,0:0:0:0:
256,192,7452,1,0,0:0:0:0:
256,192,7559,1,8,0:0:0:0:
256,192,7774,1,0,0:0:0:0:
256,192,7988,1,8,0:0:0:0:
256,192,8095,1,0,0:0:0:0:
256,192,8309,1,0,0:0:0:0:
256,192,8416,1,8,0:0:0:0:
256,192,8524,1,0,0:0:0:0:
256,192,8631,1,0,0:0:0:0:
256,192,8738,1,8,0:0:0:0:
256,192,8845,1,8,0:0:0:0:
256,192,8952,1,0,0:0:0:0:
256,192,9487,1,8,0:0:0:0:
256,192,9595,1,0,0:0:0:0:
256,192,10023,1,8,0:0:0:0:
256,192,10130,1,0,0:0:0:0:
256,192,10666,1,8,0:0:0:0:
256,192,10773,1,0,0:0:0:0:
256,192,11095,1,8,0:0:0:0:
256,192,11202,1,0,0:0:0:0:
256,192,11737,1,8,0:0:0:0:
256,192,11845,1,0,0:0:0:0:
256,192,12273,1,4,0:0:0:0:
256,192,12487,1,8,0:0:0:0:
256,192,12701,1,0,0:0:0:0:
256,192,12808,1,8,0:0:0:0:
256,192,13023,1,8,0:0:0:0:
256,192,13237,1,8,0:0:0:0:
256,192,13344,1,0,0:0:0:0:
256,192,13558,1,8,0:0:0:0:
256,192,13665,1,0,0:0:0:0:
256,192,13773,1,12,0:0:0:0:
256,192,13987,1,8,0:0:0:0:
256,192,14201,1,0,0:0:0:0:
256,192,14308,1,8,0:0:0:0:
256,192,14523,1,8,0:0:0:0:
256,192,14737,1,8,0:0:0:0:
256,192,14844,1,0,0:0:0:0:
256,192,15058,1,8,0:0:0:0:
256,192,15165,1,8,0:0:0:0:
256,192,15273,1,4,0:0:0:0:
256,192,15701,1,0,0:0:0:0:
256,192,16130,1,8,0:0:0:0:
256,192,16237,1,0,0:0:0:0:
256,192,16344,1,8,0:0:0:0:
256,192,16558,1,0,0:0:0:0:
256,192,16665,1,0,0:0:0:0:
256,192,16773,1,8,0:0:0:0:
256,192,16880,1,0,0:0:0:0:
256,192,16987,1,8,0:0:0:0:
256,192,17415,1,8,0:0:0:0:
256,192,17523,1,0,0:0:0:0:
256,192,17630,1,8,0:0:0:0:
256,192,17737,1,8,0:0:0:0:
256,192,17844,1,0,0:0:0:0:
256,192,18058,1,0,0:0:0:0:
256,192,18165,1,0,0:0:0:0:
256,192,18273,1,8,0:0:0:0:
256,192,18380,1,0,0:0:0:0:
256,192,18487,1,8,0:0:0:0:
256,192,18594,1,0,0:0:0:0:
256,192,18701,1,12,0:0:0:0:
256,192,18915,1,0,0:0:0:0:
256,192,19130,1,8,0:0:0:0:
256,192,19237,1,8,0:0:0:0:
256,192,19344,1,0,0:0:0:0:
256,192,19558,1,8,0:0:0:0:
256,192,19773,1,0,0:0:0:0:
256,192,19987,1,8,0:0:0:0:
256,192,20094,1,0,0:0:0:0:
256,192,20201,1,0,0:0:0:0:
256,192,20308,1,0,0:0:0:0:
256,192,20415,1,12,0:0:0:0:
256,192,20629,1,0,0:0:0:0:
256,192,20736,1,0,0:0:0:0:
256,192,20843,1,8,0:0:0:0:
256,192,21057,1,0,0:0:0:0:
256,192,21271,1,0,0:0:0:0:
256,192,21378,1,0,0:0:0:0:
256,192,21593,1,8,0:0:0:0:
256,192,21807,1,8,0:0:0:0:
256,192,22021,1,0,0:0:0:0:
256,192,22128,1,8,0:0:0:0:
256,192,22200,1,8,0:0:0:0:
256,192,22271,1,0,0:0:0:0:
256,192,22343,1,0,0:0:0:0:
256,192,22557,1,8,0:0:0:0:
256,192,22771,1,0,0:0:0:0:
256,192,22985,1,0,0:0:0:0:
256,192,23093,1,0,0:0:0:0:
256,192,23307,1,8,0:0:0:0:
256,192,23521,1,8,0:0:0:0:
256,192,23628,1,8,0:0:0:0:
256,192,23735,1,8,0:0:0:0:
256,192,23843,1,0,0:0:0:0:
256,192,24057,1,8,0:0:0:0:
256,192,24271,1,8,0:0:0:0:
256,192,24485,1,0,0:0:0:0:
256,192,24593,1,8,0:0:0:0:
256,192,24807,1,0,0:0:0:0:
256,192,25021,1,8,0:0:0:0:
256,192,25235,1,8,0:0:0:0:
256,192,25343,1,0,0:0:0:0:
256,192,25414,1,0,0:0:0:0:
256,192,25485,1,0,0:0:0:0:
256,192,25557,1,8,0:0:0:0:
256,192,25771,1,0,0:0:0:0:
256,192,25985,1,8,0:0:0:0:
256,192,26092,1,0,0:0:0:0:
256,192,26307,1,8,0:0:0:0:
256,192,26521,1,0,0:0:0:0:
256,192,26628,1,0,0:0:0:0:
256,192,26735,1,8,0:0:0:0:
256,192,26842,1,8,0:0:0:0:
256,192,27057,1,8,0:0:0:0:
256,192,27164,1,0,0:0:0:0:
256,192,27271,1,8,0:0:0:0:
256,192,27485,1,8,0:0:0:0:
256,192,27699,1,0,0:0:0:0:
256,192,27913,1,0,0:0:0:0:
256,192,28020,1,8,0:0:0:0:
256,192,28235,1,8,0:0:0:0:
256,192,28342,1,0,0:0:0:0:
256,192,28449,1,8,0:0:0:0:
256,192,28663,1,0,0:0:0:0:
256,192,28770,1,8,0:0:0:0:
256,192,28842,1,8,0:0:0:0:
256,192,28913,1,0,0:0:0:0:
256,192,28985,1,0,0:0:0:0:
256,192,29199,1,8,0:0:0:0:
256,192,29413,1,0,0:0:0:0:
256,192,29627,1,0,0:0:0:0:
256,192,29735,1,8,0:0:0:0:
256,192,29949,1,8,0:0:0:0:
256,192,30163,1,8,0:0:0:0:
256,192,30270,1,0,0:0:0:0:
256,192,30342,1,8,0:0:0:0:
256,192,30413,1,8,0:0:0:0:
256,192,30485,1,0,0:0:0:0:
256,192,30699,1,0,0:0:0:0:
256,192,30913,1,8,0:0:0:0:
256,192,31020,1,0,0:0:0:0:
256,192,31235,1,8,0:0:0:0:
256,192,31342,1,0,0:0:0:0:
256,192,31449,1,8,0:0:0:0:
256,192,31663,1,8,0:0:0:0:
256,192,31877,1,8,0:0:0:0:
256,192,31985,1,0,0:0:0:0:
256,192,32056,1,0,0:0:0:0:
256,192,32127,1,0,0:0:0:0:
256,192,32199,1,8,0:0:0:0:
256,192,32413,1,8,0:0:0:0:
256,192,32627,1,8,0:0:0:0:
256,192,32734,1,0,0:0:0:0:
256,192,32949,1,0,0:0:0:0:
256,192,33056,1,8,0:0:0:0:
256,192,33270,1,8,0:0:0:0:
256,192,33377,1,8,0:0:0:0:
256,192,33484,1,0,0:0:0:0:
256,192,33591,1,0,0:0:0:0:
256,192,33699,1,8,0:0:0:0:
256,192,33806,1,0,0:0:0:0:
256,192,33913,1,0,0:0:0:0:
256,192,34127,1,8,0:0:0:0:
256,192,34341,1,8,0:0:0:0:
256,192,34662,1,8,0:0:0:0:
256,192,34877,1,8,0:0:0:0:
256,192,35091,1,0,0:0:0:0:
256,192,35412,1,0,0:0:0:0:
256,192,35627,1,8,0:0:0:0:
256,192,35734,1,8,0:0:0:0:
256,192,35841,1,0,0:0:0:0:
256,192,36055,1,0,0:0:0:0:
256,192,36377,1,8,0:0:0:0:
256,192,36591,1,8,0:0:0:0:
256,192,36912,1,8,0:0:0:0:
256,192,37127,1,0,0:0:0:0:
256,192,37341,1,8,0:0:0:0:
256,192,37448,1,0,0:0:0:0:
256,192,37555,1,12,0:0:0:0:
256,192,37769,1,0,0:0:0:0:
256,192,37983,1,8,0:0:0:0:
256,192,38090,1,0,0:0:0:0:
256,192,38197,1,8,0:0:0:0:
256,192,38305,1,0,0:0:0:0:
256,192,38519,1,8,0:0:0:0:
256,192,38733,1,0,0:0:0:0:
256,192,38840,1,8,0:0:0:0:
256,192,38947,1,0,0:0:0:0:
256,192,39055,1,8,0:0:0:0:
256,192,39162,1,8,0:0:0:0:
256,192,39376,1,8,0:0:0:0:
256,192,39483,1,8,0:0:0:0:
256,192,39590,1,0,0:0:0:0:
256,192,39697,1,8,0:0:0:0:
256,192,39912,1,0,0:0:0:0:
256,192,40019,1,0,0:0:0:0:
256,192,40126,1,8,0:0:0:0:
256,192,40233,1,8,0:0:0:0:
256,192,40340,1,0,0:0:0:0:
256,192,40447,1,0,0:0:0:0:
256,192,40555,1,8,0:0:0:0:
256,192,40769,1,0,0:0:0:0:
256,192,40983,1,8,0:0:0:0:
256,192,41090,1,0,0:0:0:0:
256,192,41197,1,8,0:0:0:0:
256,192,41305,1,0,0:0:0:0:
256,192,41519,1,8,0:0:0:0:
256,192,41733,1,0,0:0:0:0:
256,192,41840,1,8,0:0:0:0:
256,192,41947,1,0,0:0:0:0:
256,192,42055,1,8,0:0:0:0:
256,192,42162,1,8,0:0:0:0:
256,192,42376,1,8,0:0:0:0:
256,192,42483,1,8,0:0:0:0:
256,192,42590,1,0,0:0:0:0:
256,192,42697,1,8,0:0:0:0:
256,192,42912,1,0,0:0:0:0:
256,192,43019,1,0,0:0:0:0:
256,192,43126,1,8,0:0:0:0:
256,192,43233,1,8,0:0:0:0:
256,192,43340,1,0,0:0:0:0:
256,192,43447,1,0,0:0:0:0:
256,192,43555,1,12,0:0:0:0:
256,192,43769,1,8,0:0:0:0:
256,192,43876,1,0,0:0:0:0:
256,192,43983,1,0,0:0:0:0:
256,192,44197,1,8,0:0:0:0:
256,192,44305,1,4,0:0:0:0:
256,192,44626,1,0,0:0:0:0:
256,192,44840,1,8,0:0:0:0:
256,192,45055,1,0,0:0:0:0:
256,192,45162,1,8,0:0:0:0:
256,192,45269,1,0,0:0:0:0:
256,192,45483,1,0,0:0:0:0:
256,192,45697,1,8,0:0:0:0:
256,192,45805,1,4,0:0:0:0:
256,192,46126,1,0,0:0:0:0:
256,192,46340,1,8,0:0:0:0:
256,192,46555,1,12,0:0:0:0:
256,192,46769,1,8,0:0:0:0:
256,192,46876,1,0,0:0:0:0:
256,192,46983,1,0,0:0:0:0:
256,192,47197,1,8,0:0:0:0:
256,192,47305,1,4,0:0:0:0:
256,192,47626,1,0,0:0:0:0:
256,192,47733,1,0,0:0:0:0:
256,192,47840,1,8,0:0:0:0:
256,192,47947,1,0,0:0:0:0:
256,192,48055,1,8,0:0:0:0:
256,192,48162,1,8,0:0:0:0:
256,192,48269,1,0,0:0:0:0:
256,192,48483,1,0,0:0:0:0:
256,192,48590,1,0,0:0:0:0:
256,192,48697,1,8,0:0:0:0:
256,192,48805,1,4,0:0:0:0:
256,192,49126,1,0,0:0:0:0:
256,192,49233,1,8,0:0:0:0:
256,192,49340,1,0,0:0:0:0:
256,192,49447,1,0,0:0:0:0:
256,192,49555,1,0,0:0:0:0:
256,192,49662,1,0,0:0:0:0:
256,192,49769,1,12,0:0:0:0:
256,192,49983,1,0,0:0:0:0:
256,192,50197,1,8,0:0:0:0:
256,192,50411,1,0,0:0:0:0:
256,192,50626,1,8,0:0:0:0:
256,192,50840,1,8,0:0:0:0:
256,192,51054,1,0,0:0:0:0:
256,192,51269,1,0,0:0:0:0:
256,192,51376,1,8,0:0:0:0:
256,192,51483,1,8,0:0:0:0:
256,192,51697,1,8,0:0:0:0:
256,192,51911,1,0,0:0:0:0:
256,192,52340,1,4,0:0:0:0:
256,192,54054,1,8,0:0:0:0:
256,192,54161,1,0,0:0:0:0:
256,192,54375,1,8,0:0:0:0:
256,192,54482,1,0,0:0:0:0:
256,192,54697,1,0,0:0:0:0:
256,192,54804,1,8,0:0:0:0:
256,192,54911,1,0,0:0:0:0:
256,192,55125,1,0,0:0:0:0:
256,192,55340,1,8,0:0:0:0:
256,192,55447,1,0,0:0:0:0:
256,192,55554,1,8,0:0:0:0:
256,192,55768,1,8,0:0:0:0:
256,192,55875,1,0,0:0:0:0:
256,192,56090,1,8,0:0:0:0:
256,192,56197,1,0,0:0:0:0:
256,192,56411,1,0,0:0:0:0:
256,192,56625,1,8,0:0:0:0:
256,192,56732,1,8,0:0:0:0:
256,192,56840,1,0,0:0:0:0:
256,192,56982,1,0,0:0:0:0:
256,192,57125,1,0,0:0:0:0:
256,192,57268,1,8,0:0:0:0:
256,192,57482,1,4,0:0:0:0:
256,192,57696,1,8,0:0:0:0:
256,192,57803,1,8,0:0:0:0:
256,192,57910,1,0,0:0:0:0:
256,192,58124,1,8,0:0:0:0:
256,192,58446,1,0,0:0:0:0:
256,192,58553,1,0,0:0:0:0:
256,192,58660,1,8,0:0:0:0:
256,192,58767,1,8,0:0:0:0:
256,192,58874,1,8,0:0:0:0:
256,192,58982,1,0,0:0:0:0:
256,192,59303,1,8,0:0:0:0:
256,192,59410,1,0,0:0:0:0:
256,192,59517,1,8,0:0:0:0:
256,192,59624,1,8,0:0:0:0:
256,192,59732,1,0,0:0:0:0:
256,192,59839,1,0,0:0:0:0:
256,192,59946,1,8,0:0:0:0:
256,192,60053,1,0,0:0:0:0:
256,192,60267,1,8,0:0:0:0:
256,192,60410,1,8,0:0:0:0:
256,192,60553,1,8,0:0:0:0:
256,192,60696,1,0,0:0:0:0:
256,192,60910,1,0,0:0:0:0:
256,192,61124,1,8,0:0:0:0:
256,192,61232,1,8,0:0:0:0:
256,192,61339,1,0,0:0:0:0:
256,192,61553,1,8,0:0:0:0:
256,192,61874,1,0,0:0:0:0:
256,192,61982,1,0,0:0:0:0:
256,192,62089,1,8,0:0:0:0:
256,192,62196,1,8,0:0:0:0:
256,192,62303,1,8,0:0:0:0:
256,192,62410,1,0,0:0:0:0:
256,192,62732,1,8,0:0:0:0:
256,192,62839,1,0,0:0:0:0:
256,192,62946,1,8,0:0:0:0:
256,192,63053,1,8,0:0:0:0:
256,192,63160,1,0,0:0:0:0:
256,192,63267,1,0,0:0:0:0:
256,192,63374,1,8,0:0:0:0:
256,192,63482,1,0,0:0:0:0:
256,192,63696,1,8,0:0:0:0:
256,192,63839,1,8,0:0:0:0:
256,192,63982,1,8,0:0:0:0:
256,192,64124,1,0,0:0:0:0:
256,192,64339,1,0,0:0:0:0:
256,192,64446,1,8,0:0:0:0:
256,192,64660,1,8,0:0:0:0:
256,192,64767,1,0,0:0:0:0:
256,192,64982,1,0,0:0:0:0:
256,192,65089,1,0,0:0:0:0:
256,192,65303,1,0,0:0:0:0:
256,192,65517,1,8,0:0:0:0:
256,192,65624,1,8,0:0:0:0:
256,192,65732,1,0,0:0:0:0:
256,192,65839,1,8,0:0:0:0:
256,192,65946,1,8,0:0:0:0:
256,192,66053,1,4,0:0:0:0:
256,192,66267,1,0,0:0:0:0:
256,192,66374,1,8,0:0:0:0:
256,192,66481,1,8,0:0:0:0:
256,192,66588,1,0,0:0:0:0:
256,192,66695,1,0,0:0:0:0:
256,192,66803,1,8,0:0:0:0:
256,192,66910,1,0,0:0:0:0:
256,192,67124,1,8,0:0:0:0:
256,192,67267,1,8,0:0:0:0:
256,192,67410,1,8,0:0:0:0:
256,192,67553,1,0,0:0:0:0:
256,192,67767,1,0,0:0:0:0:
256,192,67981,1,8,0:0:0:0:
256,192,68088,1,8,0:0:0:0:
256,192,68195,1,0,0:0:0:0:
256,192,68410,1,8,0:0:0:0:
256,192,68731,1,0,0:0:0:0:
256,192,68838,1,0,0:0:0:0:
256,192,68945,1,8,0:0:0:0:
256,192,69053,1,8,0:0:0:0:
256,192,69160,1,8,0:0:0:0:
256,192,69267,1,0,0:0:0:0:
256,192,69374,1,8,0:0:0:0:
256,192,69588,1,8,0:0:0:0:
256,192,69695,1,0,0:0:0:0:
256,192,69803,1,8,0:0:0:0:
256,192,69910,1,8,0:0:0:0:
256,192,70017,1,0,0:0:0:0:
256,192,70124,1,0,0:0:0:0:
256,192,70231,1,8,0:0:0:0:
256,192,70338,1,0,0:0:0:0:
256,192,70553,1,8,0:0:0:0:
256,192,70695,1,8,0:0:0:0:
256,192,70838,1,8,0:0:0:0:
256,192,70981,1,0,0:0:0:0:
256,192,71195,1,4,0:0:0:0:
256,192,71409,1,8,0:0:0:0:
256,192,71623,1,0,0:0:0:0:
256,192,71730,1,8,0:0:0:0:
256,192,71945,1,8,0:0:0:0:
256,192,72159,1,8,0:0:0:0:
256,192,72266,1,0,0:0:0:0:
256,192,72480,1,8,0:0:0:0:
256,192,72587,1,0,0:0:0:0:
256,192,72695,1,12,0:0:0:0:
256,192,72909,1,8,0:0:0:0:
256,192,73123,1,0,0:0:0:0:
256,192,73230,1,8,0:0:0:0:
256,192,73445,1,8,0:0:0:0:
256,192,73659,1,8,0:0:0:0:
256,192,73766,1,0,0:0:0:0:
256,192,73980,1,8,0:0:0:0:
256,192,74087,1,8,0:0:0:0:
256,192,74195,1,4,0:0:0:0:
256,192,75909,1,8,0:0:0:0:
256,192,77623,1,4,0:0:0:0:
256,192,77837,1,8,0:0:0:0:
256,192,78052,1,0,0:0:0:0:
256,192,78266,1,0,0:0:0:0:
256,192,78480,1,8,0:0:0:0:
256,192,78695,1,0,0:0:0:0:
256,192,78909,1,8,0:0:0:0:
256,192,79123,1,8,0:0:0:0:
256,192,79337,1,0,0:0:0:0:
256,192,79552,1,8,0:0:0:0:
256,192,79766,1,0,0:0:0:0:
256,192,79980,1,0,0:0:0:0:
256,192,80195,1,8,0:0:0:0:
256,192,80409,1,0,0:0:0:0:
256,192,80623,1,8,0:0:0:0:
256,192,80837,1,8,0:0:0:0:
256,192,81052,1,0,0:0:0:0:
256,192,81266,1,8,0:0:0:0:
256,192,81480,1,0,0:0:0:0:
256,192,81695,1,0,0:0:0:0:
256,192,81909,1,8,0:0:0:0:
256,192,82123,1,0,0:0:0:0:
256,192,82337,1,8,0:0:0:0:
256,192,82552,1,8,0:0:0:0:
256,192,82766,1,0,0:0:0:0:
256,192,82980,1,8,0:0:0:0:
256,192,83195,1,0,0:0:0:0:
256,192,83409,1,0,0:0:0:0:
256,192,83623,1,8,0:0:0:0:
256,192,83837,1,0,0:0:0:0:
256,192,84052,1,0,0:0:0:0:
256,192,84123,1,0,0:0:0:0:
256,192,84195,1,0,0:0:0:0:
256,192,84266,1,0,0:0:0:0:
256,192,84337,1,0,0:0:0:0:
256,192,84480,1,12,0:0:0:0:
256,192,84695,1,0,0:0:0:0:
256,192,84802,1,0,0:0:0:0:
256,192,84909,1,8,0:0:0:0:
256,192,85123,1,0,0:0:0:0:
256,192,85337,1,8,0:0:0:0:
256,192,85445,1,0,0:0:0:0:
256,192,85659,1,0,0:0:0:0:
256,192,85766,1,8,0:0:0:0:
256,192,85980,1,0,0:0:0:0:
256,192,86195,1,8,0:0:0:0:
256,192,86302,1,0,0:0:0:0:
256,192,86516,1,0,0:0:0:0:
256,192,86623,1,8,0:0:0:0:
256,192,86837,1,0,0:0:0:0:
256,192,87052,1,8,0:0:0:0:
256,192,87159,1,0,0:0:0:0:
256,192,87373,1,0,0:0:0:0:
256,192,87480,1,8,0:0:0:0:
256,192,87695,1,0,0:0:0:0:
256,192,87802,1,0,0:0:0:0:
256,192,87909,1,8,0:0:0:0:
256,192,88016,1,0,0:0:0:0:
256,192,88230,1,0,0:0:0:0:
256,192,88337,1,8,0:0:0:0:
256,192,88552,1,0,0:0:0:0:
256,192,88766,1,8,0:0:0:0:
256,192,88873,1,0,0:0:0:0:
256,192,89087,1,0,0:0:0:0:
256,192,89195,1,8,0:0:0:0:
256,192,89302,1,0,0:0:0:0:
256,192,89409,1,0,0:0:0:0:
256,192,89516,1,8,0:0:0:0:
256,192,89623,1,0,0:0:0:0:
256,192,89837,1,8,0:0:0:0:
256,192,90052,1,0,0:0:0:0:
256,192,90266,1,0,0:0:0:0:
256,192,90480,1,8,0:0:0:0:
256,192,90623,1,8,0:0:0:0:
256,192,90766,1,0,0:0:0:0:
256,192,90909,1,8,0:0:0:0:
256,192,91052,1,0,0:0:0:0:
256,192,91337,1,8,0:0:0:0:
256,192,91479,1,8,0:0:0:0:
256,192,91622,1,0,0:0:0:0:
256,192,91765,1,0,0:0:0:0:
256,192,91908,1,8,0:0:0:0:
256,192,91979,1,0,0:0:0:0:
256,192,92051,1,0,0:0:0:0:
256,192,92194,1,8,0:0:0:0:
256,192,92479,1,0,0:0:0:0:
256,192,92622,1,0,0:0:0:0:
256,192,92765,1,8,0:0:0:0:
256,192,92837,1,8,0:0:0:0:
256,192,92908,1,0,0:0:0:0:
256,192,93051,1,8,0:0:0:0:
256,192,93194,1,8,0:0:0:0:
256,192,93337,1,0,0:0:0:0:
256,192,93479,1,0,0:0:0:0:
256,192,93622,1,8,0:0:0:0:
256,192,93694,1,0,0:0:0:0:
256,192,93765,1,8,0:0:0:0:
256,192,93908,1,0,0:0:0:0:
256,192,94194,1,8,0:0:0:0:
256,192,94337,1,8,0:0:0:0:
256,192,94479,1,0,0:0:0:0:
256,192,94551,1,0,0:0:0:0:
256,192,94622,1,0,0:0:0:0:
256,192,94765,1,8,0:0:0:0:
256,192,94908,1,8,0:0:0:0:
256,192,95051,1,0,0:0:0:0:
256,192,95194,1,0,0:0:0:0:
256,192,95337,1,8,0:0:0:0:
256,192,95408,1,0,0:0:0:0:
256,192,95479,1,0,0:0:0:0:
256,192,95622,1,8,0:0:0:0:
256,192,95908,1,0,0:0:0:0:
256,192,96051,1,0,0:0:0:0:
256,192,96194,1,8,0:0:0:0:
256,192,96265,1,8,0:0:0:0:
256,192,96337,1,0,0:0:0:0:
256,192,96479,1,8,0:0:0:0:
256,192,96622,1,8,0:0:0:0:
256,192,96765,1,0,0:0:0:0:
256,192,96908,1,0,0:0:0:0:
256,192,97051,1,8,0:0:0:0:
256,192,97122,1,0,0:0:0:0:
256,192,97194,1,8,0:0:0:0:
256,192,97337,1,0,0:0:0:0:
256,192,97622,1,8,0:0:0:0:
256,192,97765,1,8,0:0:0:0:
256,192,97908,1,0,0:0:0:0:
256,192,97979,1,0,0:0:0:0:
256,192,98051,1,0,0:0:0:0:
256,192,98194,1,8,0:0:0:0:
256,192,98337,1,8,0:0:0:0:
256,192,98479,1,0,0:0:0:0:
256,192,98622,1,0,0:0:0:0:
256,192,98765,1,8,0:0:0:0:
256,192,98837,1,0,0:0:0:0:
256,192,98908,1,0,0:0:0:0:
256,192,98979,1,0,0:0:0:0:
256,192,99051,1,8,0:0:0:0:
256,192,99337,1,0,0:0:0:0:
256,192,99479,1,0,0:0:0:0:
256,192,99622,1,8,0:0:0:0:
256,192,99694,1,8,0:0:0:0:
256,192,99765,1,0,0:0:0:0:
256,192,99837,1,0,0:0:0:0:
256,192,99908,1,8,0:0:0:0:
256,192,100051,1,8,0:0:0:0:
256,192,100194,1,0,0:0:0:0:
256,192,100337,1,0,0:0:0:0:
256,192,100479,1,8,0:0:0:0:
256,192,100551,1,8,0:0:0:0:
256,192,100622,1,0,0:0:0:0:
256,192,100694,1,8,0:0:0:0:
256,192,100765,1,0,0:0:0:0:
256,192,101051,1,8,0:0:0:0:
256,192,101194,1,8,0:0:0:0:
256,192,101337,1,0,0:0:0:0:
256,192,101408,1,0,0:0:0:0:
256,192,101479,1,0,0:0:0:0:
256,192,101551,1,0,0:0:0:0:
256,192,101622,1,8,0:0:0:0:
256,192,101765,1,0,0:0:0:0:
256,192,101908,1,8,0:0:0:0:
256,192,101979,1,8,0:0:0:0:
256,192,102051,1,0,0:0:0:0:
256,192,102194,1,8,0:0:0:0:
256,192,102265,1,8,0:0:0:0:
256,192,102337,1,0,0:0:0:0:
256,192,102408,1,0,0:0:0:0:
256,192,102479,1,8,0:0:0:0:
256,192,102622,1,8,0:0:0:0:
256,192,102765,1,0,0:0:0:0:
256,192,102837,1,0,0:0:0:0:
256,192,102908,1,8,0:0:0:0:
256,192,103051,1,0,0:0:0:0:
256,192,103122,1,0,0:0:0:0:
256,192,103194,1,0,0:0:0:0:
256,192,103337,1,12,0:0:0:0:
256,192,103551,1,8,0:0:0:0:
256,192,103658,1,0,0:0:0:0:
256,192,103765,1,8,0:0:0:0:
256,192,103979,1,0,0:0:0:0:
256,192,104087,1,0,0:0:0:0:
256,192,104194,1,8,0:0:0:0:
256,192,104301,1,8,0:0:0:0:
256,192,104408,1,0,0:0:0:0:
256,192,104622,1,0,0:0:0:0:
256,192,104729,1,8,0:0:0:0:
256,192,104837,1,0,0:0:0:0:
256,192,105051,1,8,0:0:0:0:
256,192,105158,1,8,0:0:0:0:
256,192,105265,1,0,0:0:0:0:
256,192,105372,1,0,0:0:0:0:
256,192,105479,1,8,0:0:0:0:
256,192,105587,1,8,0:0:0:0:
256,192,105694,1,0,0:0:0:0:
256,192,105908,1,0,0:0:0:0:
256,192,106015,1,8,0:0:0:0:
256,192,106122,1,0,0:0:0:0:
256,192,106229,1,0,0:0:0:0:
256,192,106337,1,8,0:0:0:0:
256,192,106444,1,8,0:0:0:0:
256,192,106551,1,0,0:0:0:0:
256,192,106658,1,0,0:0:0:0:
256,192,106765,1,12,0:0:0:0:
256,192,106979,1,8,0:0:0:0:
256,192,107087,1,0,0:0:0:0:
256,192,107194,1,8,0:0:0:0:
256,192,107408,1,0,0:0:0:0:
256,192,107515,1,0,0:0:0:0:
256,192,107622,1,8,0:0:0:0:
256,192,107729,1,8,0:0:0:0:
256,192,107837,1,0,0:0:0:0:
256,192,108051,1,0,0:0:0:0:
256,192,108158,1,8,0:0:0:0:
256,192,108265,1,0,0:0:0:0:
256,192,108479,1,8,0:0:0:0:
256,192,108587,1,8,0:0:0:0:
256,192,108694,1,0,0:0:0:0:
256,192,108801,1,0,0:0:0:0:
256,192,108908,1,8,0:0:0:0:
256,192,109015,1,8,0:0:0:0:
256,192,109122,1,0,0:0:0:0:
256,192,109337,1,0,0:0:0:0:
256,192,109444,1,8,0:0:0:0:
256,192,109551,1,0,0:0:0:0:
256,192,109658,1,0,0:0:0:0:
256,192,109765,1,8,0:0:0:0:
256,192,109872,1,8,0:0:0:0:
256,192,109979,1,0,0:0:0:0:
256,192,110087,1,0,0:0:0:0:
256,192,110194,1,12,0:0:0:0:
256,192,110408,1,8,0:0:0:0:
256,192,110515,1,0,0:0:0:0:
256,192,110622,1,8,0:0:0:0:
256,192,110837,1,0,0:0:0:0:
256,192,110944,1,0,0:0:0:0:
256,192,111051,1,8,0:0:0:0:
256,192,111158,1,8,0:0:0:0:
256,192,111265,1,0,0:0:0:0:
256,192,111479,1,0,0:0:0:0:
256,192,111587,1,8,0:0:0:0:
256,192,111694,1,0,0:0:0:0:
256,192,111908,1,8,0:0:0:0:
256,192,112015,1,8,0:0:0:0:
256,192,112122,1,0,0:0:0:0:
256,192,112229,1,0,0:0:0:0:
256,192,112337,1,8,0:0:0:0:
256,192,112444,1,8,0:0:0:0:
256,192,112551,1,0,0:0:0:0:
256,192,112765,1,0,0:0:0:0:
256,192,112872,1,8,0:0:0:0:
256,192,112979,1,0,0:0:0:0:
256,192,113087,1,0,0:0:0:0:
256,192,113194,1,8,0:0:0:0:
256,192,113301,1,8,0:0:0:0:
256,192,113408,1,0,0:0:0:0:
256,192,113515,1,0,0:0:0:0:
256,192,113622,1,12,0:0:0:0:
256,192,113837,1,0,0:0:0:0:
256,192,113944,1,8,0:0:0:0:
256,192,114158,1,0,0:0:0:0:
256,192,114265,1,8,0:0:0:0:
256,192,114479,1,0,0:0:0:0:
256,192,114587,1,0,0:0:0:0:
256,192,114694,1,8,0:0:0:0:
256,192,114801,1,8,0:0:0:0:
256,192,114908,1,0,0:0:0:0:
256,192,115015,1,0,0:0:0:0:
256,192,115122,1,8,0:0:0:0:
256,192,115229,1,0,0:0:0:0:
256,192,115337,1,8,0:0:0:0:
256,192,115551,1,0,0:0:0:0:
256,192,115658,1,8,0:0:0:0:
256,192,115872,1,0,0:0:0:0:
256,192,115979,1,8,0:0:0:0:
256,192,116194,1,8,0:0:0:0:
256,192,116301,1,0,0:0:0:0:
256,192,116408,1,8,0:0:0:0:
256,192,116515,1,0,0:0:0:0:
256,192,116622,1,8,0:0:0:0:
256,192,116729,1,8,0:0:0:0:
256,192,116837,1,0,0:0:0:0:
256,192,116944,1,8,0:0:0:0:
256,192,117051,1,4,0:0:0:0:
256,192,117372,1,0,0:0:0:0:
256,192,118337,1,8,0:0:0:0:
256,192,118551,1,8,0:0:0:0:
256,192,118765,1,0,0:0:0:0:
256,192,119087,1,0,0:0:0:0:
256,192,119622,1,8,0:0:0:0:
256,192,120479,1,0,0:0:0:0:
256,192,120801,1,0,0:0:0:0:
256,192,121765,1,8,0:0:0:0:
256,192,122194,1,0,0:0:0:0:
256,192,122515,1,0,0:0:0:0:
256,192,123051,1,8,0:0:0:0:
256,192,123908,1,0,0:0:0:0:
256,192,125194,1,8,0:0:0:0:
256,192,125408,1,8,0:0:0:0:
256,192,125622,1,0,0:0:0:0:
256,192,126479,1,8,0:0:0:0:
256,192,127337,1,0,0:0:0:0:
256,192,128622,1,8,0:0:0:0:
256,192,129051,1,0,0:0:0:0:
256,192,129908,1,8,0:0:0:0:
