osu file format v14

[General]
AudioFilename: audio.mp3
AudioLeadIn: 0
PreviewTime: 91523
Countdown: 0
SampleSet: None
StackLeniency: 0.2
Mode: 1
LetterboxInBreaks: 0
WidescreenStoryboard: 1

[Editor]
Bookmarks: 457,15457,34311,52524,71381,89809,103523,117238
DistanceSpacing: 5.5
BeatDivisor: 4
GridSize: 32
TimelineZoom: 1.950004

[Metadata]
Title:Shounen wa Sora o Tadoru
TitleUnicode:少年は空を辿る
Artist:Power Of Nature
ArtistUnicode:Power Of Nature
Creator:DDM
Version:muzukashii (wip
Source:pop'n music 20 fantasia
Tags:PON ムラクモ MURAKUMO MZD eimy jubeat saucer REFLEC BEAT colette SOUND VOLTEX SDVX II -infinite infection- beatmania IIDX 22 PENDUAL
BeatmapID:1653540
BeatmapSetID:650594

[Difficulty]
HPDrainRate:5
CircleSize:2
OverallDifficulty:5
ApproachRate:10
SliderMultiplier:1.4
SliderTickRate:1

[Events]
//Background and Video events
0,0,"mzddddd.jpg",0,75
//Break Periods
//Storyboard Layer 0 (Background)
//Storyboard Layer 1 (Fail)
//Storyboard Layer 2 (Pass)
//Storyboard Layer 3 (Foreground)
//Storyboard Sound Samples

[TimingPoints]
457,428.571428571429,4,1,0,85,1,0
13957,428.571428571429,4,1,0,85,1,0
15457,428.571428571429,4,1,0,85,1,0
17171,428.571428571429,5,1,0,85,1,0
19313,428.571428571429,4,1,0,85,1,0
21027,-100,4,1,0,65,0,0
24027,428.571428571429,4,1,0,65,1,0
27669,428.571428571429,4,1,0,65,1,0
30669,428.571428571429,4,1,0,65,1,0
34311,428.571428571429,4,1,0,75,1,0
40739,428.571428571429,4,1,0,75,1,0
43739,428.571428571429,4,1,0,80,1,0
45239,428.571428571429,4,1,0,80,1,0
46739,428.571428571429,4,1,0,80,1,0
48239,428.571428571429,4,1,0,80,1,0
52524,428.571428571429,4,1,0,65,1,0
56809,-100,4,1,0,75,0,0
71381,-100,4,1,0,85,0,0
72881,428.571428571429,4,1,0,85,1,0
74381,428.571428571429,4,1,0,75,1,0
78666,-100,4,1,0,65,0,0
84666,-100,4,1,0,75,0,0
91523,-100,4,1,0,90,0,1
103523,-100,4,1,0,80,0,0
118523,-100,4,1,0,65,0,0
125381,-100,4,1,0,55,0,0
131166,-100,4,1,0,40,0,0
131809,-100,4,1,0,30,0,0
132452,-100,4,1,0,15,0,0

[HitObjects]
256,192,457,12,0,3671,0:0:0:0:
256,192,3885,5,0,0:0:0:0:
256,192,3992,1,8,0:0:0:0:
256,192,4099,1,0,0:0:0:0:
256,192,4314,1,8,0:0:0:0:
256,192,4528,1,0,0:0:0:0:
256,192,4742,1,0,0:0:0:0:
256,192,4849,1,8,0:0:0:0:
256,192,4957,1,0,0:0:0:0:
256,192,5171,1,8,0:0:0:0:
256,192,5278,1,8,0:0:0:0:
256,192,5385,1,8,0:0:0:0:
256,192,5599,5,0,0:0:0:0:
256,192,5707,1,8,0:0:0:0:
256,192,5921,1,0,0:0:0:0:
256,192,6028,1,8,0:0:0:0:
256,192,6242,1,0,0:0:0:0:
256,192,6457,1,0,0:0:0:0:
256,192,6564,1,8,0:0:0:0:
256,192,6778,1,0,0:0:0:0:
256,192,6885,1,8,0:0:0:0:
256,192,6992,1,8,0:0:0:0:
256,192,7099,1,8,0:0:0:0:
256,192,7314,5,0,0:0:0:0:
256,192,7421,1,8,0:0:0:0:
256,192,7528,1,0,0:0:0:0:
256,192,7742,1,8,0:0:0:0:
256,192,7957,1,0,0:0:0:0:
256,192,8171,1,0,0:0:0:0:
256,192,8278,1,8,0:0:0:0:
256,192,8385,1,0,0:0:0:0:
256,192,8599,1,8,0:0:0:0:
256,192,8707,1,8,0:0:0:0:
256,192,8814,1,8,0:0:0:0:
256,192,8921,1,8,0:0:0:0:
256,192,9028,5,0,0:0:0:0:
256,192,9671,1,0,0:0:0:0:
256,192,10207,1,0,0:0:0:0:
256,192,10849,1,0,0:0:0:0:
256,192,11278,1,0,0:0:0:0:
256,192,11921,1,0,0:0:0:0:
256,192,12457,5,8,0:0:0:0:
256,192,12671,1,8,0:0:0:0:
256,192,12992,1,0,0:0:0:0:
256,192,13207,1,8,0:0:0:0:
256,192,13421,1,8,0:0:0:0:
256,192,13742,1,0,0:0:0:0:
256,192,13849,1,0,0:0:0:0:
256,192,13957,1,8,0:0:0:0:
256,192,14171,1,8,0:0:0:0:
256,192,14492,1,0,0:0:0:0:
256,192,14707,1,8,0:0:0:0:
256,192,14921,1,8,0:0:0:0:
256,192,15242,1,0,0:0:0:0:
256,192,15349,1,8,0:0:0:0:
256,192,15457,5,0,0:0:0:0:
256,192,15885,1,0,0:0:0:0:
256,192,16314,1,8,0:0:0:0:
256,192,16528,1,8,0:0:0:0:
256,192,16742,1,0,0:0:0:0:
256,192,16957,1,0,0:0:0:0:
256,192,17278,1,0,0:0:0:0:
256,192,17385,1,0,0:0:0:0:
256,192,17492,1,0,0:0:0:0:
256,192,17599,1,8,0:0:0:0:
256,192,17813,1,0,0:0:0:0:
256,192,18028,1,8,0:0:0:0:
256,192,18135,1,8,0:0:0:0:
256,192,18242,1,0,0:0:0:0:
256,192,18456,1,0,0:0:0:0:
256,192,18671,1,8,0:0:0:0:
256,192,18885,1,0,0:0:0:0:
256,192,18992,1,0,0:0:0:0:
256,192,19099,1,8,0:0:0:0:
256,192,19313,5,0,0:0:0:0:
256,192,19741,1,8,0:0:0:0:
256,192,20170,1,0,0:0:0:0:
256,192,20384,1,8,0:0:0:0:
256,192,20598,1,0,0:0:0:0:
256,192,20813,1,8,0:0:0:0:
256,192,21027,5,0,0:0:0:0:
256,192,21884,1,0,0:0:0:0:
256,192,22741,1,8,0:0:0:0:
256,192,23598,1,8,0:0:0:0:
256,192,24027,5,0,0:0:0:0:
256,192,27027,1,0,0:0:0:0:
256,192,27241,1,8,0:0:0:0:
256,192,27455,1,8,0:0:0:0:
256,192,27562,1,8,0:0:0:0:
256,192,27669,5,0,0:0:0:0:
256,192,28526,1,0,0:0:0:0:
256,192,29383,1,8,0:0:0:0:
256,192,30240,1,8,0:0:0:0:
256,192,30669,5,0,0:0:0:0:
256,192,33669,1,8,0:0:0:0:
256,192,33776,1,0,0:0:0:0:
256,192,33883,1,8,0:0:0:0:
256,192,33990,1,8,0:0:0:0:
256,192,34097,1,0,0:0:0:0:
256,192,34204,1,0,0:0:0:0:
256,192,34311,5,8,0:0:0:0:
256,192,34525,1,8,0:0:0:0:
256,192,34846,1,8,0:0:0:0:
256,192,35061,1,8,0:0:0:0:
256,192,35275,1,0,0:0:0:0:
256,192,35596,1,0,0:0:0:0:
256,192,35811,1,0,0:0:0:0:
256,192,35918,1,0,0:0:0:0:
256,192,36025,5,8,0:0:0:0:
256,192,36239,1,8,0:0:0:0:
256,192,36561,1,8,0:0:0:0:
256,192,36775,1,8,0:0:0:0:
256,192,36989,1,0,0:0:0:0:
256,192,37096,1,8,0:0:0:0:
256,192,37311,1,8,0:0:0:0:
256,192,37418,1,0,0:0:0:0:
256,192,37525,1,8,0:0:0:0:
256,192,37632,1,8,0:0:0:0:
256,192,37739,5,0,0:0:0:0:
256,192,37846,1,0,0:0:0:0:
256,192,38061,1,8,0:0:0:0:
256,192,38168,1,0,0:0:0:0:
256,192,38382,1,8,0:0:0:0:
256,192,38489,1,0,0:0:0:0:
256,192,38703,1,0,0:0:0:0:
256,192,38811,1,0,0:0:0:0:
256,192,38918,1,8,0:0:0:0:
256,192,39025,1,0,0:0:0:0:
256,192,39239,1,8,0:0:0:0:
256,192,39346,1,8,0:0:0:0:
256,192,39561,1,0,0:0:0:0:
256,192,39668,1,0,0:0:0:0:
256,192,39775,1,8,0:0:0:0:
256,192,39882,1,8,0:0:0:0:
256,192,40096,1,0,0:0:0:0:
256,192,40203,1,0,0:0:0:0:
256,192,40311,1,8,0:0:0:0:
256,192,40418,1,8,0:0:0:0:
256,192,40525,1,8,0:0:0:0:
256,192,40739,5,0,0:0:0:0:
256,192,40846,1,0,0:0:0:0:
256,192,41060,1,8,0:0:0:0:
256,192,41167,1,0,0:0:0:0:
256,192,41381,1,8,0:0:0:0:
256,192,41489,1,0,0:0:0:0:
256,192,41703,1,0,0:0:0:0:
256,192,41810,1,0,0:0:0:0:
256,192,41917,1,8,0:0:0:0:
256,192,42024,1,0,0:0:0:0:
256,192,42239,1,8,0:0:0:0:
256,192,42346,1,8,0:0:0:0:
256,192,42560,1,0,0:0:0:0:
256,192,42667,1,0,0:0:0:0:
256,192,42774,1,8,0:0:0:0:
256,192,42881,1,8,0:0:0:0:
256,192,43096,1,0,0:0:0:0:
256,192,43203,1,0,0:0:0:0:
256,192,43310,1,8,0:0:0:0:
256,192,43417,1,8,0:0:0:0:
256,192,43524,1,8,0:0:0:0:
256,192,43739,5,0,0:0:0:0:
256,192,43846,1,8,0:0:0:0:
256,192,43953,1,8,0:0:0:0:
256,192,44060,1,0,0:0:0:0:
256,192,44167,1,0,0:0:0:0:
256,192,44381,1,8,0:0:0:0:
256,192,44489,1,8,0:0:0:0:
256,192,44810,1,0,0:0:0:0:
256,192,45024,1,8,0:0:0:0:
256,192,45239,5,0,0:0:0:0:
256,192,45346,1,0,0:0:0:0:
256,192,45453,1,8,0:0:0:0:
256,192,45560,1,8,0:0:0:0:
256,192,45667,1,0,0:0:0:0:
256,192,45881,1,8,0:0:0:0:
256,192,45989,1,0,0:0:0:0:
256,192,46310,1,0,0:0:0:0:
256,192,46524,1,8,0:0:0:0:
256,192,46739,5,0,0:0:0:0:
256,192,46846,1,8,0:0:0:0:
256,192,46953,1,8,0:0:0:0:
256,192,47060,1,0,0:0:0:0:
256,192,47167,1,0,0:0:0:0:
256,192,47381,1,8,0:0:0:0:
256,192,47489,1,8,0:0:0:0:
256,192,47810,1,0,0:0:0:0:
256,192,47917,1,0,0:0:0:0:
256,192,48024,1,8,0:0:0:0:
256,192,48131,1,8,0:0:0:0:
256,192,48239,5,0,0:0:0:0:
256,192,48346,1,8,0:0:0:0:
256,192,48453,1,8,0:0:0:0:
256,192,48560,1,8,0:0:0:0:
256,192,48667,1,0,0:0:0:0:
256,192,48881,1,8,0:0:0:0:
256,192,48989,1,0,0:0:0:0:
256,192,49310,1,0,0:0:0:0:
256,192,49417,1,8,0:0:0:0:
256,192,49524,1,0,0:0:0:0:
256,192,49631,1,0,0:0:0:0:
256,192,49739,1,0,0:0:0:0:
256,192,49953,5,8,0:0:0:0:
256,192,50167,1,8,0:0:0:0:
256,192,50381,1,0,0:0:0:0:
256,192,50810,1,8,0:0:0:0:
256,192,51024,1,8,0:0:0:0:
256,192,51239,1,0,0:0:0:0:
256,192,51346,1,0,0:0:0:0:
256,192,51667,1,8,0:0:0:0:
256,192,51881,1,8,0:0:0:0:
256,192,52096,1,0,0:0:0:0:
256,192,52524,5,0,0:0:0:0:
256,192,52631,1,0,0:0:0:0:
256,192,52845,1,8,0:0:0:0:
256,192,52952,1,8,0:0:0:0:
256,192,53166,1,0,0:0:0:0:
256,192,53274,1,0,0:0:0:0:
256,192,53381,1,8,0:0:0:0:
256,192,53488,1,8,0:0:0:0:
256,192,53702,1,0,0:0:0:0:
256,192,53809,1,0,0:0:0:0:
256,192,54024,1,8,0:0:0:0:
256,192,54131,1,8,0:0:0:0:
256,192,54345,1,0,0:0:0:0:
256,192,54452,1,8,0:0:0:0:
256,192,54666,1,0,0:0:0:0:
256,192,54774,1,8,0:0:0:0:
256,192,54988,1,0,0:0:0:0:
256,192,55095,1,8,0:0:0:0:
256,192,55309,1,8,0:0:0:0:
256,192,55524,1,8,0:0:0:0:
256,192,55738,1,8,0:0:0:0:
256,192,55952,5,8,0:0:0:0:
256,192,56059,1,0,0:0:0:0:
256,192,56274,1,8,0:0:0:0:
256,192,56381,1,0,0:0:0:0:
256,192,56595,1,8,0:0:0:0:
256,192,56702,1,8,0:0:0:0:
256,192,56809,1,0,0:0:0:0:
256,192,57024,1,8,0:0:0:0:
256,192,57238,1,8,0:0:0:0:
256,192,57345,1,8,0:0:0:0:
256,192,57452,1,8,0:0:0:0:
256,192,57559,1,8,0:0:0:0:
256,192,57666,5,0,0:0:0:0:
256,192,57774,1,0,0:0:0:0:
256,192,57881,1,0,0:0:0:0:
256,192,57988,1,8,0:0:0:0:
256,192,58095,1,0,0:0:0:0:
256,192,58309,1,8,0:0:0:0:
256,192,58416,1,8,0:0:0:0:
256,192,58631,1,0,0:0:0:0:
256,192,58738,1,0,0:0:0:0:
256,192,58845,1,8,0:0:0:0:
256,192,58952,1,8,0:0:0:0:
256,192,59166,1,8,0:0:0:0:
256,192,59274,1,0,0:0:0:0:
256,192,59488,1,0,0:0:0:0:
256,192,59595,1,8,0:0:0:0:
256,192,59702,1,8,0:0:0:0:
256,192,59809,1,8,0:0:0:0:
256,192,60024,1,0,0:0:0:0:
256,192,60131,1,8,0:0:0:0:
256,192,60345,1,8,0:0:0:0:
256,192,60452,1,0,0:0:0:0:
256,192,60613,1,0,0:0:0:0:
256,192,60774,1,0,0:0:0:0:
256,192,60881,1,8,0:0:0:0:
256,192,60988,1,8,0:0:0:0:
256,192,61095,5,0,0:0:0:0:
256,192,61202,1,0,0:0:0:0:
256,192,61309,1,8,0:0:0:0:
256,192,61416,1,0,0:0:0:0:
256,192,61524,1,8,0:0:0:0:
256,192,61738,1,8,0:0:0:0:
256,192,61845,1,0,0:0:0:0:
256,192,62059,1,0,0:0:0:0:
256,192,62166,1,8,0:0:0:0:
256,192,62274,1,8,0:0:0:0:
256,192,62381,1,0,0:0:0:0:
256,192,62595,1,8,0:0:0:0:
256,192,62702,1,0,0:0:0:0:
256,192,62916,1,0,0:0:0:0:
256,192,63024,1,8,0:0:0:0:
256,192,63131,1,8,0:0:0:0:
256,192,63238,1,8,0:0:0:0:
256,192,63452,1,0,0:0:0:0:
256,192,63559,1,8,0:0:0:0:
256,192,63774,1,8,0:0:0:0:
256,192,63881,1,0,0:0:0:0:
256,192,64041,1,0,0:0:0:0:
256,192,64202,1,0,0:0:0:0:
256,192,64309,1,8,0:0:0:0:
256,192,64416,1,8,0:0:0:0:
256,192,64524,5,0,0:0:0:0:
256,192,65809,1,0,0:0:0:0:
256,192,65916,1,8,0:0:0:0:
256,192,66024,1,8,0:0:0:0:
256,192,66131,1,8,0:0:0:0:
256,192,66238,1,8,0:0:0:0:
256,192,66452,1,0,0:0:0:0:
256,192,66559,1,8,0:0:0:0:
256,192,66666,1,8,0:0:0:0:
256,192,66881,1,0,0:0:0:0:
256,192,66988,1,8,0:0:0:0:
256,192,67202,1,8,0:0:0:0:
256,192,67309,1,0,0:0:0:0:
256,192,67470,1,0,0:0:0:0:
256,192,67631,1,0,0:0:0:0:
256,192,67738,1,8,0:0:0:0:
256,192,67845,1,8,0:0:0:0:
256,192,67952,5,0,0:0:0:0:
256,192,68059,1,0,0:0:0:0:
256,192,68166,1,8,0:0:0:0:
256,192,68274,1,0,0:0:0:0:
256,192,68381,1,8,0:0:0:0:
256,192,68595,1,8,0:0:0:0:
256,192,68702,1,0,0:0:0:0:
256,192,68916,1,0,0:0:0:0:
256,192,69024,1,8,0:0:0:0:
256,192,69131,1,8,0:0:0:0:
256,192,69238,1,0,0:0:0:0:
256,192,69452,1,8,0:0:0:0:
256,192,69559,1,0,0:0:0:0:
256,192,69774,1,0,0:0:0:0:
256,192,69881,1,8,0:0:0:0:
256,192,69988,1,8,0:0:0:0:
256,192,70095,1,8,0:0:0:0:
256,192,70309,1,0,0:0:0:0:
256,192,70416,1,8,0:0:0:0:
256,192,70631,1,8,0:0:0:0:
256,192,70738,1,0,0:0:0:0:
256,192,70899,1,0,0:0:0:0:
256,192,71059,1,0,0:0:0:0:
256,192,71166,1,8,0:0:0:0:
256,192,71274,1,8,0:0:0:0:
256,192,71381,5,8,0:0:0:0:
256,192,71595,1,8,0:0:0:0:
256,192,71809,1,0,0:0:0:0:
256,192,71916,1,8,0:0:0:0:
256,192,72131,1,8,0:0:0:0:
256,192,72345,1,8,0:0:0:0:
256,192,72666,1,0,0:0:0:0:
256,192,72774,1,0,0:0:0:0:
256,192,72881,1,8,0:0:0:0:
256,192,73095,1,8,0:0:0:0:
256,192,73309,1,0,0:0:0:0:
256,192,73416,1,8,0:0:0:0:
256,192,73631,1,8,0:0:0:0:
256,192,73845,1,8,0:0:0:0:
256,192,74166,1,0,0:0:0:0:
256,192,74273,1,8,0:0:0:0:
256,192,74381,5,0,0:0:0:0:
256,192,74595,1,0,0:0:0:0:
256,192,74702,1,8,0:0:0:0:
256,192,74809,1,0,0:0:0:0:
256,192,74916,1,0,0:0:0:0:
256,192,75023,1,8,0:0:0:0:
256,192,75238,1,0,0:0:0:0:
256,192,75345,1,8,0:0:0:0:
256,192,75452,1,8,0:0:0:0:
256,192,75666,1,8,0:0:0:0:
256,192,75773,1,0,0:0:0:0:
256,192,75881,1,8,0:0:0:0:
256,192,76095,1,0,0:0:0:0:
256,192,76202,1,8,0:0:0:0:
256,192,76416,1,8,0:0:0:0:
256,192,76523,1,0,0:0:0:0:
256,192,76738,1,8,0:0:0:0:
256,192,76952,1,8,0:0:0:0:
256,192,77059,1,8,0:0:0:0:
256,192,77166,1,0,0:0:0:0:
256,192,77273,1,0,0:0:0:0:
256,192,77381,1,8,0:0:0:0:
256,192,77488,1,0,0:0:0:0:
256,192,77595,1,8,0:0:0:0:
256,192,77702,1,0,0:0:0:0:
256,192,77809,5,12,0:0:0:0:
256,192,78666,1,8,0:0:0:0:
256,192,78881,1,0,0:0:0:0:
256,192,79095,1,8,0:0:0:0:
256,192,79309,1,8,0:0:0:0:
256,192,79523,1,0,0:0:0:0:
256,192,80381,1,8,0:0:0:0:
256,192,81238,1,8,0:0:0:0:
256,192,82523,1,0,0:0:0:0:
256,192,82952,1,0,0:0:0:0:
256,192,83809,1,8,0:0:0:0:
256,192,84238,1,0,0:0:0:0:
256,192,84345,1,0,0:0:0:0:
256,192,84452,1,0,0:0:0:0:
256,192,84666,5,12,0:0:0:0:
256,192,84881,1,8,0:0:0:0:
256,192,85095,1,0,0:0:0:0:
256,192,85309,1,0,0:0:0:0:
256,192,85416,1,0,0:0:0:0:
256,192,85523,1,8,0:0:0:0:
256,192,85738,1,0,0:0:0:0:
256,192,85952,1,8,0:0:0:0:
256,192,86166,1,8,0:0:0:0:
256,192,86381,5,0,0:0:0:0:
256,192,86488,1,8,0:0:0:0:
256,192,86702,1,0,0:0:0:0:
256,192,86809,1,8,0:0:0:0:
256,192,87023,1,0,0:0:0:0:
256,192,87238,1,8,0:0:0:0:
256,192,87452,1,8,0:0:0:0:
256,192,87666,1,0,0:0:0:0:
256,192,87773,1,0,0:0:0:0:
256,192,87881,1,8,0:0:0:0:
256,192,88095,1,8,0:0:0:0:
256,192,88202,1,8,0:0:0:0:
256,192,88309,1,0,0:0:0:0:
256,192,88523,1,8,0:0:0:0:
256,192,88738,1,0,0:0:0:0:
256,192,88952,1,0,0:0:0:0:
256,192,89059,1,8,0:0:0:0:
256,192,89273,1,0,0:0:0:0:
256,192,89381,1,8,0:0:0:0:
256,192,89595,1,8,0:0:0:0:
256,192,89702,1,8,0:0:0:0:
256,192,89809,5,0,0:0:0:0:
256,192,89952,1,0,0:0:0:0:
256,192,90023,1,0,0:0:0:0:
256,192,90095,1,0,0:0:0:0:
256,192,90238,1,0,0:0:0:0:
256,192,90381,1,0,0:0:0:0:
256,192,90523,1,0,0:0:0:0:
256,192,90595,1,0,0:0:0:0:
256,192,90666,1,8,0:0:0:0:
256,192,90809,1,8,0:0:0:0:
256,192,90952,1,0,0:0:0:0:
256,192,91095,1,8,0:0:0:0:
256,192,91238,1,8,0:0:0:0:
256,192,91381,1,8,0:0:0:0:
256,192,91523,5,0,0:0:0:0:
256,192,91666,1,0,0:0:0:0:
256,192,91809,1,8,0:0:0:0:
256,192,91952,1,8,0:0:0:0:
256,192,92095,1,8,0:0:0:0:
256,192,92166,1,0,0:0:0:0:
256,192,92238,1,8,0:0:0:0:
256,192,92381,1,0,0:0:0:0:
256,192,92523,1,0,0:0:0:0:
256,192,92666,1,8,0:0:0:0:
256,192,92809,1,8,0:0:0:0:
256,192,92952,1,0,0:0:0:0:
256,192,93023,1,8,0:0:0:0:
256,192,93095,1,0,0:0:0:0:
256,192,93238,5,0,0:0:0:0:
256,192,93381,1,0,0:0:0:0:
256,192,93523,1,8,0:0:0:0:
256,192,93666,1,8,0:0:0:0:
256,192,93809,1,0,0:0:0:0:
256,192,93881,1,8,0:0:0:0:
256,192,93952,1,8,0:0:0:0:
256,192,94095,1,0,0:0:0:0:
256,192,94238,1,0,0:0:0:0:
256,192,94381,1,8,0:0:0:0:
256,192,94523,1,8,0:0:0:0:
256,192,94666,1,0,0:0:0:0:
256,192,94738,1,0,0:0:0:0:
256,192,94809,1,8,0:0:0:0:
256,192,94952,5,0,0:0:0:0:
256,192,95095,1,0,0:0:0:0:
256,192,95238,1,8,0:0:0:0:
256,192,95381,1,8,0:0:0:0:
256,192,95523,1,8,0:0:0:0:
256,192,95595,1,0,0:0:0:0:
256,192,95666,1,8,0:0:0:0:
256,192,95809,1,0,0:0:0:0:
256,192,95952,1,0,0:0:0:0:
256,192,96095,1,8,0:0:0:0:
256,192,96238,1,8,0:0:0:0:
256,192,96381,1,0,0:0:0:0:
256,192,96452,1,8,0:0:0:0:
256,192,96523,1,0,0:0:0:0:
256,192,96666,5,0,0:0:0:0:
256,192,96809,1,0,0:0:0:0:
256,192,96952,1,8,0:0:0:0:
256,192,97095,1,8,0:0:0:0:
256,192,97238,1,0,0:0:0:0:
256,192,97309,1,8,0:0:0:0:
256,192,97381,1,8,0:0:0:0:
256,192,97523,1,0,0:0:0:0:
256,192,97666,1,0,0:0:0:0:
256,192,97809,1,8,0:0:0:0:
256,192,97952,1,8,0:0:0:0:
256,192,98095,1,0,0:0:0:0:
256,192,98166,1,0,0:0:0:0:
256,192,98238,1,8,0:0:0:0:
256,192,98381,5,0,0:0:0:0:
256,192,98452,1,0,0:0:0:0:
256,192,98523,1,0,0:0:0:0:
256,192,98666,1,8,0:0:0:0:
256,192,98809,1,0,0:0:0:0:
256,192,98952,1,8,0:0:0:0:
256,192,99023,1,0,0:0:0:0:
256,192,99095,1,8,0:0:0:0:
256,192,99166,1,8,0:0:0:0:
256,192,99238,1,0,0:0:0:0:
256,192,99381,1,0,0:0:0:0:
256,192,99452,1,8,0:0:0:0:
256,192,99523,1,8,0:0:0:0:
256,192,99666,1,0,0:0:0:0:
256,192,99809,1,8,0:0:0:0:
256,192,99881,1,8,0:0:0:0:
256,192,99952,1,0,0:0:0:0:
256,192,100095,5,8,0:0:0:0:
256,192,100238,1,8,0:0:0:0:
256,192,100309,1,0,0:0:0:0:
256,192,100381,1,0,0:0:0:0:
256,192,100523,1,0,0:0:0:0:
256,192,100595,1,0,0:0:0:0:
256,192,100666,1,8,0:0:0:0:
256,192,100738,1,8,0:0:0:0:
256,192,100809,1,0,0:0:0:0:
256,192,100952,1,8,0:0:0:0:
256,192,101095,1,0,0:0:0:0:
256,192,101238,1,0,0:0:0:0:
256,192,101309,1,0,0:0:0:0:
256,192,101381,1,8,0:0:0:0:
256,192,101452,1,0,0:0:0:0:
256,192,101523,1,8,0:0:0:0:
256,192,101666,1,0,0:0:0:0:
256,192,101809,5,8,0:0:0:0:
256,192,101952,1,8,0:0:0:0:
256,192,102023,1,8,0:0:0:0:
256,192,102095,1,0,0:0:0:0:
256,192,102238,1,8,0:0:0:0:
256,192,102381,1,8,0:0:0:0:
256,192,102452,1,0,0:0:0:0:
256,192,102523,1,0,0:0:0:0:
256,192,102666,1,0,0:0:0:0:
256,192,102809,1,0,0:0:0:0:
256,192,102881,1,8,0:0:0:0:
256,192,102952,1,0,0:0:0:0:
256,192,103095,1,0,0:0:0:0:
256,192,103166,1,8,0:0:0:0:
256,192,103238,1,8,0:0:0:0:
256,192,103381,1,8,0:0:0:0:
256,192,103452,1,8,0:0:0:0:
256,192,103523,5,0,0:0:0:0:
256,192,103631,1,0,0:0:0:0:
256,192,103738,1,8,0:0:0:0:
256,192,103845,1,0,0:0:0:0:
256,192,104059,1,8,0:0:0:0:
256,192,104166,1,0,0:0:0:0:
256,192,104381,1,8,0:0:0:0:
256,192,104488,1,8,0:0:0:0:
256,192,104595,1,0,0:0:0:0:
256,192,104809,1,0,0:0:0:0:
256,192,104916,1,0,0:0:0:0:
256,192,105023,1,8,0:0:0:0:
256,192,105238,1,8,0:0:0:0:
256,192,105345,1,8,0:0:0:0:
256,192,105452,1,0,0:0:0:0:
256,192,105559,1,8,0:0:0:0:
256,192,105666,1,0,0:0:0:0:
256,192,105881,1,8,0:0:0:0:
256,192,106095,1,0,0:0:0:0:
256,192,106202,1,0,0:0:0:0:
256,192,106309,1,8,0:0:0:0:
256,192,106523,1,8,0:0:0:0:
256,192,106631,1,8,0:0:0:0:
256,192,106738,1,0,0:0:0:0:
256,192,106952,5,0,0:0:0:0:
256,192,107166,1,8,0:0:0:0:
256,192,107273,1,0,0:0:0:0:
256,192,107381,1,0,0:0:0:0:
256,192,107488,1,8,0:0:0:0:
256,192,107595,1,0,0:0:0:0:
256,192,107809,1,8,0:0:0:0:
256,192,107916,1,0,0:0:0:0:
256,192,108023,1,8,0:0:0:0:
256,192,108238,1,0,0:0:0:0:
256,192,108345,1,0,0:0:0:0:
256,192,108452,1,8,0:0:0:0:
256,192,108666,1,8,0:0:0:0:
256,192,108881,1,0,0:0:0:0:
256,192,108988,1,0,0:0:0:0:
256,192,109095,1,8,0:0:0:0:
256,192,109202,1,0,0:0:0:0:
256,192,109309,1,8,0:0:0:0:
256,192,109523,1,0,0:0:0:0:
256,192,109631,1,0,0:0:0:0:
256,192,109738,1,8,0:0:0:0:
256,192,109952,1,8,0:0:0:0:
256,192,110059,1,8,0:0:0:0:
256,192,110166,1,0,0:0:0:0:
256,192,110381,5,0,0:0:0:0:
256,192,110488,1,0,0:0:0:0:
256,192,110595,1,8,0:0:0:0:
256,192,110702,1,0,0:0:0:0:
256,192,110916,1,8,0:0:0:0:
256,192,111023,1,0,0:0:0:0:
256,192,111238,1,8,0:0:0:0:
256,192,111345,1,0,0:0:0:0:
256,192,111452,1,0,0:0:0:0:
256,192,111559,1,8,0:0:0:0:
256,192,111666,1,0,0:0:0:0:
256,192,111881,1,8,0:0:0:0:
256,192,112095,1,8,0:0:0:0:
256,192,112202,1,8,0:0:0:0:
256,192,112309,1,0,0:0:0:0:
256,192,112416,1,0,0:0:0:0:
256,192,112523,1,8,0:0:0:0:
256,192,112738,1,8,0:0:0:0:
256,192,112952,1,0,0:0:0:0:
256,192,113059,1,0,0:0:0:0:
256,192,113166,1,8,0:0:0:0:
256,192,113381,1,8,0:0:0:0:
256,192,113488,1,8,0:0:0:0:
256,192,113595,1,0,0:0:0:0:
256,192,113809,5,0,0:0:0:0:
256,192,113916,1,0,0:0:0:0:
256,192,114023,1,8,0:0:0:0:
256,192,114131,1,0,0:0:0:0:
256,192,114345,1,8,0:0:0:0:
256,192,114452,1,0,0:0:0:0:
256,192,114559,1,0,0:0:0:0:
256,192,114666,1,8,0:0:0:0:
256,192,114773,1,0,0:0:0:0:
256,192,114988,1,8,0:0:0:0:
256,192,115095,1,0,0:0:0:0:
256,192,115202,1,0,0:0:0:0:
256,192,115309,1,8,0:0:0:0:
256,192,115523,1,8,0:0:0:0:
256,192,115631,1,8,0:0:0:0:
256,192,115738,1,0,0:0:0:0:
256,192,115845,1,8,0:0:0:0:
256,192,116059,1,0,0:0:0:0:
256,192,116166,1,8,0:0:0:0:
256,192,116381,1,0,0:0:0:0:
256,192,116488,1,0,0:0:0:0:
256,192,116595,1,8,0:0:0:0:
256,192,116702,1,0,0:0:0:0:
256,192,116809,1,8,0:0:0:0:
256,192,116916,1,8,0:0:0:0:
256,192,117023,1,0,0:0:0:0:
256,192,117238,5,4,0:0:0:0:
256,192,118523,1,8,0:0:0:0:
256,192,118738,1,8,0:0:0:0:
256,192,118952,1,0,0:0:0:0:
256,192,119166,1,8,0:0:0:0:
256,192,119381,1,8,0:0:0:0:
256,192,119595,1,8,0:0:0:0:
256,192,119809,1,0,0:0:0:0:
256,192,120023,1,0,0:0:0:0:
256,192,120238,1,8,0:0:0:0:
256,192,120452,1,8,0:0:0:0:
256,192,120666,1,0,0:0:0:0:
256,192,121095,1,8,0:0:0:0:
256,192,121309,1,0,0:0:0:0:
256,192,121952,1,0,0:0:0:0:
256,192,122381,1,0,0:0:0:0:
256,192,123023,1,0,0:0:0:0:
256,192,123238,1,8,0:0:0:0:
256,192,123666,1,0,0:0:0:0:
256,192,123881,1,8,0:0:0:0:
256,192,124095,5,4,0:0:0:0:
256,192,125381,1,8,0:0:0:0:
256,192,125595,1,8,0:0:0:0:
256,192,125809,1,0,0:0:0:0:
256,192,126023,1,8,0:0:0:0:
256,192,126238,1,8,0:0:0:0:
256,192,126452,1,8,0:0:0:0:
256,192,126666,1,0,0:0:0:0:
256,192,126881,1,0,0:0:0:0:
256,192,127095,1,8,0:0:0:0:
256,192,127309,1,8,0:0:0:0:
256,192,127523,1,0,0:0:0:0:
256,192,127952,1,8,0:0:0:0:
256,192,128166,1,0,0:0:0:0:
256,192,128809,1,0,0:0:0:0:
256,192,129238,1,0,0:0:0:0:
256,192,129881,1,0,0:0:0:0:
256,192,130095,1,8,0:0:0:0:
256,192,130523,1,0,0:0:0:0:
256,192,130738,1,8,0:0:0:0:
256,192,131166,1,0,0:0:0:0:
256,192,131381,1,8,0:0:0:0:
256,192,131809,1,0,0:0:0:0:
256,192,132023,1,8,0:0:0:0:
256,192,132452,1,0,0:0:0:0:
256,192,132666,1,8,0:0:0:0:
