osu file format v14

[General]
AudioFilename: audio.mp3
AudioLeadIn: 0
PreviewTime: 77522
Countdown: 0
SampleSet: Soft
StackLeniency: 0.4
Mode: 0
LetterboxInBreaks: 0
WidescreenStoryboard: 1

[Editor]
Bookmarks: 1132,3703,8846,12275,15275,20846,34130,37559,49773,52344,57486,71201,74201,77629,84486,91344,103344,117058,130558
DistanceSpacing: 0.9
BeatDivisor: 4
GridSize: 16
TimelineZoom: 3.099999

[Metadata]
Title:Shounen wa Sora o Tadoru
TitleUnicode:少年は空を辿る
Artist:Power Of Nature
ArtistUnicode:Power Of Nature
Creator:CallieCube
Version:Slyze's Insane
Source:pop'n music 20 fantasia
Tags:allice obamacube callieonosu smokebloke Gordon Xoul Lazarus PaRaDogi -jordan- Jory Slyze- -_ascended_- ascended -ascended- wafer kami no kotoba goopert ioexception deadcode ceo of osu ceo_of_osu megafan fanzhen0019 electronic videogame video game instrumental
BeatmapID:3120983
BeatmapSetID:1373545

[Difficulty]
HPDrainRate:4.2
CircleSize:3.8
OverallDifficulty:8.3
ApproachRate:9
SliderMultiplier:2
SliderTickRate:1

[Events]
//Background and Video events
0,0,"starry sky big crop.jpeg",0,0
//Break Periods
2,52544,56029
2,77829,83886
//Storyboard Layer 0 (Background)
//Storyboard Layer 1 (Fail)
//Storyboard Layer 2 (Pass)
//Storyboard Layer 3 (Foreground)
//Storyboard Layer 4 (Overlay)
//Storyboard Sound Samples

[TimingPoints]
275,428.571428571429,4,2,1,80,1,0
3810,-125,4,2,1,80,0,0
5525,-111.111111111111,4,2,1,80,0,0
8846,428.571428571429,8,2,1,80,1,0
12275,428.571428571429,4,2,1,80,1,0
12275,-80,4,2,1,80,0,0
13239,-71.4285714285714,4,2,1,80,0,0
13775,428.571428571429,4,2,1,80,1,0
13775,-71.4285714285714,4,2,1,80,0,0
14739,-62.5,4,2,1,80,0,0
15275,428.571428571429,4,2,1,80,1,0
15275,-250,4,2,1,80,0,0
16132,-250,4,2,1,50,0,0
16881,-250,4,2,1,80,0,0
17417,-100,4,2,1,80,0,0
19132,-125,4,2,1,70,0,0
20417,428.571428571429,4,2,1,70,1,8
20845,428.571428571429,7,2,1,60,1,0
23846,428.571428571429,4,2,1,60,1,0
23846,-200,4,2,1,60,0,0
25560,428.571428571429,5,2,1,60,1,0
27488,428.571428571429,7,2,1,70,1,0
30488,428.571428571429,4,2,1,70,1,0
32201,428.571428571429,5,2,1,70,1,0
34130,428.571428571429,4,2,1,80,1,0
34130,-90.9090909090909,4,2,1,80,0,0
37559,428.571428571429,7,2,1,80,1,0
43559,428.571428571429,7,2,1,80,1,0
43559,-55.5555555555556,4,2,1,80,0,1
45809,-47.6190476190476,4,2,1,80,0,1
46130,-58.8235294117647,4,2,1,80,0,1
46559,428.571428571429,4,2,1,80,1,0
46559,-57.1428571428571,4,2,1,80,0,1
47309,-52.6315789473684,4,2,1,80,0,1
48273,-57.1428571428571,4,2,1,80,0,1
48809,-55.5555555555556,4,2,1,80,0,1
49773,428.571428571429,6,2,1,70,1,0
51915,-166.666666666667,6,2,1,80,0,0
52344,428.571428571429,4,2,1,60,1,0
56844,-100,4,2,1,80,0,0
57486,428.571428571429,4,2,1,80,1,0
65629,-100,4,2,1,60,0,0
66058,428.571428571429,4,2,1,80,1,0
66058,-100,4,2,1,80,0,0
67772,-100,4,2,1,85,0,0
68522,-62.5,4,2,1,85,0,0
70558,-100,4,2,1,85,0,0
71201,428.571428571429,5,2,1,80,1,0
71201,-80,4,2,1,80,0,0
72165,-71.4285714285714,4,2,1,80,0,0
72701,428.571428571429,4,2,1,80,1,0
72701,-71.4285714285714,4,2,1,80,0,0
73665,-62.5,4,2,1,80,0,0
74201,428.571428571429,4,2,1,60,1,0
76558,-100,4,2,1,50,0,0
76772,-100,4,2,1,60,0,0
76986,-100,4,2,1,70,0,0
77201,-100,4,2,1,80,0,0
77415,-100,4,2,1,90,0,0
77629,-100,4,2,1,100,0,0
84486,-100,4,2,1,80,0,0
84593,-83.3333333333333,4,2,1,80,0,0
86201,-83.3333333333333,4,2,1,85,0,0
87915,-83.3333333333333,4,2,1,90,0,0
89201,-83.3333333333333,4,2,1,80,0,0
89629,-250,4,2,1,60,0,0
90486,-66.6666666666667,4,2,1,40,0,0
90628,-66.6666666666667,4,2,1,80,0,0
91344,428.571428571429,4,2,1,80,1,0
91915,-66.6666666666667,4,2,1,80,0,0
94772,-100,6,2,1,100,0,1
95058,-100,6,2,1,80,0,1
95344,-66.6666666666667,6,2,1,80,0,1
95629,-100,6,2,1,100,0,1
95772,-66.6666666666667,6,2,1,80,0,1
98201,-55.5555555555556,6,2,1,100,0,1
98272,-55.5555555555556,6,2,1,80,0,1
101629,-55.5555555555556,6,2,1,100,0,1
101701,-55.5555555555556,6,2,1,80,0,1
102486,-55.5555555555556,6,2,1,100,0,1
102558,-83.3333333333333,6,2,1,80,0,1
102701,-83.3333333333333,6,2,1,100,0,1
102771,-83.3333333333333,6,2,1,80,0,1
102915,-83.3333333333333,6,2,1,100,0,1
102986,-100,6,2,1,80,0,1
103344,-100,6,2,1,80,0,0
104629,-100,4,2,1,80,0,0
113629,-80,4,2,1,80,0,0
113951,-62.5,4,2,1,80,0,0
114915,-80,4,2,1,80,0,0
115344,-62.5,4,2,1,80,0,0
115665,-55.5555555555556,4,2,1,80,0,0
125201,-55.5555555555556,4,2,1,50,0,0

[Colours]
Combo1 : 45,125,117
Combo2 : 33,80,126
Combo3 : 193,225,229
Combo4 : 115,182,204

[HitObjects]
256,192,1132,12,0,3489,2:0:0:0:
24,261,3703,5,0,3:2:0:0:
44,274,3810,2,0,L|57:359,1,80,6|0,3:2|2:0,2:0:0:0:
141,361,4132,2,0,B|132:297|132:297|130:295|130:295|120:223,1,120,2|0,3:2|2:0,2:0:0:0:
119,115,4667,6,0,L|33:100,1,80,6|0,3:2|2:0,2:0:0:0:
0,176,4989,2,0,B|63:188|63:188|66:187|66:187|149:201,1,120,2|0,3:2|2:0,2:0:0:0:
257,49,5525,6,0,P|281:91|265:146,1,90.0000000000001,6|0,3:2|2:0,2:0:0:0:
178,40,5846,2,0,P|162:102|199:161,1,135,2|0,3:2|2:0,2:0:0:0:
196,185,6275,1,0,2:0:0:0:
268,206,6382,6,0,L|280:264,2,45.0000000000001,6|0|0,3:2|2:0|2:0,2:0:0:0:
340,298,6703,6,0,P|264:293|230:366,1,135,8|8,2:0|2:0,2:0:0:0:
237,352,7132,1,0,3:2:0:0:
165,383,7239,2,0,L|94:363,2,45.0000000000001,6|0|0,3:2|2:0|2:0,2:0:0:0:
231,334,7560,6,0,P|275:287|340:298,1,135,2|0,3:2|2:0,2:0:0:0:
354,291,7989,1,0,2:0:0:0:
421,248,8096,2,0,L|490:237,2,45.0000000000001,4|0|0,3:2|2:0|2:0,2:0:0:0:
430,325,8417,2,0,L|499:314,2,45.0000000000001,0|0|0,3:2|2:0|3:2,2:0:0:0:
282,257,8846,5,10,2:1:0:0:
282,257,8953,1,8,2:1:0:0:
48,337,9489,5,10,2:1:0:0:
48,337,9596,1,8,2:1:0:0:
231,384,10025,5,10,2:1:0:0:
231,384,10132,1,8,2:1:0:0:
14,257,10667,5,10,2:1:0:0:
14,257,10775,1,8,2:1:0:0:
137,362,11096,5,10,2:1:0:0:
137,362,11203,1,8,2:1:0:0:
97,147,11739,5,10,2:1:0:0:
97,147,11846,1,8,2:1:0:0:
97,147,12275,6,0,L|184:165,1,62.5,2|0,3:2|2:0,2:0:0:0:
267,84,12489,2,0,L|172:103,1,62.5,2|0,3:2|2:0,2:0:0:0:
158,159,12703,1,8,2:0:0:0:
245,233,12810,6,0,L|228:139,1,62.5,2|0,3:2|2:0,2:0:0:0:
267,84,13025,2,0,L|250:-10,1,62.5,2|0,3:2|2:0,2:0:0:0:
62,73,13239,6,0,P|73:125|-14:178,1,140,2|0,3:2|2:0,2:0:0:0:
101,221,13560,1,2,3:2:0:0:
114,225,13667,1,2,3:2:0:0:
129,231,13775,6,0,P|131:273|146:299,1,70,2|0,3:2|2:0,2:0:0:0:
40,384,13989,2,0,P|54:369|65:315,1,70,2|0,3:2|2:0,2:0:0:0:
11,267,14203,1,8,2:0:0:0:
139,377,14310,6,0,L|232:361,1,70,2|0,3:2|2:0,2:0:0:0:
289,292,14525,2,0,L|382:276,1,70,2|0,3:2|2:0,2:0:0:0:
465,368,14739,6,0,B|431:344|439:297|439:297|430:343|388:355,1,160,2|0,3:2|2:0,2:0:0:0:
357,280,15060,1,2,3:2:0:0:
351,243,15167,1,2,3:2:0:0:
377,203,15275,6,0,P|413:150|483:171,1,140,6|0,2:1|2:0,2:0:0:0:
480,174,16132,6,0,L|484:138,3,20,0|0|0|0,2:0|2:0|2:0|2:0,2:0:0:0:
487,79,16560,2,0,L|491:43,3,20,0|0|0|2,2:0|2:0|2:0|2:0,2:0:0:0:
419,15,16989,5,0,2:0:0:0:
400,19,17096,1,0,2:0:0:0:
383,23,17203,1,0,2:0:0:0:
367,27,17310,1,0,2:0:0:0:
310,78,17417,6,0,L|301:157,3,50,2|0|0|0,3:2|2:0|2:0|2:0,2:0:0:0:
377,203,17846,2,0,L|371:252,3,50,2|0|0|0,3:2|2:0|2:0|2:0,2:0:0:0:
280,335,18274,5,2,3:2:0:0:
263,330,18381,1,0,2:0:0:0:
245,333,18489,1,0,2:0:0:0:
231,343,18596,1,0,2:0:0:0:
170,303,18703,5,2,3:2:0:0:
140,317,18810,1,0,2:0:0:0:
104,309,18917,1,0,2:0:0:0:
84,280,19024,1,0,2:0:0:0:
115,212,19132,6,0,B|175:204|175:204|178:203|178:203|258:194,1,120,2|0,3:2|2:0,2:0:0:0:
227,120,19560,2,0,B|166:127|166:127|164:129|164:129|84:138,1,120,2|0,3:2|2:0,2:0:0:0:
41,96,19989,5,2,3:2:0:0:
34,67,20096,1,2,3:2:0:0:
47,36,20203,1,0,2:0:0:0:
78,26,20310,1,0,2:0:0:0:
137,74,20417,5,2,3:2:0:0:
135,89,20524,1,0,2:0:0:0:
133,102,20632,1,0,2:0:0:0:
133,117,20739,1,0,2:0:0:0:
132,130,20846,5,2,3:2:0:0:
131,144,21703,5,2,2:0:0:0:
130,158,22560,5,2,2:0:0:0:
130,172,23417,5,2,2:0:0:0:
299,304,23846,6,0,B|333:290|341:257|341:257|416:277|416:277|442:289|454:330|423:361|400:358|400:358|248:315,2,400,6|0|0,2:0|2:0|2:0,2:0:0:0:
265,235,27488,5,2,3:2:0:0:
267,222,28345,5,2,3:2:0:0:
270,211,29202,5,2,3:2:0:0:
273,198,30059,5,2,3:2:0:0:
145,84,30488,6,0,B|111:70|103:37|103:37|28:57|28:57|2:69|-10:110|21:141|51:135|51:135|196:95,2,399.766666666667,6|0|0,3:2|2:0|2:0,2:0:0:0:
238,172,32629,5,0,2:0:0:0:
261,286,33058,5,0,2:0:0:0:
189,344,33486,5,2,2:3:0:0:
110,331,33915,5,0,2:0:0:0:
36,228,34130,6,8,L|50:297,1,55,2|0,3:2|2:0,2:0:0:0:
110,331,34344,2,0,L|124:400,1,55,2|0,3:2|2:0,2:0:0:0:
110,331,34665,6,0,L|120:384,1,55,2|0,3:2|2:0,2:0:0:0:
36,228,34880,2,0,L|46:281,1,55,2|0,3:2|2:0,2:0:0:0:
256,206,35094,6,0,P|212:156|150:178,1,110,2|0,3:2|2:0,2:0:0:0:
113,213,35415,1,2,3:2:0:0:
319,303,35630,5,2,3:2:0:0:
335,294,35737,1,2,3:2:0:0:
346,289,35844,6,0,L|271:270,1,55,10|0,3:2|2:0,2:0:0:0:
438,377,36058,2,0,L|363:358,1,55,10|0,3:2|2:0,2:0:0:0:
438,377,36380,6,0,L|363:358,1,55,10|0,3:2|2:0,2:0:0:0:
346,289,36594,2,0,L|271:270,1,55,10|0,3:2|2:0,2:0:0:0:
223,315,36808,1,0,3:2:0:0:
292,275,36915,6,0,L|346:289,1,55,10|0,3:2|2:0,2:0:0:0:
384,363,37130,2,0,L|438:377,1,55,10|0,3:2|2:0,2:0:0:0:
499,325,37344,5,14,3:2:0:0:
494,308,37451,1,10,3:2:0:0:
438,253,37559,5,0,3:2:0:0:
444,241,37666,1,2,2:0:0:0:
446,225,37773,1,2,2:0:0:0:
440,207,37880,1,2,2:0:0:0:
396,143,37987,5,2,2:0:0:0:
417,138,38094,1,2,2:0:0:0:
438,134,38201,1,2,2:0:0:0:
462,130,38309,1,2,2:0:0:0:
296,20,38523,5,2,2:0:0:0:
294,33,38630,1,2,2:0:0:0:
291,48,38737,1,2,2:0:0:0:
235,97,38844,5,2,2:0:0:0:
207,85,38951,1,2,2:0:0:0:
179,93,39059,1,2,2:0:0:0:
162,114,39166,1,2,2:0:0:0:
97,79,39273,5,0,2:0:0:0:
59,89,39380,1,2,2:0:0:0:
27,72,39487,1,2,2:0:0:0:
20,31,39594,1,2,2:0:0:0:
59,89,39701,5,2,3:2:0:0:
55,106,39808,1,2,2:0:0:0:
52,119,39915,1,2,2:0:0:0:
49,131,40023,1,2,2:0:0:0:
44,146,40130,6,0,L|123:128,1,50,2|0,2:3|2:0,2:0:0:0:
142,198,40344,5,2,2:3:0:0:
152,296,40558,5,0,3:2:0:0:
105,358,40773,5,2,2:0:0:0:
71,290,40987,5,6,2:0:0:0:
74,274,41094,1,2,2:0:0:0:
77,261,41201,1,2,2:0:0:0:
80,247,41308,1,2,2:0:0:0:
164,114,41523,5,2,2:0:0:0:
166,127,41630,1,2,2:0:0:0:
169,142,41737,1,2,2:0:0:0:
225,191,41844,5,2,2:0:0:0:
253,179,41951,1,2,2:0:0:0:
281,187,42058,1,2,2:0:0:0:
298,208,42165,1,2,2:0:0:0:
363,173,42272,5,0,2:0:0:0:
401,183,42379,1,2,2:0:0:0:
433,166,42486,1,2,2:0:0:0:
440,125,42593,1,2,2:0:0:0:
401,183,42700,5,2,3:2:0:0:
405,200,42809,1,2,2:0:0:0:
408,213,42916,1,2,2:0:0:0:
411,225,43022,1,2,2:0:0:0:
354,275,43129,5,2,2:3:0:0:
352,283,43236,1,2,2:3:0:0:
351,293,43343,1,2,2:3:0:0:
349,304,43450,1,2,2:3:0:0:
347,319,43559,6,0,L|446:300,2,89.9999999999999,6|0|2,3:2|2:0|3:2,2:0:0:0:
295,377,43880,1,0,2:0:0:0:
233,338,43987,5,0,3:2:0:0:
213,325,44094,1,0,3:2:0:0:
180,337,44201,1,10,3:2:0:0:
155,316,44309,6,0,B|132:194|132:194|153:158|141:121,1,180,6|0,3:2|2:0,2:0:0:0:
95,42,44630,2,0,B|95:69|76:96|76:96|97:63|145:49|183:74,2,180.419994506836,2|2|6,2:0|2:0|3:2,2:0:0:0:
225,146,45273,1,2,3:2:0:0:
52,278,45487,5,0,3:2:0:0:
39,281,45594,1,0,3:2:0:0:
18,286,45701,1,10,3:2:0:0:
10,322,45809,6,0,B|45:352|45:352|91:344|91:344|116:318|116:318|155:311|155:311|207:346,1,210,6|8,3:2|2:3,2:0:0:0:
279,379,46130,2,0,B|271:335|271:335|269:333|269:333|260:293,1,85,10|8,2:3|2:3,2:0:0:0:
357,361,46344,2,0,B|349:317|349:317|347:315|347:315|338:278,1,85,10|8,2:3|2:3,2:0:0:0:
283,191,46559,6,0,P|244:219|190:206,2,87.5000000000001,6|0|2,3:2|2:0|3:2,2:0:0:0:
247,125,46880,1,0,2:0:0:0:
299,69,46987,5,0,3:2:0:0:
320,62,47094,1,0,3:2:0:0:
339,82,47201,1,10,3:2:0:0:
383,64,47309,6,0,B|365:53|365:53|325:69|325:69|279:59|279:59|279:55|279:55|180:31,1,190,6|0,3:2|2:0,2:0:0:0:
131,19,47630,5,2,2:3:0:0:
119,23,47737,1,0,2:0:0:0:
83,85,47844,5,2,2:3:0:0:
87,107,47951,1,0,2:0:0:0:
91,126,48059,1,6,3:2:0:0:
94,145,48166,1,2,3:2:0:0:
98,163,48273,6,0,L|0:136,2,87.5000000000001,2|2|0,3:2|3:2|3:2,2:0:0:0:
218,266,48701,1,10,3:2:0:0:
181,334,48809,2,0,B|158:212|158:212|181:181|171:140,1,180,6|0,3:2|2:0,2:0:0:0:
185,139,49130,6,0,P|182:127|182:142,2,45,0|0|0,3:2|2:0|2:0,2:0:0:0:
286,218,49344,1,0,3:2:0:0:
376,180,49559,1,0,3:2:0:0:
432,241,49773,5,2,2:0:0:0:
419,246,49987,1,0,2:0:0:0:
181,334,50201,5,2,2:0:0:0:
168,330,50415,1,0,2:0:0:0:
260,177,50630,5,2,2:0:0:0:
259,188,50844,1,0,2:0:0:0:
269,35,51058,5,2,2:0:0:0:
268,44,51165,1,2,2:0:0:0:
255,65,51273,1,2,2:0:0:0:
254,75,51380,1,2,2:0:0:0:
314,121,51487,5,2,2:0:0:0:
326,118,51701,1,0,2:0:0:0:
259,199,51915,6,2,L|153:174,1,89.9999999999998,2|0,2:1|2:0,2:1:0:0:
156,185,52344,5,4,2:0:0:0:
146,338,56629,5,8,2:0:0:0:
117,311,56736,1,8,2:0:0:0:
67,330,56844,2,0,B|39:333|39:333|38:337|38:337|-18:345,2,75,8|0|0,2:3|2:0|2:0,2:0:0:0:
135,311,57272,1,4,2:3:0:0:
54,243,57486,5,4,3:2:0:0:
56,230,57594,1,2,2:0:0:0:
58,219,57701,1,2,2:0:0:0:
61,207,57808,2,0,L|-7:216,1,50,0|0,2:0|2:0,2:0:0:0:
25,69,58129,5,0,3:2:0:0:
23,82,58236,1,0,3:2:0:0:
132,6,58451,5,0,3:2:0:0:
128,22,58558,1,0,3:2:0:0:
125,38,58665,1,2,2:0:0:0:
158,104,58772,5,0,3:2:0:0:
184,90,58879,1,2,2:0:0:0:
203,101,58986,1,0,3:2:0:0:
215,95,59094,1,0,3:2:0:0:
389,162,59308,5,0,3:2:0:0:
369,156,59415,1,2,2:0:0:0:
345,150,59522,1,2,2:0:0:0:
285,195,59629,5,0,3:2:0:0:
266,223,59736,1,2,2:0:0:0:
263,245,59844,1,2,2:0:0:0:
269,263,59951,1,2,3:2:0:0:
278,274,60058,1,2,3:2:0:0:
288,280,60165,1,2,3:2:0:0:
299,282,60272,6,0,L|352:269,1,33.3333333333333,8|0,2:3|2:0,2:0:0:0:
354,269,60415,6,0,L|321:276,1,33.3333333333333,8|0,2:3|2:0,2:0:0:0:
299,282,60558,6,0,L|331:274,1,33.3333333333333,8|0,2:3|2:0,2:0:0:0:
440,248,60701,5,4,2:3:0:0:
438,258,60808,1,8,2:3:0:0:
421,381,60915,5,0,3:2:0:0:
424,367,61022,1,2,2:0:0:0:
426,357,61129,1,2,2:0:0:0:
428,344,61236,6,0,L|492:358,1,50,0|0,2:0|2:0,2:0:0:0:
320,357,61558,5,0,3:2:0:0:
334,354,61665,1,0,3:2:0:0:
178,268,61879,5,0,3:2:0:0:
196,264,61986,1,0,3:2:0:0:
217,260,62094,1,2,2:0:0:0:
246,327,62201,5,0,3:2:0:0:
231,350,62308,1,2,2:0:0:0:
242,367,62415,1,0,3:2:0:0:
233,381,62522,1,0,3:2:0:0:
178,268,62736,5,0,3:2:0:0:
160,272,62844,1,2,2:0:0:0:
136,276,62951,1,2,2:0:0:0:
80,235,63058,5,0,3:2:0:0:
99,263,63165,1,2,2:0:0:0:
102,285,63272,1,2,2:0:0:0:
96,303,63379,1,2,3:2:0:0:
87,314,63486,1,2,3:2:0:0:
77,320,63594,1,2,3:2:0:0:
66,322,63701,6,0,L|13:309,1,33.3333333333333,8|0,2:3|2:0,2:0:0:0:
11,309,63844,6,0,L|44:316,1,33.3333333333333,8|0,2:3|2:0,2:0:0:0:
66,322,63986,6,0,L|34:314,1,33.3333333333333,8|0,2:3|2:0,2:0:0:0:
0,232,64129,5,4,2:3:0:0:
3,220,64236,1,8,2:3:0:0:
6,209,64344,5,0,2:0:0:0:
140,171,65629,6,0,P|139:180|142:170,3,33.3333333333333,0|0|0|0,3:2|2:0|3:2|2:0,2:0:0:0:
170,163,65951,1,0,3:2:0:0:
211,151,66058,6,0,L|264:138,1,50,4|0,3:2|3:2,2:0:0:0:
422,197,66272,5,2,2:0:0:0:
395,212,66379,1,2,2:0:0:0:
363,210,66486,1,0,3:2:0:0:
341,189,66594,1,2,2:0:0:0:
339,162,66701,2,0,L|356:92,3,50,2|2|2|2,2:0|3:2|3:2|3:2,2:0:0:0:
412,56,67129,6,0,L|465:43,1,33.3333333333333,8|0,2:3|2:0,2:0:0:0:
467,43,67272,6,0,L|434:50,1,33.3333333333333,8|0,2:3|2:0,2:0:0:0:
412,56,67415,6,0,L|444:48,1,33.3333333333333,8|0,2:3|2:0,2:0:0:0:
505,111,67558,6,0,L|492:183,1,50,4|8,2:3|2:3,2:0:0:0:
474,289,67772,6,0,L|487:217,2,50,4|2|10,3:2|2:0|2:0,2:0:0:0:
425,353,68094,1,0,3:2:0:0:
356,314,68201,1,2,2:0:0:0:
345,318,68308,1,2,2:0:0:0:
337,321,68415,1,0,3:2:0:0:
322,327,68522,6,0,B|347:347|347:347|497:310,2,160,4|0|2,3:2|3:2|2:0,2:0:0:0:
265,280,69058,5,0,3:2:0:0:
267,266,69165,1,2,2:0:0:0:
270,248,69272,1,0,3:2:0:0:
272,236,69379,1,0,3:2:0:0:
228,81,69594,5,0,3:2:0:0:
233,56,69701,1,2,2:0:0:0:
238,32,69808,1,2,2:0:0:0:
160,0,69915,5,8,2:3:0:0:
161,23,70022,1,8,2:3:0:0:
146,50,70129,1,8,2:3:0:0:
128,63,70236,1,2,3:2:0:0:
109,67,70344,1,6,3:2:0:0:
91,62,70451,1,2,3:2:0:0:
81,55,70558,6,0,L|68:2,1,33.3333333333333,8|0,2:3|2:0,2:0:0:0:
68,0,70701,6,0,L|75:33,1,33.3333333333333,8|0,2:3|2:0,2:0:0:0:
81,55,70844,6,0,L|73:23,1,33.3333333333333,8|0,2:3|2:0,2:0:0:0:
44,135,70986,5,4,2:3:0:0:
71,141,71094,1,8,2:3:0:0:
97,147,71201,6,0,L|184:165,1,62.5,6|0,3:2|2:0,2:0:0:0:
267,84,71415,2,0,L|172:103,1,62.5,2|0,3:2|2:0,2:0:0:0:
158,159,71629,1,8,2:0:0:0:
245,233,71736,6,0,L|228:139,1,62.5,2|0,3:2|2:0,2:0:0:0:
267,84,71951,2,0,L|250:-10,1,62.5,2|0,3:2|2:0,2:0:0:0:
62,73,72165,6,0,P|73:125|-14:178,1,140,2|0,3:2|2:0,2:0:0:0:
101,221,72486,1,2,3:2:0:0:
114,225,72594,1,10,2:0:0:0:
129,231,72701,6,0,P|131:273|146:299,1,70,6|0,3:2|2:0,2:0:0:0:
40,384,72915,2,0,P|54:369|65:315,1,70,2|0,3:2|2:0,2:0:0:0:
11,267,73129,1,8,2:0:0:0:
139,377,73236,6,0,L|232:361,1,70,6|0,3:2|2:0,2:0:0:0:
289,292,73451,2,0,L|382:276,1,70,2|0,3:2|2:0,2:0:0:0:
465,368,73665,6,0,B|431:344|439:297|439:297|430:343|388:355,1,160,6|0,3:2|2:0,2:0:0:0:
357,280,73986,1,10,2:0:0:0:
365,244,74093,1,10,2:0:0:0:
370,209,74201,5,2,3:2:0:0:
256,192,75701,12,0,77415,2:0:0:0:
256,192,77629,5,4,2:1:0:0:
44,43,84486,5,4,2:1:0:0:
121,54,84593,2,0,P|77:58|61:141,1,120,8|2,3:2|3:2,2:0:0:0:
21,204,84915,2,0,B|114:192|114:192|117:193|117:193|229:178,1,180,8|0,3:2|3:2,2:0:0:0:
272,225,85343,5,2,3:2:0:0:
335,182,85451,2,0,P|297:228|333:295,1,120,8|2,3:2|3:2,2:0:0:0:
357,366,85772,2,0,P|411:305|504:341,1,180,12|0,3:2|2:0,2:0:0:0:
436,379,86201,5,6,3:2:0:0:
357,366,86308,2,0,L|260:351,2,60,8|0|2,3:2|2:0|3:2,2:0:0:0:
408,307,86629,2,0,P|445:197|405:148,1,180,8|0,3:2|3:2,2:0:0:0:
415,73,87058,5,6,3:2:0:0:
346,105,87165,2,0,L|249:90,2,60,8|0|2,2:0|3:2|3:2,2:0:0:0:
405,60,87486,1,8,3:2:0:0:
407,47,87593,1,8,3:2:0:0:
408,37,87701,1,10,3:2:0:0:
410,27,87808,1,8,3:2:0:0:
411,17,87915,5,6,3:2:0:0:
395,210,88343,5,8,3:2:0:0:
269,285,88772,5,2,3:2:0:0:
193,262,89201,5,4,3:2:0:0:
0,337,89629,6,0,B|66:327|66:327|70:330|70:330|138:320,1,140,0|0,2:0|2:0,2:0:0:0:
193,262,90486,6,0,B|181:280|181:280|194:363,2,99.9999999999999,4|4|4,2:0|2:0|2:0,2:0:0:0:
85,278,90915,6,8,B|101:291|101:291|112:372,2,99.9999999999999,12|12|12,2:0|2:0|2:0,2:0:0:0:
12,255,91344,5,4,1:0:0:0:
36,136,91629,1,0,2:0:0:0:
58,24,91915,6,0,L|129:14,1,50,8|8,2:0|2:0,2:0:0:0:
67,100,92058,2,0,L|138:90,1,50,8|8,2:0|2:0,2:0:0:0:
177,143,92201,5,8,2:0:0:0:
190,141,92344,1,0,2:0:0:0:
205,139,92486,1,0,2:0:0:0:
219,137,92629,1,0,2:0:0:0:
231,147,92772,6,0,L|217:221,1,50,8|8,2:0|2:0,2:0:0:0:
307,164,92915,2,0,L|293:238,1,50,8|8,2:0|2:0,2:0:0:0:
240,274,93058,5,0,1:0:0:0:
236,294,93201,1,0,2:0:0:0:
233,315,93344,1,0,2:0:0:0:
229,336,93486,1,0,2:0:0:0:
224,362,93629,6,0,L|311:347,1,50,8|8,2:0|2:0,2:0:0:0:
323,290,93772,2,0,L|410:275,1,50,8|8,2:0|2:0,2:0:0:0:
459,207,93915,5,8,2:0:0:0:
424,195,94058,1,0,2:0:0:0:
383,209,94201,1,0,2:0:0:0:
365,247,94344,1,0,2:0:0:0:
372,281,94486,6,0,L|323:290,1,50,8|8,2:0|2:0,2:0:0:0:
273,353,94629,2,0,L|224:362,1,50,8|8,2:0|2:0,2:0:0:0:
151,328,94772,5,4,1:0:0:0:
273,353,95058,1,0,2:0:0:0:
437,384,95344,6,0,L|425:307,1,50,8|8,2:0|2:0,2:0:0:0:
512,372,95486,2,0,L|500:295,1,50,8|8,2:0|2:0,2:0:0:0:
456,258,95629,5,12,2:0:0:0:
454,244,95772,1,0,2:0:0:0:
451,229,95915,1,0,2:0:0:0:
448,215,96058,1,0,2:0:0:0:
433,205,96201,6,0,L|357:217,1,50,8|8,2:0|2:0,2:0:0:0:
421,130,96344,2,0,L|342:141,1,50,8|8,2:0|2:0,2:0:0:0:
305,187,96486,5,0,1:0:0:0:
284,191,96629,1,0,2:0:0:0:
267,194,96772,1,0,2:0:0:0:
250,198,96915,1,0,2:0:0:0:
234,202,97058,6,0,L|247:110,1,50,8|8,2:0|2:0,2:0:0:0:
188,93,97201,2,0,L|201:1,1,50,8|8,2:0|2:0,2:0:0:0:
311,18,97344,5,8,2:0:0:0:
297,47,97486,1,0,2:0:0:0:
261,68,97629,1,0,2:0:0:0:
223,61,97772,1,2,3:0:0:0:
194,43,97915,6,0,L|188:93,1,50,10|10,2:0|2:0,2:0:0:0:
240,152,98058,2,0,L|234:202,1,50,10|10,2:0|2:0,2:0:0:0:
132,267,98201,6,0,P|75:276|83:362,2,120,4|2|2,1:0|2:0|2:0,2:0:0:0:
187,324,98629,1,2,2:0:0:0:
257,282,98772,6,0,L|326:272,1,60,10|10,2:0|2:0,2:0:0:0:
355,205,98915,2,0,L|424:195,1,60,10|10,2:0|2:0,2:0:0:0:
479,262,99058,6,0,B|473:320|473:320|470:320|470:320|462:394,2,120,8|2|2,2:0|2:0|2:0,2:0:0:0:
414,196,99486,1,2,2:0:0:0:
464,125,99629,6,0,L|395:115,1,60,10|10,2:0|2:0,2:0:0:0:
366,48,99772,2,0,L|297:38,1,60,10|10,2:0|2:0,2:0:0:0:
237,91,99915,6,0,P|273:39|242:-11,2,120,2|2|2,1:2|2:0|2:0,2:0:0:0:
167,64,100344,1,2,2:0:0:0:
130,128,100486,6,0,L|139:215,1,60,10|10,2:0|2:0,2:0:0:0:
199,235,100629,2,0,L|208:322,1,60,10|10,2:0|2:0,2:0:0:0:
144,355,100772,6,0,B|155:335|155:335|271:320,2,120,8|2|2,2:0|2:0|2:0,2:0:0:0:
67,375,101201,1,2,2:0:0:0:
12,319,101344,6,0,L|5:259,1,60,8|8,2:0|2:0,2:0:0:0:
58,200,101486,2,0,L|51:140,1,60,8|8,2:0|2:0,2:0:0:0:
1,73,101629,6,0,B|12:93|12:93|128:108,2,120,6|2|10,1:2|2:0|2:0,2:0:0:0:
55,20,102058,1,10,2:0:0:0:
130,29,102201,6,0,L|212:41,1,60,10|10,2:0|2:0,2:0:0:0:
223,110,102344,2,0,L|309:120,1,60,10|10,2:0|2:0,2:0:0:0:
345,61,102486,6,0,B|308:91|316:135|344:167|344:167|367:126|411:112|458:134,2,240,12|2|10,2:0|2:0|2:0,2:0:0:0:
492,250,103344,6,0,P|426:226|421:192,2,100,6|2|2,1:0|2:0|2:0,2:0:0:0:
296,243,103986,6,0,L|357:256,1,50,2|2,2:0|2:0,2:0:0:0:
409,373,104201,2,0,L|426:293,1,50,2|2,2:0|2:0,2:0:0:0:
290,236,104415,2,0,L|351:249,1,50,2|2,2:0|2:0,2:0:0:0:
419,378,104629,5,4,2:0:0:0:
303,353,104844,1,4,2:0:0:0:
165,327,105058,6,0,P|116:334|89:387,2,100,6|2|2,2:0|2:0|2:0,2:0:0:0:
224,378,105701,1,2,2:0:0:0:
89,300,105915,6,0,P|84:251|140:216,2,100,6|2|2,2:0|2:0|2:0,2:0:0:0:
165,327,106558,1,2,2:0:0:0:
290,236,106772,6,0,B|337:229|337:229|341:228|341:228|397:221,2,100,6|2|2,1:0|2:0|2:0,2:0:0:0:
234,43,107415,6,0,L|224:119,1,50,2|2,2:0|2:0,2:0:0:0:
98,129,107629,2,0,L|184:143,1,50,2|2,2:0|2:0,2:0:0:0:
244,40,107844,2,0,L|234:116,1,50,2|2,2:0|2:0,2:0:0:0:
139,214,108058,6,0,L|27:196,1,100,4|0,2:0|2:0,2:0:0:0:
165,327,108486,6,0,P|116:334|89:387,2,100,6|2|2,2:0|2:0|2:0,2:0:0:0:
224,378,109129,1,2,2:0:0:0:
89,300,109344,6,0,P|84:251|140:216,2,100,6|2|2,2:0|2:0|2:0,2:0:0:0:
165,327,109986,1,2,2:0:0:0:
365,349,110201,6,0,P|323:348|283:308,2,100,6|2|2,1:0|2:0|2:0,2:0:0:0:
445,140,110844,6,0,L|365:160,1,50,2|2,2:0|2:0,2:0:0:0:
354,272,111058,2,0,L|337:193,1,50,2|2,2:0|2:0,2:0:0:0:
450,129,111272,2,0,L|370:149,1,50,2|2,2:0|2:0,2:0:0:0:
348,277,111486,5,4,2:0:0:0:
470,246,111701,1,4,2:0:0:0:
449,78,111915,6,0,B|433:101|433:101|453:199,2,100,6|2|2,2:0|2:0|2:0,2:0:0:0:
495,16,112558,1,2,2:0:0:0:
335,103,112772,6,0,B|357:118|357:118|377:217,2,100,6|2|2,2:0|2:0|2:0,2:0:0:0:
270,58,113415,1,2,2:0:0:0:
110,152,113629,6,2,B|169:162|169:162|172:160|172:160|249:173,1,125,4|0,3:1|2:0,2:1:0:0:
270,58,113951,6,2,B|211:75|211:75|241:206,1,160,4|0,3:2|2:0,2:1:0:0:
226,312,114272,6,2,P|306:284|293:220,1,160,4|0,3:1|2:0,2:1:0:0:
96,280,114594,6,2,B|141:291|151:334|151:334|139:283|190:241,1,160,4|0,3:2|2:0,2:1:0:0:
232,170,114915,6,0,B|172:160|172:160|169:162|169:162|110:152,1,125,14|10,3:2|1:3,2:0:0:0:
236,186,115236,1,0,2:0:0:0:
233,171,115344,6,2,B|211:75|211:75|270:58,1,160,4|0,3:2|2:0,2:1:0:0:
482,145,115665,6,0,B|370:167|370:167|350:139|312:143,1,180,4|0,3:2|2:0,2:0:0:0:
331,0,115986,6,0,P|403:44|395:129,1,180,4|0,3:2|2:0,2:0:0:0:
241,264,116308,2,0,B|200:285|162:240|169:233|181:224|151:172|91:203,1,180,4|0,3:2|2:0,2:0:0:0:
68,281,116629,5,8,1:0:0:0:
65,291,116736,1,8,1:0:0:0:
62,303,116844,1,8,1:0:0:0:
60,315,116951,1,8,1:0:0:0:
57,328,117058,5,4,2:1:0:0:
204,142,118344,5,2,2:0:0:0:
303,125,118558,1,2,2:0:0:0:
403,107,118772,1,2,2:0:0:0:
415,109,119629,1,2,2:0:0:0:
404,119,120486,1,2,2:0:0:0:
241,68,121772,5,2,2:0:0:0:
217,224,122201,1,2,2:0:0:0:
216,233,123058,1,2,2:0:0:0:
197,384,123915,5,4,2:0:0:0:
208,383,125201,5,2,2:0:0:0:
282,370,125415,1,2,2:0:0:0:
358,356,125629,1,2,2:0:0:0:
366,360,126486,1,2,2:0:0:0:
358,366,127344,1,2,2:0:0:0:
213,384,128629,5,2,2:0:0:0:
242,299,129058,1,2,2:0:0:0:
92,384,129915,5,2,2:0:0:0:
108,380,130129,1,2,2:0:0:0:
119,379,130344,1,2,2:0:0:0:
133,376,130558,1,2,2:0:0:0:
