osu file format v14

[General]
AudioFilename: audio.mp3
AudioLeadIn: 0
PreviewTime: 77522
Countdown: 0
SampleSet: Soft
StackLeniency: 0.4
Mode: 0
LetterboxInBreaks: 0
WidescreenStoryboard: 1

[Editor]
Bookmarks: 275,20846,34130,37559,52344,56629,57486,71201,74201,81058,91344,103344,113629,117058,134201
DistanceSpacing: 0.9
BeatDivisor: 6
GridSize: 16
TimelineZoom: 3.199999

[Metadata]
Title:Shounen wa Sora o Tadoru
TitleUnicode:少年は空を辿る
Artist:Power Of Nature
ArtistUnicode:Power Of Nature
Creator:CallieCube
Version:Gordon's Expert
Source:pop'n music 20 fantasia
Tags:allice obamacube callieonosu smokebloke Gordon Xoul Lazarus PaRaDogi -jordan- Jory Slyze- -_ascended_- ascended -ascended- wafer kami no kotoba goopert ioexception deadcode ceo of osu ceo_of_osu megafan fanzhen0019 electronic videogame video game instrumental
BeatmapID:3207766
BeatmapSetID:1373545

[Difficulty]
HPDrainRate:4.5
CircleSize:4
OverallDifficulty:8.4
ApproachRate:9.2
SliderMultiplier:2
SliderTickRate:1

[Events]
//Background and Video events
0,0,"starry sky big crop.jpeg",0,0
//Break Periods
//Storyboard Layer 0 (Background)
//Storyboard Layer 1 (Fail)
//Storyboard Layer 2 (Pass)
//Storyboard Layer 3 (Foreground)
//Storyboard Layer 4 (Overlay)
//Storyboard Sound Samples

[TimingPoints]
275,428.571428571429,4,2,1,80,1,0
1239,-100,4,2,1,60,0,0
3703,-100,4,2,1,80,0,0
3810,-55.5555555555556,4,2,1,80,0,0
8846,428.571428571429,8,2,1,80,1,0
8953,-55.5555555555556,4,2,1,80,0,0
12275,428.571428571429,4,2,1,80,1,0
12275,-55.5555555555556,4,2,1,80,0,0
13239,-41.6666666666667,4,2,1,80,0,0
13775,428.571428571429,4,2,1,80,1,0
13775,-55.5555555555556,4,2,1,80,0,0
14739,-41.6666666666667,4,2,1,80,0,0
15275,428.571428571429,4,2,1,80,1,0
16132,-100,4,2,1,50,0,0
16917,-100,4,2,1,80,0,0
20417,428.571428571429,4,2,1,70,1,8
20845,428.571428571429,7,2,1,60,1,0
23846,428.571428571429,4,2,1,60,1,0
25560,428.571428571429,5,2,1,60,1,0
27488,428.571428571429,7,2,1,70,1,0
30488,428.571428571429,4,2,1,70,1,0
32201,428.571428571429,5,2,1,70,1,0
34130,428.571428571429,4,2,1,80,1,0
37559,428.571428571429,7,2,1,80,1,0
43559,428.571428571429,7,2,1,80,1,0
44309,-66.6666666666667,4,2,1,80,0,0
45809,-66.6666666666667,4,2,1,80,0,0
46559,428.571428571429,4,2,1,80,1,0
49773,428.571428571429,6,2,1,70,1,0
51915,-166.666666666667,6,2,1,80,0,0
52236,-166.666666666667,6,2,1,5,0,0
52344,428.571428571429,4,2,1,60,1,0
56844,-100,4,2,1,80,0,0
57272,-40,4,2,1,80,0,0
57486,428.571428571429,4,2,1,80,1,0
58236,-100,4,2,1,80,0,0
58343,-100,4,2,1,5,0,0
58451,-100,4,2,1,80,0,0
59201,-100,4,2,1,5,0,0
59308,-100,4,2,1,80,0,0
60272,-66.6666666666667,4,2,1,80,0,0
61665,-100,4,2,1,80,0,0
61772,-100,4,2,1,5,0,0
61879,-100,4,2,1,80,0,0
62629,-100,4,2,1,5,0,0
62736,-100,4,2,1,80,0,0
63701,-66.6666666666667,4,2,1,80,0,0
65629,-66.6666666666667,4,2,1,60,0,0
66058,428.571428571429,4,2,1,80,1,0
66058,-66.6666666666667,4,2,1,80,0,0
67772,-66.6666666666667,4,2,1,85,0,0
68522,-100,4,2,1,85,0,0
70558,-66.6666666666667,4,2,1,85,0,0
71201,428.571428571429,5,2,1,80,1,0
71201,-100,4,2,1,80,0,0
72272,-100,4,2,1,5,0,0
72486,-100,4,2,1,80,0,0
72701,428.571428571429,4,2,1,80,1,0
74201,428.571428571429,4,2,1,60,1,0
74201,-333.333333333333,4,2,1,60,0,0
76558,-333.333333333333,4,2,1,50,0,0
76772,-333.333333333333,4,2,1,60,0,0
76986,-333.333333333333,4,2,1,70,0,0
77201,-333.333333333333,4,2,1,80,0,0
77415,-333.333333333333,4,2,1,90,0,0
77629,-333.333333333333,4,2,1,100,0,0
78272,-333.333333333333,4,2,1,95,0,0
78486,-333.333333333333,4,2,1,90,0,0
78701,-333.333333333333,4,2,1,85,0,0
78915,-333.333333333333,4,2,1,80,0,0
79129,-333.333333333333,4,2,1,75,0,0
79343,-333.333333333333,4,2,1,70,0,0
79558,-333.333333333333,4,2,1,65,0,0
79772,-333.333333333333,4,2,1,60,0,0
79986,-333.333333333333,4,2,1,55,0,0
80201,-333.333333333333,4,2,1,50,0,0
80415,-333.333333333333,4,2,1,45,0,0
80629,-333.333333333333,4,2,1,40,0,0
80843,-333.333333333333,4,2,1,35,0,0
81058,-333.333333333333,4,2,1,60,0,0
84058,-100,4,2,1,80,0,0
84486,-35.7142857142857,4,2,1,80,0,0
84915,-66.6666666666667,4,2,1,80,0,0
85343,-32.258064516129,4,2,1,80,0,0
85772,-55.5555555555556,4,2,1,80,0,0
86201,-29.4117647058824,4,2,1,85,0,0
86629,-47.6190476190476,4,2,1,85,0,0
87058,-32.258064516129,4,2,1,85,0,0
87915,-32.258064516129,4,2,1,90,0,0
88022,-41.6666666666667,4,2,1,90,0,0
88343,-66.6666666666667,4,2,1,90,0,0
88879,-35.7142857142857,4,2,1,90,0,0
89093,-35.7142857142857,4,2,1,70,0,0
89201,-66.6666666666667,4,2,1,80,0,0
89629,-66.6666666666667,4,2,1,60,0,0
90486,-66.6666666666667,4,2,1,40,0,0
90629,-66.6666666666667,4,2,1,80,0,0
91344,428.571428571429,4,2,1,80,1,0
91344,-66.6666666666667,4,2,1,80,0,0
91486,-66.6666666666667,6,2,1,80,0,1
94772,-66.6666666666667,6,2,1,100,0,1
94915,-66.6666666666667,6,2,1,80,0,1
95629,-100,6,2,1,100,0,1
95772,-66.6666666666667,6,2,1,80,0,1
98201,-66.6666666666667,6,2,1,100,0,1
98272,-66.6666666666667,6,2,1,80,0,1
101629,-100,6,2,1,100,0,1
101701,-100,6,2,1,80,0,1
102486,-100,6,2,1,100,0,1
103129,-100,6,2,1,80,0,1
104629,-66.6666666666667,4,2,1,80,0,1
105915,-100,4,2,1,80,0,1
117058,-100,4,2,1,80,0,0
123915,-500,4,2,1,80,0,0
125201,-500,4,2,1,50,0,0
127344,-200,4,2,1,50,0,0
128522,-200,4,2,1,5,0,0
128629,-58.8235294117647,4,2,1,50,0,0

[Colours]
Combo1 : 45,125,117
Combo2 : 33,80,126
Combo3 : 193,225,229
Combo4 : 115,182,204

[HitObjects]
249,158,275,5,2,3:0:0:0:
240,180,382,1,0,2:0:0:0:
241,204,489,1,0,2:0:0:0:
249,227,596,1,0,2:0:0:0:
273,212,703,5,2,3:0:0:0:
276,197,810,1,0,2:0:0:0:
277,181,917,1,0,2:0:0:0:
271,165,1025,1,0,2:0:0:0:
244,150,1132,5,2,3:0:0:0:
233,177,1239,1,0,2:0:0:0:
235,206,1346,1,0,2:0:0:0:
244,233,1453,1,0,2:0:0:0:
273,215,1560,5,2,3:0:0:0:
276,197,1667,1,0,2:0:0:0:
278,178,1775,1,0,2:0:0:0:
270,159,1882,1,0,2:0:0:0:
241,142,1989,5,2,3:0:0:0:
228,174,2096,1,0,2:0:0:0:
230,209,2203,1,0,2:0:0:0:
241,241,2310,1,0,2:0:0:0:
276,220,2417,5,2,3:0:0:0:
279,198,2525,1,0,2:0:0:0:
282,175,2632,1,0,2:0:0:0:
272,152,2739,1,0,2:0:0:0:
238,132,2846,5,2,3:0:0:0:
222,171,2953,1,0,2:0:0:0:
225,213,3060,1,0,2:0:0:0:
238,252,3167,1,0,2:0:0:0:
280,226,3275,5,2,3:0:0:0:
284,200,3382,1,0,2:0:0:0:
287,172,3489,1,0,2:0:0:0:
275,145,3596,1,0,2:0:0:0:
236,44,3703,5,0,3:2:0:0:
239,123,3810,2,0,L|246:11,1,89.9999999999999,6|0,3:2|2:0,2:0:0:0:
324,91,4025,5,0,2:0:0:0:
321,170,4132,2,0,L|314:58,1,89.9999999999999,2|0,3:2|2:0,2:0:0:0:
246,214,4346,5,0,2:0:0:0:
246,214,4453,1,0,2:0:0:0:
308,260,4560,5,0,2:0:0:0:
311,339,4667,2,0,L|318:227,1,89.9999999999999,6|0,3:2|2:0,2:0:0:0:
242,303,4882,5,0,2:0:0:0:
239,382,4989,2,0,L|232:270,1,89.9999999999999,2|0,3:2|2:0,2:0:0:0:
312,175,5203,5,0,2:0:0:0:
312,175,5310,1,0,2:0:0:0:
239,212,5417,5,0,2:0:0:0:
160,215,5525,2,0,L|272:222,1,89.9999999999999,6|0,3:2|2:0,2:0:0:0:
210,139,5739,5,0,2:0:0:0:
131,136,5846,2,0,L|243:129,1,89.9999999999999,2|0,3:2|2:0,2:0:0:0:
291,99,6060,5,0,2:0:0:0:
291,99,6167,1,0,2:0:0:0:
358,148,6275,5,0,2:0:0:0:
437,151,6382,2,0,L|325:158,1,89.9999999999999,6|0,3:2|2:0,2:0:0:0:
391,82,6596,5,0,2:0:0:0:
457,41,6703,5,8,2:0:0:0:
432,13,6810,1,8,2:0:0:0:
397,0,6917,1,8,2:0:0:0:
360,2,7025,1,8,2:0:0:0:
328,21,7132,5,0,3:2:0:0:
249,25,7239,2,0,L|361:32,1,89.9999999999999,6|0,3:2|2:0,2:0:0:0:
206,100,7453,5,0,2:0:0:0:
283,104,7560,2,0,L|171:111,1,89.9999999999999,2|0,3:2|2:0,2:0:0:0:
125,68,7775,5,0,2:0:0:0:
125,68,7882,1,0,2:0:0:0:
93,150,7989,5,0,2:0:0:0:
89,228,8096,2,0,L|82:116,1,89.9999999999999,4|0,3:2|2:0,2:0:0:0:
14,272,8310,5,0,2:0:0:0:
7,185,8417,5,0,3:2:0:0:
6,200,8489,5,0,3:2:0:0:
5,216,8560,5,0,3:2:0:0:
4,232,8632,5,0,3:2:0:0:
47,293,8739,1,0,3:2:0:0:
97,221,8846,5,10,2:1:0:0:
25,384,8953,2,0,P|39:344|93:319,1,89.9999999999999,8|0,2:1|2:0,2:0:0:0:
145,363,9167,5,8,2:3:0:0:
143,374,9275,1,8,2:3:0:0:
167,155,9489,5,10,2:1:0:0:
239,318,9596,2,0,P|225:278|171:253,1,89.9999999999999,8|0,2:1|2:0,2:0:0:0:
119,288,9810,5,8,2:3:0:0:
121,299,9917,1,8,2:3:0:0:
167,155,10025,5,10,2:1:0:0:
239,318,10132,2,0,P|225:278|171:253,1,89.9999999999999,8|0,2:1|2:0,2:0:0:0:
119,288,10346,5,8,2:3:0:0:
121,299,10453,1,8,2:3:0:0:
97,80,10667,5,10,2:1:0:0:
43,223,10775,1,8,2:1:0:0:
53,195,10882,1,8,2:3:0:0:
79,180,10989,1,8,2:3:0:0:
104,68,11096,5,10,2:1:0:0:
32,231,11203,2,0,P|46:191|100:166,1,89.9999999999999,8|0,2:1|2:0,2:0:0:0:
151,217,11417,5,8,2:3:0:0:
149,228,11525,1,8,2:3:0:0:
176,11,11739,5,10,2:1:0:0:
245,172,11846,2,0,P|231:132|177:107,1,89.9999999999999,8|0,2:1|2:0,2:0:0:0:
123,138,12060,5,8,2:3:0:0:
125,149,12167,1,8,2:3:0:0:
237,185,12275,6,0,L|331:176,1,89.9999999999999,2|0,3:2|2:0,2:0:0:0:
232,196,12489,2,0,L|326:187,1,89.9999999999999,2|0,3:2|2:0,2:0:0:0:
465,262,12703,5,8,2:0:0:0:
472,277,12810,2,0,L|378:268,1,89.9999999999999,2|0,3:2|2:0,2:0:0:0:
477,288,13025,2,0,L|383:279,1,89.9999999999999,2|0,3:2|2:0,2:0:0:0:
361,346,13239,6,0,L|339:100,1,240,2|0,3:2|2:0,2:0:0:0:
271,41,13560,5,2,3:2:0:0:
264,28,13667,1,2,3:2:0:0:
257,13,13775,2,0,L|351:22,1,89.9999999999999,2|0,3:2|2:0,2:0:0:0:
252,2,13989,2,0,L|346:11,1,89.9999999999999,2|0,3:2|2:0,2:0:0:0:
499,75,14203,5,8,2:0:0:0:
506,61,14310,2,0,L|412:70,1,89.9999999999999,2|0,3:2|2:0,2:0:0:0:
511,50,14525,2,0,L|417:59,1,89.9999999999999,2|0,3:2|2:0,2:0:0:0:
349,98,14739,6,0,L|328:337,1,240,2|0,3:2|2:0,2:0:0:0:
243,378,15060,5,2,3:2:0:0:
178,337,15167,1,2,3:2:0:0:
88,383,15275,5,6,2:1:0:0:
506,101,16132,5,0,2:0:0:0:
477,81,16239,1,0,2:0:0:0:
444,82,16346,1,0,2:0:0:0:
418,102,16453,1,0,2:0:0:0:
407,132,16560,5,0,2:0:0:0:
373,187,16667,1,0,2:0:0:0:
311,189,16775,5,0,2:0:0:0:
309,204,16846,5,0,2:0:0:0:
307,217,16917,5,0,2:0:0:0:
305,230,16989,6,0,P|281:224|241:221,1,50,0|0,2:0|2:0,2:0:0:0:
286,301,17203,2,0,P|262:295|222:292,1,50,0|0,2:0|2:0,2:0:0:0:
161,335,17417,5,2,3:2:0:0:
147,305,17524,1,0,2:0:0:0:
118,288,17631,1,0,2:0:0:0:
85,291,17739,1,0,2:0:0:0:
82,297,17846,5,2,3:2:0:0:
87,306,17953,1,0,2:0:0:0:
96,300,18060,1,0,2:0:0:0:
93,290,18167,1,0,2:0:0:0:
53,225,18274,6,0,P|47:201|44:161,1,50,2|0,3:2|2:0,2:0:0:0:
124,206,18489,2,0,P|118:182|115:142,1,50,0|0,2:0|2:0,2:0:0:0:
137,71,18703,5,2,3:2:0:0:
129,41,18810,1,0,2:0:0:0:
105,22,18917,1,0,2:0:0:0:
74,22,19024,1,0,2:0:0:0:
52,43,19132,5,2,3:2:0:0:
65,52,19239,1,0,2:0:0:0:
82,56,19346,1,0,2:0:0:0:
98,52,19453,1,0,2:0:0:0:
166,23,19560,5,2,3:2:0:0:
178,11,19667,1,0,2:0:0:0:
193,6,19774,1,0,2:0:0:0:
209,8,19882,1,0,2:0:0:0:
270,53,19989,5,2,3:2:0:0:
268,72,20096,1,2,3:2:0:0:
265,102,20203,1,0,2:0:0:0:
261,146,20310,1,0,2:0:0:0:
215,210,20417,5,2,3:2:0:0:
215,285,20524,1,0,2:0:0:0:
217,332,20632,1,0,2:0:0:0:
218,361,20739,1,0,2:0:0:0:
219,374,20846,5,2,3:2:0:0:
235,372,20953,1,0,2:0:0:0:
251,371,21060,1,0,2:0:0:0:
268,369,21167,1,0,2:0:0:0:
284,368,21274,1,0,2:0:0:0:
391,300,21488,5,2,2:0:0:0:
375,298,21596,1,0,2:0:0:0:
359,297,21703,1,0,2:0:0:0:
342,295,21810,1,0,2:0:0:0:
326,294,21917,1,0,2:0:0:0:
467,360,22131,6,0,L|471:305,1,50,2|0,2:0|2:0,2:0:0:0:
439,239,22346,2,0,L|443:189,1,50,2|0,2:0|2:0,2:0:0:0:
411,118,22560,1,2,2:0:0:0:
502,18,22774,5,2,2:0:0:0:
486,20,22881,1,0,2:0:0:0:
470,21,22988,1,0,2:0:0:0:
453,23,23095,1,0,2:0:0:0:
437,24,23202,1,0,2:0:0:0:
330,81,23417,6,0,L|324:22,1,50,2|0,2:0|2:0,2:0:0:0:
270,128,23631,1,0,2:0:0:0:
270,128,23738,1,0,2:0:0:0:
270,128,23846,2,0,L|265:177,1,50,6|0,2:0|2:0,2:0:0:0:
226,307,24060,5,2,2:0:0:0:
224,291,24167,1,0,2:0:0:0:
223,275,24274,1,0,2:0:0:0:
221,258,24381,1,0,2:0:0:0:
220,242,24488,1,0,2:0:0:0:
152,135,24703,5,2,2:0:0:0:
150,151,24810,1,0,2:0:0:0:
149,167,24917,1,0,2:0:0:0:
147,184,25024,1,0,2:0:0:0:
146,200,25131,1,0,2:0:0:0:
20,359,25346,6,0,L|16:304,1,50,2|0,2:0|2:0,2:0:0:0:
48,238,25560,2,0,L|44:188,1,50,2|0,2:0|2:0,2:0:0:0:
76,117,25774,1,2,2:0:0:0:
39,6,25988,5,2,2:0:0:0:
39,6,26095,1,0,2:0:0:0:
39,6,26202,2,0,L|33:55,1,50,2|0,2:0|2:0,2:0:0:0:
86,112,26417,2,0,L|91:161,1,50,2|0,2:0|2:0,2:0:0:0:
130,291,26631,5,2,2:0:0:0:
132,275,26738,1,0,2:0:0:0:
133,259,26845,1,2,2:3:0:0:
135,242,26952,1,0,2:0:0:0:
136,226,27060,1,2,2:3:0:0:
221,99,27274,5,2,2:0:0:0:
221,99,27381,1,2,2:0:0:0:
221,99,27488,6,0,L|226:160,1,50,2|0,3:2|2:0,2:0:0:0:
283,212,27702,2,0,L|277:273,1,50,2|0,2:0|2:0,2:0:0:0:
222,322,27916,5,2,2:0:0:0:
206,320,28023,1,0,2:0:0:0:
190,319,28130,1,0,2:0:0:0:
173,317,28238,1,0,2:0:0:0:
157,316,28345,1,2,3:2:0:0:
50,248,28559,5,2,2:0:0:0:
66,246,28666,1,0,2:0:0:0:
82,245,28773,1,0,2:0:0:0:
99,243,28880,1,0,2:0:0:0:
115,242,28988,1,0,2:0:0:0:
165,64,29202,6,0,L|161:119,1,50,2|0,3:2|2:0,2:0:0:0:
193,185,29416,2,0,L|189:235,1,50,2|0,2:0|2:0,2:0:0:0:
221,306,29630,1,2,2:0:0:0:
294,210,29844,5,2,2:0:0:0:
296,194,29952,1,0,2:0:0:0:
297,178,30059,1,2,3:2:0:0:
299,161,30166,1,0,2:0:0:0:
300,145,30273,1,0,2:0:0:0:
371,40,30488,5,6,3:2:0:0:
372,56,30595,1,0,2:0:0:0:
374,73,30702,1,0,2:0:0:0:
375,89,30809,1,0,2:0:0:0:
377,105,30916,1,0,2:0:0:0:
488,215,31130,6,0,L|433:219,1,50,2|0,2:0|2:0,2:0:0:0:
367,187,31345,2,0,L|317:191,1,50,2|0,2:0|2:0,2:0:0:0:
246,159,31559,1,2,2:0:0:0:
117,231,31773,5,2,2:0:0:0:
133,233,31880,1,0,2:0:0:0:
149,234,31988,1,0,2:0:0:0:
166,236,32095,1,0,2:0:0:0:
182,237,32201,1,0,2:0:0:0:
71,310,32415,5,2,2:0:0:0:
55,312,32522,1,0,2:0:0:0:
39,313,32629,1,0,2:0:0:0:
22,315,32736,1,0,2:0:0:0:
6,316,32843,1,0,2:0:0:0:
133,374,33058,6,0,L|188:378,1,50,2|0,2:0|2:0,2:0:0:0:
254,346,33272,2,0,L|304:350,1,50,2|0,2:0|2:0,2:0:0:0:
375,318,33486,1,2,2:3:0:0:
505,380,33701,5,2,2:0:0:0:
507,364,33808,1,0,2:0:0:0:
508,348,33915,1,2,2:0:0:0:
510,331,34022,1,2,2:0:0:0:
511,315,34130,6,8,L|505:254,1,50,2|0,3:2|2:0,2:0:0:0:
434,270,34344,2,0,L|428:209,1,50,2|0,3:2|2:0,2:0:0:0:
503,191,34665,6,0,L|497:130,1,50,2|0,3:2|2:0,2:0:0:0:
426,146,34880,2,0,L|420:85,1,50,2|0,3:2|2:0,2:0:0:0:
349,101,35094,2,0,L|343:40,1,50,2|0,3:2|2:0,2:0:0:0:
485,15,35415,6,0,L|490:65,1,50,2|0,3:2|2:0,2:0:0:0:
429,104,35630,1,2,3:2:0:0:
429,104,35737,1,2,3:2:0:0:
429,104,35844,6,0,L|432:153,1,50,10|0,3:2|2:0,2:0:0:0:
359,163,36058,2,0,L|362:212,1,50,10|0,3:2|2:0,2:0:0:0:
440,231,36380,6,0,L|443:280,1,50,10|0,3:2|2:0,2:0:0:0:
371,288,36594,2,0,L|374:337,1,50,10|0,3:2|2:0,2:0:0:0:
281,168,36915,6,0,L|277:118,1,50,10|0,3:2|2:0,2:0:0:0:
230,55,37130,5,10,3:2:0:0:
214,53,37237,1,0,2:0:0:0:
198,52,37344,1,14,3:2:0:0:
181,50,37451,1,10,3:2:0:0:
165,49,37559,5,0,3:2:0:0:
156,58,37666,1,2,2:0:0:0:
139,86,37773,1,2,2:0:0:0:
136,135,37880,1,2,2:0:0:0:
165,186,37987,1,2,2:0:0:0:
240,210,38094,1,2,2:0:0:0:
247,294,38201,1,2,2:0:0:0:
250,214,38309,1,2,2:0:0:0:
0,292,38523,5,2,2:0:0:0:
12,284,38630,1,2,2:0:0:0:
39,281,38737,1,2,2:0:0:0:
84,300,38844,1,2,2:0:0:0:
127,344,38951,1,2,2:0:0:0:
204,349,39059,1,2,2:0:0:0:
118,369,39166,1,2,2:0:0:0:
316,254,39380,5,2,2:0:0:0:
325,244,39487,1,2,2:0:0:0:
331,229,39594,1,2,2:0:0:0:
328,209,39701,1,2,3:2:0:0:
309,173,39808,1,2,2:0:0:0:
307,122,39915,1,2,2:0:0:0:
333,70,40023,1,2,2:0:0:0:
403,38,40130,5,2,2:3:0:0:
435,127,40273,5,0,2:0:0:0:
423,134,40344,5,2,2:3:0:0:
384,136,40451,5,2,2:3:0:0:
256,60,40558,5,0,3:2:0:0:
245,52,40665,1,2,2:0:0:0:
225,46,40773,1,2,2:0:0:0:
198,51,40880,1,2,2:0:0:0:
159,111,40987,1,6,2:0:0:0:
108,147,41094,1,2,2:0:0:0:
35,116,41201,1,2,2:0:0:0:
98,156,41308,1,2,2:0:0:0:
313,10,41523,5,2,2:0:0:0:
320,17,41630,1,2,2:0:0:0:
329,36,41737,1,2,2:0:0:0:
328,82,41844,1,2,2:0:0:0:
295,149,41951,1,2,2:0:0:0:
340,220,42058,1,2,2:0:0:0:
280,150,42165,1,2,2:0:0:0:
497,325,42379,5,2,2:0:0:0:
486,333,42486,1,2,2:0:0:0:
466,339,42593,1,2,2:0:0:0:
439,334,42700,1,2,3:2:0:0:
400,274,42809,1,2,2:0:0:0:
349,238,42916,1,2,2:0:0:0:
274,266,43022,1,2,2:0:0:0:
341,235,43129,5,2,2:3:0:0:
346,251,43236,1,2,2:3:0:0:
348,268,43343,1,2,2:3:0:0:
346,285,43450,1,2,2:3:0:0:
289,345,43559,5,6,3:2:0:0:
251,341,43666,1,0,2:0:0:0:
214,338,43773,1,2,3:2:0:0:
176,335,43880,1,0,2:0:0:0:
103,326,43987,5,0,3:2:0:0:
101,314,44094,1,0,3:2:0:0:
100,303,44201,1,10,3:2:0:0:
99,292,44309,6,0,L|85:140,1,150,6|0,3:2|2:0,2:0:0:0:
76,69,44630,2,0,B|50:66|39:55|39:55|41:72|28:94,1,75,2|0,2:0|2:0,2:0:0:0:
106,212,44844,2,0,B|131:209|142:198|142:198|140:215|153:237,1,75,2|0,2:0|2:0,2:0:0:0:
232,249,45059,5,6,3:2:0:0:
235,211,45166,1,0,2:0:0:0:
238,174,45273,1,2,3:2:0:0:
241,136,45380,1,0,2:0:0:0:
234,63,45487,5,0,3:2:0:0:
246,61,45594,1,0,3:2:0:0:
257,60,45701,1,10,3:2:0:0:
276,60,45809,6,0,L|427:46,1,150,6|8,3:2|2:3,2:0:0:0:
502,44,46130,2,0,B|504:18|515:7|515:7|498:9|476:-3,1,75,10|8,2:3|2:3,2:0:0:0:
362,85,46344,2,0,B|364:110|375:121|375:121|358:119|336:132,1,75,10|8,2:3|2:3,2:0:0:0:
270,184,46559,5,6,3:2:0:0:
253,217,46666,1,0,2:0:0:0:
258,253,46773,1,2,3:2:0:0:
283,281,46880,1,0,2:0:0:0:
349,324,46987,5,0,3:2:0:0:
357,340,47094,1,0,3:2:0:0:
354,358,47201,1,10,3:2:0:0:
341,373,47309,2,0,L|212:376,1,100,6|0,3:2|2:0,2:0:0:0:
125,301,47630,5,2,2:3:0:0:
112,307,47737,1,0,2:0:0:0:
105,317,47844,1,2,2:3:0:0:
103,329,47951,1,0,2:0:0:0:
171,354,48059,5,6,3:2:0:0:
171,316,48166,1,2,3:2:0:0:
164,278,48273,1,2,3:2:0:0:
149,244,48380,1,2,3:2:0:0:
168,169,48487,5,0,3:2:0:0:
167,160,48559,5,0,2:0:0:0:
171,152,48630,5,0,2:0:0:0:
175,147,48701,5,10,3:2:0:0:
237,106,48809,6,0,P|252:149|254:231,1,100,6|0,3:2|2:0,2:0:0:0:
256,302,49130,5,0,3:2:0:0:
252,310,49201,5,0,3:2:0:0:
253,319,49273,5,0,3:2:0:0:
257,328,49344,5,0,3:2:0:0:
265,343,49451,1,0,2:0:0:0:
253,360,49559,1,0,3:2:0:0:
258,371,49666,1,0,2:0:0:0:
261,381,49773,5,2,2:0:0:0:
261,381,49987,1,0,2:0:0:0:
196,293,50201,5,2,2:0:0:0:
196,293,50415,1,0,2:0:0:0:
296,216,50630,5,2,2:0:0:0:
296,216,50844,1,0,2:0:0:0:
195,52,51058,5,2,2:0:0:0:
215,13,51165,1,2,2:0:0:0:
252,8,51273,1,2,2:0:0:0:
266,11,51380,1,2,2:0:0:0:
275,16,51487,5,2,2:0:0:0:
271,60,51630,5,0,2:0:0:0:
267,104,51773,5,0,2:0:0:0:
263,148,51915,6,2,P|311:143|361:177,1,89.9999999999998,2|0,2:1|2:0,2:1:0:0:
417,139,52344,1,4,2:0:0:0:
256,192,52451,12,0,53844,2:0:0:0:
495,223,54058,6,0,L|431:228,1,50,0|0,2:0|2:0,2:0:0:0:
486,233,54272,2,0,L|422:238,1,50,2|0,2:0|2:0,2:0:0:0:
406,160,54486,6,0,L|342:154,1,50,0|2,2:0|2:0,2:0:0:0:
397,150,54701,2,0,L|333:144,1,50,0|0,2:0|2:0,2:0:0:0:
310,241,54915,6,0,L|246:246,1,50,2|0,2:0|2:0,2:0:0:0:
182,147,55129,2,0,L|232:152,1,50,2|0,2:0|2:0,2:0:0:0:
135,269,55344,6,0,L|71:274,1,50,2|0,2:0|2:0,2:0:0:0:
17,131,55558,2,0,L|66:135,1,50,2|0,2:0|2:0,2:0:0:0:
139,272,55772,5,2,2:3:0:0:
161,277,55879,1,2,2:3:0:0:
185,276,55986,1,0,2:0:0:0:
207,266,56094,1,2,3:0:0:0:
256,210,56201,5,2,3:0:0:0:
278,203,56308,1,0,2:0:0:0:
302,208,56415,1,0,3:2:0:0:
321,222,56522,1,0,3:2:0:0:
394,195,56629,5,8,2:0:0:0:
401,185,56701,5,0,2:0:0:0:
405,176,56772,5,0,2:0:0:0:
405,164,56844,6,0,P|399:141|388:123,1,25,8|0,2:3|2:0,2:0:0:0:
391,60,57004,2,0,P|373:50|350:51,1,25,8|0,2:3|2:0,2:0:0:0:
302,0,57165,2,0,P|282:13|269:31,1,25,8|0,2:3|2:0,2:0:0:0:
227,103,57272,6,0,L|485:87,1,250,4|4,2:3|3:2,2:0:0:0:
479,0,57594,5,2,2:0:0:0:
469,3,57701,1,2,2:0:0:0:
462,18,57808,1,0,3:2:0:0:
476,87,57915,1,2,2:0:0:0:
497,127,58022,1,2,2:0:0:0:
492,158,58129,1,0,3:2:0:0:
486,166,58236,2,0,L|431:162,1,50,0|0,3:2|2:0,2:0:0:0:
313,120,58451,5,0,3:2:0:0:
303,123,58558,1,0,3:2:0:0:
296,138,58665,1,2,2:0:0:0:
292,213,58772,1,0,3:2:0:0:
305,256,58879,1,2,2:0:0:0:
330,274,58986,1,0,3:2:0:0:
339,279,59094,2,0,L|387:274,1,50,0|0,3:2|2:0,2:0:0:0:
511,356,59308,5,0,3:2:0:0:
510,345,59415,1,2,2:0:0:0:
498,334,59522,1,2,2:0:0:0:
466,266,59629,1,0,3:2:0:0:
462,247,59736,1,2,2:0:0:0:
467,234,59844,1,2,2:0:0:0:
474,229,59951,5,2,3:2:0:0:
488,194,60058,1,2,3:2:0:0:
469,149,60165,1,2,3:2:0:0:
427,123,60272,6,0,B|403:115|403:115|375:130,1,37.5,8|0,2:3|2:0,2:0:0:0:
310,90,60433,2,0,B|295:104|295:104|296:140,1,37.5,8|0,2:3|2:0,2:0:0:0:
237,188,60594,2,0,B|242:210|242:210|274:222,1,37.5,8|0,2:3|2:0,2:0:0:0:
344,195,60701,5,4,2:3:0:0:
344,195,60808,1,8,2:3:0:0:
232,180,60915,5,0,3:2:0:0:
223,173,61022,1,2,2:0:0:0:
207,171,61129,1,2,2:0:0:0:
179,179,61236,1,0,3:2:0:0:
107,220,61344,1,2,2:0:0:0:
77,226,61451,1,2,2:0:0:0:
58,222,61558,1,0,3:2:0:0:
52,214,61665,2,0,L|45:143,1,50,0|0,3:2|2:0,2:0:0:0:
99,33,61879,5,0,3:2:0:0:
108,47,61986,1,0,3:2:0:0:
105,59,62094,1,2,2:0:0:0:
143,121,62201,1,0,3:2:0:0:
137,164,62308,1,2,2:0:0:0:
154,190,62415,1,0,3:2:0:0:
161,199,62522,2,0,P|167:222|166:253,1,50,0|0,3:2|2:0,2:0:0:0:
95,330,62736,5,0,3:2:0:0:
102,339,62844,1,2,2:0:0:0:
122,346,62951,1,2,2:0:0:0:
191,318,63058,1,0,3:2:0:0:
211,310,63165,1,2,2:0:0:0:
228,310,63272,1,2,2:0:0:0:
245,314,63379,5,2,3:2:0:0:
287,350,63486,1,2,3:2:0:0:
336,353,63594,1,2,3:2:0:0:
375,317,63701,6,0,B|382:294|382:294|369:274,1,37.5,8|0,2:3|2:0,2:0:0:0:
410,199,63861,2,0,B|390:181|390:181|363:184,1,37.5,8|0,2:3|2:0,2:0:0:0:
316,127,64022,2,0,B|294:135|294:135|287:158,1,37.5,8|0,2:3|2:0,2:0:0:0:
307,240,64129,5,4,2:3:0:0:
307,240,64236,1,8,2:3:0:0:
410,199,64344,5,0,2:0:0:0:
436,373,65629,5,0,3:2:0:0:
434,361,65701,5,0,3:2:0:0:
432,350,65772,5,0,3:2:0:0:
430,339,65844,5,0,3:2:0:0:
373,290,65951,1,0,3:2:0:0:
312,337,66058,5,4,3:2:0:0:
298,345,66165,1,0,3:2:0:0:
281,343,66272,1,2,2:0:0:0:
266,334,66379,1,2,2:0:0:0:
205,287,66486,1,0,3:2:0:0:
180,278,66594,1,2,2:0:0:0:
162,284,66701,1,2,2:0:0:0:
153,296,66808,5,2,3:2:0:0:
114,322,66915,1,2,3:2:0:0:
66,319,67022,1,2,3:2:0:0:
34,286,67129,6,0,B|27:263|27:263|40:242,1,37.5,8|0,2:3|2:0,2:0:0:0:
0,167,67290,2,0,B|19:150|19:150|46:154,1,37.5,8|0,2:3|2:0,2:0:0:0:
98,94,67451,2,0,B|120:103|120:103|128:127,1,37.5,8|0,2:3|2:0,2:0:0:0:
107,202,67558,5,4,2:3:0:0:
107,202,67665,1,8,2:3:0:0:
89,92,67772,5,4,3:2:0:0:
141,26,67879,1,2,2:0:0:0:
225,48,67986,5,10,2:0:0:0:
224,56,68040,5,0,2:0:0:0:
223,65,68094,5,0,3:2:0:0:
222,87,68201,5,2,2:0:0:0:
254,135,68308,1,2,2:0:0:0:
300,137,68415,1,0,3:2:0:0:
321,99,68522,2,0,P|347:91|372:94,1,50,4|0,3:2|2:0,2:0:0:0:
475,187,68736,5,0,3:2:0:0:
477,175,68844,1,0,3:2:0:0:
479,163,68951,1,2,2:0:0:0:
444,100,69058,1,0,3:2:0:0:
438,66,69165,1,2,2:0:0:0:
445,38,69272,1,0,3:2:0:0:
459,29,69379,2,0,P|436:39|408:32,1,50,0|8,3:2|2:0,2:0:0:0:
307,0,69594,5,0,3:2:0:0:
298,14,69701,1,2,2:0:0:0:
296,31,69808,1,2,2:0:0:0:
321,99,69915,1,8,2:3:0:0:
344,124,70022,1,8,2:3:0:0:
353,144,70129,1,8,2:3:0:0:
355,160,70236,1,2,3:2:0:0:
352,170,70344,2,0,P|371:134|400:126,1,50,6|2,3:2|3:2,2:0:0:0:
480,183,70558,6,0,B|486:206|486:206|472:228,1,37.5,8|0,2:3|2:0,2:0:0:0:
504,296,70719,2,0,B|484:313|484:313|456:309,1,37.5,8|0,2:3|2:0,2:0:0:0:
410,362,70879,2,0,B|388:353|388:353|380:329,1,37.5,8|0,2:3|2:0,2:0:0:0:
401,261,70986,5,4,2:3:0:0:
401,261,71094,1,8,2:3:0:0:
307,374,71201,6,0,L|246:368,1,50,6|0,3:2|2:0,2:0:0:0:
262,297,71415,2,0,L|201:291,1,50,2|0,3:2|2:0,2:0:0:0:
183,366,71736,6,0,L|122:360,1,50,2|0,3:2|2:0,2:0:0:0:
138,289,71951,2,0,L|77:283,1,50,2|0,3:2|2:0,2:0:0:0:
93,212,72165,2,0,L|32:206,1,50,2|0,3:2|2:0,2:0:0:0:
7,348,72486,5,2,3:2:0:0:
7,348,72594,1,10,2:0:0:0:
7,348,72701,2,0,L|57:353,1,50,6|0,3:2|2:0,2:0:0:0:
98,291,72915,2,0,L|147:294,1,50,2|0,3:2|2:0,2:0:0:0:
183,366,73236,6,0,L|232:369,1,50,6|0,3:2|2:0,2:0:0:0:
240,297,73451,2,0,L|289:300,1,50,2|0,3:2|2:0,2:0:0:0:
297,228,73665,2,0,L|346:231,1,50,6|0,3:2|2:0,2:0:0:0:
191,206,73986,5,10,2:0:0:0:
193,214,74093,1,10,2:0:0:0:
196,221,74201,6,0,B|174:170|193:123|227:117|249:56|205:2,1,225,2|0,3:2|2:0,2:0:0:0:
153,59,75915,5,0,3:2:0:0:
256,192,76022,12,0,77522,2:0:0:0:
194,259,77629,5,4,2:1:0:0:
313,128,77843,1,2,2:0:0:0:
248,183,78058,5,2,2:0:0:0:
263,199,78272,1,2,2:0:0:0:
174,100,78486,5,2,2:0:0:0:
344,288,78701,1,2,2:0:0:0:
373,60,78915,5,2,2:3:0:0:
128,329,79129,1,2,2:3:0:0:
174,100,79343,5,2,2:3:0:0:
344,288,79558,1,2,2:0:0:0:
263,183,79772,5,2,2:0:0:0:
248,199,79986,1,2,2:0:0:0:
343,94,80201,5,2,2:3:0:0:
161,294,80415,1,2,2:0:0:0:
367,312,80629,5,2,2:0:0:0:
146,68,80843,1,2,2:0:0:0:
349,198,81058,5,4,2:0:0:0:
172,189,81272,1,2,2:0:0:0:
257,183,81486,5,2,2:0:0:0:
258,205,81701,1,2,2:0:0:0:
250,71,81915,5,2,2:0:0:0:
262,325,82129,1,2,2:0:0:0:
81,184,82343,5,2,2:3:0:0:
445,201,82558,1,2,2:0:0:0:
250,71,82772,5,2,2:3:0:0:
262,325,82986,1,2,2:0:0:0:
246,194,83201,5,2,2:0:0:0:
268,195,83415,1,2,2:0:0:0:
126,186,83629,5,2,2:3:0:0:
397,199,83843,1,2,2:0:0:0:
416,125,84058,6,2,L|418:113,12,12.5,0|0|0|0|0|0|0|0|0|0|0|0|0,2:0|2:0|2:0|2:0|2:0|2:0|2:0|2:0|2:0|2:0|2:0|2:0|2:0,2:1:0:0:
397,199,84486,6,0,P|328:240|277:293,1,140,4|8,2:1|3:2,2:0:0:0:
250,363,84701,1,0,2:0:0:0:
250,363,84808,1,2,3:2:0:0:
250,363,84915,2,0,P|276:335|280:298,1,75,8|0,3:2|2:0,2:0:0:0:
320,212,85129,2,0,P|305:176|276:156,1,75,2|0,3:2|3:2,2:0:0:0:
169,125,85343,6,0,P|243:115|349:90,1,155,2|8,3:2|3:2,2:0:0:0:
390,36,85558,1,0,2:0:0:0:
390,36,85665,1,2,3:2:0:0:
390,36,85772,2,0,P|347:52|323:91,1,89.9999999999999,12|0,3:2|2:0,2:0:0:0:
315,210,85986,2,0,P|286:164|240:144,1,89.9999999999999,6|0,3:2|2:0,2:0:0:0:
119,61,86201,6,0,P|144:141|163:224,1,170,6|8,3:2|3:2,2:0:0:0:
115,330,86415,1,0,2:0:0:0:
115,330,86522,1,2,3:2:0:0:
115,330,86629,2,0,P|120:277|158:239,1,105,8|0,3:2|2:0,2:0:0:0:
172,132,86843,2,0,P|222:115|272:132,1,105,2|0,3:2|3:2,2:0:0:0:
328,292,87058,6,0,P|346:209|372:128,1,155,6|8,3:2|2:0,2:0:0:0:
447,378,87379,1,2,3:2:0:0:
451,382,87486,5,8,3:2:0:0:
392,327,87593,1,8,3:2:0:0:
317,366,87701,1,10,3:2:0:0:
256,308,87808,1,8,3:2:0:0:
185,345,87915,5,6,3:2:0:0:
190,354,88022,2,0,P|177:290|156:225,1,120,8|0,3:2|2:0,2:0:0:0:
93,188,88236,1,2,3:2:0:0:
93,188,88343,2,0,P|116:218|151:228,1,75,8|0,3:2|2:0,2:0:0:0:
272,151,88558,2,0,P|234:155|207:181,1,75,2|0,3:2|3:2,2:0:0:0:
301,249,88772,5,2,3:2:0:0:
301,249,88879,2,0,P|316:171|342:90,1,140,8|0,2:0|2:0,2:0:0:0:
412,60,89093,1,8,2:3:0:0:
412,60,89201,2,0,P|388:90|353:100,1,75,4|0,3:2|2:0,2:0:0:0:
282,170,89415,2,0,P|246:155|227:123,1,75,6|0,3:2|2:0,2:0:0:0:
269,0,89629,5,0,2:0:0:0:
293,32,89772,5,0,2:0:0:0:
275,67,89915,5,0,2:0:0:0:
208,113,90058,5,0,2:0:0:0:
198,130,90201,5,0,2:0:0:0:
208,147,90343,5,0,2:0:0:0:
261,203,90486,5,4,2:0:0:0:
316,282,90629,5,4,2:0:0:0:
271,365,90772,5,4,2:0:0:0:
218,307,90915,5,12,2:0:0:0:
210,293,91058,5,12,2:0:0:0:
218,279,91201,5,12,2:0:0:0:
356,362,91344,6,0,P|380:358|405:355,1,50,4|0,1:0|2:0,2:0:0:0:
362,350,91486,2,0,P|386:346|411:343,1,50,0|0,2:0|2:0,2:0:0:0:
511,280,91629,6,0,P|487:276|462:273,1,50,0|0,2:0|2:0,2:0:0:0:
503,290,91772,2,0,P|478:286|453:283,1,50,0|0,2:0|2:0,2:0:0:0:
396,221,91915,5,8,2:0:0:0:
392,183,91986,1,8,2:0:0:0:
389,146,92058,1,8,2:0:0:0:
386,108,92129,1,8,2:0:0:0:
382,71,92201,5,8,2:0:0:0:
382,71,92344,1,0,2:0:0:0:
486,152,92486,5,0,2:0:0:0:
265,50,92629,1,0,2:0:0:0:
382,71,92772,5,8,2:0:0:0:
386,108,92844,1,8,2:0:0:0:
389,146,92915,1,8,2:0:0:0:
392,183,92986,1,8,2:0:0:0:
395,217,93058,6,0,P|419:213|444:210,1,50,0|0,1:0|2:0,2:0:0:0:
403,227,93201,2,0,P|427:223|452:220,1,50,0|0,2:0|2:0,2:0:0:0:
329,264,93344,6,0,P|304:260|279:257,1,50,0|0,2:0|2:0,2:0:0:0:
323,252,93486,2,0,P|298:248|273:245,1,50,0|0,2:0|2:0,2:0:0:0:
221,308,93629,5,8,2:0:0:0:
183,311,93701,1,8,2:0:0:0:
146,314,93772,1,8,2:0:0:0:
108,317,93844,1,8,2:0:0:0:
71,321,93915,5,8,2:0:0:0:
71,321,94058,1,0,2:0:0:0:
92,203,94201,5,0,2:0:0:0:
267,375,94344,1,0,2:0:0:0:
71,321,94486,5,8,2:0:0:0:
108,317,94558,1,8,2:0:0:0:
146,314,94629,1,8,2:0:0:0:
183,311,94701,1,8,2:0:0:0:
221,308,94772,6,0,P|217:283|214:258,1,50,4|0,1:0|2:0,2:0:0:0:
231,300,94915,2,0,P|227:275|224:250,1,50,0|0,2:0|2:0,2:0:0:0:
264,105,95058,6,0,P|260:129|257:154,1,50,0|0,2:0|2:0,2:0:0:0:
252,110,95201,2,0,P|248:134|245:159,1,50,0|0,2:0|2:0,2:0:0:0:
307,221,95344,5,8,2:0:0:0:
345,218,95415,1,8,2:0:0:0:
382,215,95486,1,8,2:0:0:0:
420,212,95558,1,8,2:0:0:0:
457,208,95629,5,12,2:0:0:0:
457,208,95772,1,0,2:0:0:0:
442,313,95915,5,0,2:0:0:0:
485,95,96058,1,0,2:0:0:0:
457,208,96201,5,8,2:0:0:0:
420,212,96272,1,8,2:0:0:0:
382,215,96344,1,8,2:0:0:0:
345,218,96415,1,8,2:0:0:0:
307,222,96486,6,0,P|311:197|314:172,1,50,0|0,1:0|2:0,2:0:0:0:
297,214,96629,2,0,P|301:189|304:164,1,50,0|0,2:0|2:0,2:0:0:0:
268,25,96772,6,0,P|271:49|274:74,1,50,0|0,2:0|2:0,2:0:0:0:
280,31,96915,2,0,P|283:55|286:80,1,50,0|0,2:0|2:0,2:0:0:0:
215,136,97058,5,8,2:0:0:0:
177,133,97129,1,8,2:0:0:0:
140,130,97201,1,8,2:0:0:0:
102,127,97272,1,8,2:0:0:0:
65,123,97344,5,8,2:0:0:0:
65,123,97486,1,0,2:0:0:0:
6,210,97629,5,0,2:0:0:0:
128,9,97772,1,2,3:0:0:0:
128,9,97915,6,0,P|139:34|146:71,3,50,10|10|10|10,2:0|2:0|2:0|2:0,2:0:0:0:
140,130,98201,5,4,1:0:0:0:
129,152,98272,1,2,2:0:0:0:
125,177,98344,1,2,2:0:0:0:
126,202,98415,1,2,2:0:0:0:
133,226,98486,1,2,2:0:0:0:
143,248,98558,1,2,2:0:0:0:
147,273,98629,1,2,2:0:0:0:
146,298,98701,1,2,2:0:0:0:
127,330,98772,5,10,2:0:0:0:
138,278,98844,1,10,2:0:0:0:
179,250,98915,1,10,2:0:0:0:
230,255,98986,1,10,2:0:0:0:
257,284,99058,6,0,P|277:296|308:304,3,50,8|2|2|2,2:0|2:0|2:0|2:0,2:0:0:0:
367,265,99344,2,0,P|387:252|418:244,3,50,2|2|2|2,2:0|2:0|2:0|2:0,2:0:0:0:
487,319,99629,5,10,2:0:0:0:
441,290,99701,1,10,2:0:0:0:
428,242,99772,1,10,2:0:0:0:
451,195,99844,1,10,2:0:0:0:
467,170,99915,5,2,1:2:0:0:
471,153,99986,1,2,2:0:0:0:
471,137,100058,1,2,2:0:0:0:
466,121,100129,1,2,2:0:0:0:
456,108,100201,1,2,2:0:0:0:
442,98,100272,1,2,2:0:0:0:
426,94,100344,5,2,2:0:0:0:
437,107,100415,1,2,2:0:0:0:
452,114,100486,1,10,2:0:0:0:
468,118,100558,1,10,2:0:0:0:
483,115,100629,1,10,2:0:0:0:
499,109,100701,1,10,2:0:0:0:
511,97,100772,6,0,P|502:73|486:54,3,50,8|2|2|2,2:0|2:0|2:0|2:0,2:0:0:0:
415,15,101058,5,2,2:0:0:0:
390,20,101129,1,2,2:0:0:0:
369,34,101201,1,2,2:0:0:0:
354,53,101272,1,2,2:0:0:0:
361,128,101344,5,8,2:0:0:0:
324,122,101415,1,8,2:0:0:0:
289,134,101486,1,8,2:0:0:0:
263,161,101558,1,8,2:0:0:0:
242,230,101629,5,6,1:2:0:0:
225,234,101701,1,2,2:0:0:0:
210,243,101772,1,2,2:0:0:0:
200,256,101844,1,2,2:0:0:0:
206,318,101915,5,10,2:0:0:0:
453,379,102058,1,10,2:0:0:0:
279,337,102201,5,10,2:0:0:0:
278,351,102272,1,10,2:0:0:0:
272,362,102344,1,10,2:0:0:0:
265,372,102415,1,10,2:0:0:0:
256,377,102486,5,12,2:0:0:0:
256,29,102701,5,4,2:0:0:0:
417,192,102915,5,4,2:0:0:0:
93,192,103129,5,10,2:0:0:0:
436,63,103344,5,6,1:0:0:0:
432,81,103451,1,2,2:0:0:0:
431,96,103558,1,2,2:0:0:0:
435,113,103665,1,2,2:0:0:0:
489,165,103772,5,2,2:0:0:0:
494,183,103879,1,2,2:0:0:0:
495,198,103986,1,2,2:0:0:0:
491,215,104094,1,2,2:0:0:0:
433,265,104201,5,2,2:0:0:0:
429,283,104308,1,2,2:0:0:0:
428,298,104415,1,2,2:0:0:0:
432,315,104522,1,2,2:0:0:0:
439,332,104629,6,0,P|406:302|372:293,1,75,4|0,2:0|2:0,2:0:0:0:
323,227,104844,2,0,P|279:236|252:259,1,75,4|0,2:0|2:0,2:0:0:0:
214,330,105058,5,6,2:0:0:0:
196,335,105165,1,2,2:0:0:0:
181,336,105272,1,2,2:0:0:0:
164,332,105379,1,2,2:0:0:0:
114,274,105486,5,2,2:0:0:0:
96,270,105594,1,2,2:0:0:0:
81,269,105701,1,2,2:0:0:0:
64,273,105808,1,2,2:0:0:0:
52,283,105915,6,0,P|66:252|56:202,3,50,6|2|2|2,2:0|2:0|2:0|2:0,2:0:0:0:
19,177,106344,2,0,P|5:146|15:96,3,50,2|2|2|2,2:0|2:0|2:0|2:0,2:0:0:0:
33,57,106772,5,6,1:0:0:0:
57,54,106879,1,2,2:0:0:0:
82,52,106986,1,2,2:0:0:0:
107,50,107094,1,2,2:0:0:0:
176,19,107201,5,2,2:0:0:0:
200,21,107308,1,2,2:0:0:0:
225,23,107415,1,2,2:0:0:0:
250,25,107522,1,2,2:0:0:0:
271,28,107629,6,0,L|266:82,3,50,2|2|2|2,2:0|2:0|2:0|2:0,2:0:0:0:
215,134,108058,2,0,L|219:188,1,50,4|0,2:0|2:0,2:0:0:0:
223,144,108272,2,0,L|227:198,1,50,0|0,2:0|2:0,2:0:0:0:
288,241,108486,5,6,2:0:0:0:
306,242,108594,1,2,2:0:0:0:
321,241,108701,1,2,2:0:0:0:
337,234,108808,1,2,2:0:0:0:
376,168,108915,5,2,2:0:0:0:
393,161,109022,1,2,2:0:0:0:
408,157,109129,1,2,2:0:0:0:
425,158,109236,1,2,2:0:0:0:
439,165,109344,6,0,L|443:219,1,50,6|2,2:0|2:0,2:0:0:0:
447,175,109558,2,0,L|451:229,1,50,2|2,2:0|2:0,2:0:0:0:
506,278,109772,2,0,L|501:332,3,50,2|2|2|2,2:0|2:0|2:0|2:0,2:0:0:0:
441,374,110201,5,6,1:0:0:0:
416,371,110308,1,2,2:0:0:0:
391,369,110415,1,2,2:0:0:0:
366,367,110522,1,2,2:0:0:0:
298,336,110629,5,2,2:0:0:0:
274,338,110736,1,2,2:0:0:0:
249,340,110844,1,2,2:0:0:0:
224,342,110951,1,2,2:0:0:0:
163,384,111058,5,2,2:0:0:0:
138,381,111165,1,2,2:0:0:0:
113,379,111272,1,2,2:0:0:0:
88,377,111379,1,2,2:0:0:0:
56,374,111486,6,0,P|57:338|71:313,1,50,4|0,2:0|2:0,2:0:0:0:
61,248,111701,2,0,P|91:228|119:225,1,50,4|0,2:0|2:0,2:0:0:0:
173,272,111915,5,6,2:0:0:0:
192,277,112022,1,2,2:0:0:0:
206,278,112129,1,2,2:0:0:0:
223,274,112236,1,2,2:0:0:0:
273,216,112344,5,2,2:0:0:0:
291,212,112451,1,2,2:0:0:0:
306,211,112558,1,2,2:0:0:0:
323,215,112665,1,2,2:0:0:0:
335,225,112772,6,0,P|321:194|331:144,3,50,6|2|2|2,2:0|2:0|2:0|2:0,2:0:0:0:
368,119,113201,2,0,P|382:88|372:38,3,50,2|2|2|2,2:0|2:0|2:0|2:0,2:0:0:0:
321,11,113629,5,4,3:1:0:0:
285,8,113736,1,0,2:0:0:0:
270,16,113844,1,0,2:0:0:0:
194,42,113951,5,4,3:2:0:0:
141,63,114058,1,0,2:0:0:0:
95,24,114165,1,0,2:0:0:0:
13,8,114272,5,4,3:1:0:0:
15,22,114379,1,0,2:0:0:0:
10,55,114486,1,0,2:0:0:0:
65,106,114594,5,4,3:2:0:0:
61,129,114701,1,0,2:0:0:0:
65,149,114808,1,0,2:0:0:0:
121,202,114915,5,14,3:2:0:0:
183,164,115022,1,10,1:3:0:0:
238,185,115129,1,10,1:3:0:0:
248,204,115236,1,10,1:3:0:0:
301,261,115344,5,4,3:1:0:0:
295,269,115451,1,0,2:0:0:0:
291,282,115558,1,0,2:0:0:0:
372,347,115665,5,4,3:2:0:0:
373,331,115772,1,0,2:0:0:0:
361,306,115879,1,0,2:0:0:0:
375,227,115986,5,4,3:1:0:0:
380,195,116094,1,0,2:0:0:0:
386,180,116201,1,0,2:0:0:0:
348,98,116308,5,4,3:2:0:0:
308,119,116415,1,0,2:0:0:0:
262,98,116522,1,0,2:0:0:0:
204,143,116629,5,8,1:0:0:0:
248,213,116736,1,8,1:0:0:0:
248,290,116844,1,8,1:0:0:0:
265,361,116951,1,8,1:0:0:0:
256,376,117058,5,4,2:1:0:0:
256,376,118344,5,2,2:0:0:0:
297,311,118558,1,2,2:0:0:0:
216,235,118772,5,2,2:0:0:0:
216,235,118986,1,0,2:0:0:0:
216,235,119201,1,0,2:0:0:0:
216,235,119415,1,0,2:0:0:0:
295,150,119629,5,2,2:0:0:0:
295,150,119844,1,0,2:0:0:0:
295,150,120058,1,0,2:0:0:0:
295,150,120272,1,0,2:0:0:0:
226,71,120486,5,2,2:0:0:0:
226,71,120701,1,0,2:0:0:0:
306,9,120915,5,0,2:0:0:0:
306,9,121129,1,0,2:0:0:0:
368,89,121344,5,0,2:0:0:0:
368,89,121558,1,0,2:0:0:0:
288,151,121772,5,2,2:0:0:0:
288,151,121986,1,0,2:0:0:0:
137,105,122201,5,2,2:0:0:0:
137,105,122415,1,0,2:0:0:0:
46,151,122629,5,0,2:0:0:0:
46,151,122844,1,0,2:0:0:0:
0,61,123058,5,2,2:0:0:0:
0,61,123272,1,0,2:0:0:0:
90,14,123486,5,0,2:0:0:0:
90,14,123701,1,0,2:0:0:0:
191,18,123915,6,0,P|230:19|256:68,1,100,4|0,2:0|2:0,2:0:0:0:
203,164,125201,1,2,2:0:0:0:
273,236,125415,1,2,2:0:0:0:
225,299,125629,6,0,P|234:327|237:357,1,60,2|0,2:0|2:0,2:0:0:0:
274,221,126486,2,0,P|277:191|287:163,1,60,2|0,2:0|2:0,2:0:0:0:
358,204,127344,6,0,B|274:169|227:237|254:262|208:342|123:310,1,275,2|0,2:0|2:0,2:0:0:0:
155,240,128629,6,0,P|238:249|331:285,1,170,2|0,2:0|2:0,2:0:0:0:
296,351,129058,5,2,2:0:0:0:
296,351,129272,1,0,2:0:0:0:
155,240,129486,5,0,2:0:0:0:
155,240,129701,1,0,2:0:0:0:
303,160,129915,5,2,2:0:0:0:
188,81,130129,1,0,2:0:0:0:
256,20,130344,5,0,2:0:0:0:
256,20,130558,1,0,2:0:0:0:
