osu file format v14

[General]
AudioFilename: audio.mp3
AudioLeadIn: 0
PreviewTime: 77522
Countdown: 0
SampleSet: Soft
StackLeniency: 0.4
Mode: 0
LetterboxInBreaks: 0
WidescreenStoryboard: 1

[Editor]
Bookmarks: 275,3703,8846,12275,16989,20846,34129,37559,49773,52344,57486,64344,71201,74201,77629,84486,117058,130772
DistanceSpacing: 1.1
BeatDivisor: 6
GridSize: 16
TimelineZoom: 3.099999

[Metadata]
Title:Shounen wa Sora o Tadoru
TitleUnicode:少年は空を辿る
Artist:Power Of Nature
ArtistUnicode:Power Of Nature
Creator:CallieCube
Version:Ascended's Normal
Source:pop'n music 20 fantasia
Tags:allice obamacube callieonosu smokebloke Gordon Xoul Lazarus PaRaDogi -jordan- Jory Slyze- -_ascended_- ascended -ascended- wafer kami no kotoba goopert ioexception deadcode ceo of osu ceo_of_osu megafan fanzhen0019 electronic videogame video game instrumental
BeatmapID:3150851
BeatmapSetID:1373545

[Difficulty]
HPDrainRate:4
CircleSize:3.5
OverallDifficulty:4
ApproachRate:5.5
SliderMultiplier:1.2
SliderTickRate:1

[Events]
//Background and Video events
0,0,"starry sky big crop.jpeg",0,0
//Break Periods
2,24046,26363
2,30688,33005
2,52544,56361
2,74401,76504
//Storyboard Layer 0 (Background)
//Storyboard Layer 1 (Fail)
//Storyboard Layer 2 (Pass)
//Storyboard Layer 3 (Foreground)
//Storyboard Layer 4 (Overlay)
//Storyboard Sound Samples

[TimingPoints]
275,428.571428571429,4,2,1,80,1,0
8846,428.571428571429,8,2,1,80,1,0
12275,428.571428571429,4,2,1,80,1,0
13775,428.571428571429,4,2,1,80,1,0
15275,428.571428571429,4,2,1,80,1,0
20417,428.571428571429,4,2,1,70,1,8
20845,428.571428571429,7,2,1,60,1,0
20846,-111.111111111111,4,2,1,60,0,0
22560,-111.111111111111,3,2,1,60,0,0
23846,428.571428571429,4,2,1,60,1,0
25560,428.571428571429,5,2,1,60,1,0
27488,428.571428571429,7,2,1,70,1,0
27488,-111.111111111111,4,2,1,70,0,0
29202,-111.111111111111,3,2,1,70,0,0
30488,428.571428571429,4,2,1,70,1,0
32201,428.571428571429,5,2,1,70,1,0
34130,428.571428571429,4,2,1,80,1,0
37559,428.571428571429,7,2,1,80,1,0
43559,428.571428571429,7,2,1,80,1,0
46559,428.571428571429,4,2,1,80,1,0
49773,428.571428571429,6,2,1,70,1,0
51915,-100,6,2,1,80,0,0
52344,428.571428571429,4,2,1,60,1,0
57486,428.571428571429,4,2,1,80,1,0
57486,-100,4,2,1,80,0,0
65629,-100,4,2,1,60,0,0
66058,428.571428571429,4,2,1,80,1,0
66058,-100,4,2,1,80,0,0
67772,-100,4,2,1,85,0,0
71201,428.571428571429,5,2,1,80,1,0
71201,-100,4,2,1,80,0,0
72701,428.571428571429,4,2,1,80,1,0
74201,428.571428571429,4,2,1,60,1,0
77629,-100,4,2,1,100,0,0
78272,-100,4,2,1,95,0,0
78486,-100,4,2,1,90,0,0
78915,-100,4,2,1,80,0,0
79343,-100,4,2,1,70,0,0
79558,-100,4,2,2,65,0,0
79771,-100,4,2,2,60,0,0
79986,-100,4,2,2,55,0,0
80200,-100,4,2,2,50,0,0
80629,-100,4,2,2,40,0,0
81058,-100,4,2,2,60,0,0
84058,-100,4,2,2,80,0,0
84486,-100,4,2,1,80,0,0
86200,-100,4,2,1,85,0,0
87915,-100,4,2,1,90,0,0
89201,-100,4,2,1,80,0,0
89629,-100,4,2,1,60,0,0
90486,-100,4,2,1,40,0,0
90915,-100,4,2,1,80,0,0
91344,428.571428571429,4,2,1,80,1,0
91344,-89.2857142857143,6,2,1,100,0,1
91486,-89.2857142857143,6,2,1,80,0,1
94772,-89.2857142857143,6,2,1,100,0,1
94914,-89.2857142857143,6,2,1,80,0,1
95629,-89.2857142857143,6,2,1,100,0,1
95772,-89.2857142857143,6,2,1,80,0,1
98201,-89.2857142857143,6,2,1,100,0,1
98272,-89.2857142857143,6,2,1,80,0,1
101629,-89.2857142857143,6,2,1,100,0,1
101915,-89.2857142857143,6,2,1,80,0,1
102486,-89.2857142857143,6,2,1,100,0,1
102772,-89.2857142857143,6,2,1,80,0,1
103344,-100,6,2,1,80,0,0
104629,-100,4,2,1,80,0,0
117058,-111.111111111111,4,2,1,80,0,0
125201,-111.111111111111,4,2,1,50,0,0

[Colours]
Combo1 : 45,125,117
Combo2 : 33,80,126
Combo3 : 193,225,229
Combo4 : 115,182,204

[HitObjects]
489,77,3810,5,6,3:2:0:0:
411,139,4132,2,0,P|369:124|321:121,1,90,2|0,3:2|2:0,2:0:0:0:
259,132,4667,1,6,3:2:0:0:
185,64,4989,2,0,P|133:72|116:111,1,90,2|0,3:2|2:0,2:0:0:0:
137,164,5525,5,6,3:2:0:0:
83,247,5846,2,0,P|98:289|101:337,1,90,2|0,3:2|2:0,2:0:0:0:
144,383,6382,1,6,3:2:0:0:
222,322,6703,2,0,P|264:307|312:304,1,90,8|8,2:0|2:0,2:0:0:0:
372,323,7239,5,6,3:2:0:0:
453,267,7560,2,0,P|461:219|423:184,1,90,2|0,3:2|2:0,2:0:0:0:
371,177,8096,1,4,3:2:0:0:
278,212,8417,2,0,P|238:200|211:199,1,60,0|0,3:2|3:2,2:0:0:0:
163,233,8846,5,10,2:1:0:0:
1,117,9489,2,0,B|-8:45|-8:45|76:31,1,150,10|10,2:1|2:1,2:0:0:0:
246,111,10667,5,10,2:1:0:0:
357,40,11096,2,0,B|450:58|450:58|435:156,1,180,10|10,2:1|2:1,2:0:0:0:
400,302,12275,5,2,3:2:0:0:
400,302,12489,2,0,B|382:257|382:257|336:244,1,90,2|2,3:2|3:2,2:0:0:0:
290,283,13025,1,2,3:2:0:0:
290,283,13239,2,0,B|243:284|243:284|189:308,1,90,2|2,3:2|3:2,2:0:0:0:
140,322,13775,6,0,B|110:309|110:309|97:279,1,60,2|2,3:2|3:2,2:0:0:0:
77,187,14310,2,0,B|88:158|88:158|92:112,2,60,2|2|2,3:2|3:2|3:2,2:0:0:0:
175,179,15060,2,0,B|201:192|201:192|233:191,1,60.28,2|6,3:2|2:1,2:0:0:0:
447,127,16989,6,0,P|461:57|480:11,2,120,0|2|2,2:0|3:2|3:2,2:0:0:0:
453,192,18060,1,0,2:0:0:0:
453,192,18274,1,2,3:2:0:0:
337,128,18703,2,0,P|271:134|246:180,2,120,2|2|2,3:2|3:2|3:2,2:0:0:0:
320,259,19989,2,0,P|330:286|336:316,1,60,2|0,3:2|2:0,2:0:0:0:
342,382,20417,1,2,3:2:0:0:
234,330,20846,6,0,B|190:308|146:334|160:343|119:372|81:350,1,162,2|0,3:2|2:0,2:0:0:0:
36,312,21703,1,2,2:0:0:0:
167,114,22560,2,0,P|239:132|386:183,1,216,2|2,2:0|2:0,2:0:0:0:
432,74,23846,1,6,2:0:0:0:
108,248,27488,6,0,P|114:212|121:192,1,54.0000000000001,2|0,3:2|2:0,2:0:0:0:
77,154,27916,2,0,P|71:118|64:98,1,54.0000000000001,0|0,2:0|2:0,2:0:0:0:
104,56,28345,2,0,P|126:15|189:19,1,108,2|0,3:2|2:0,2:0:0:0:
286,95,29202,2,0,P|322:101|342:108,1,54.0000000000001,2|0,3:2|2:0,2:0:0:0:
380,64,29630,2,0,P|416:58|436:51,1,54.0000000000001,0|0,2:0|2:0,2:0:0:0:
485,79,30059,1,2,3:2:0:0:
427,182,30488,5,6,3:2:0:0:
509,334,34130,6,8,B|478:323|478:323|439:321,1,60,2|2,3:2|3:2,2:0:0:0:
373,259,34665,2,0,B|342:257|342:257|310:244,2,60,2|2|2,3:2|3:2|3:2,2:0:0:0:
438,183,35415,2,0,B|462:160|462:160|460:126,1,60,2|2,3:2|3:2,2:0:0:0:
415,84,35844,6,0,B|386:96|386:96|349:93,1,60,10|10,3:2|3:2,2:0:0:0:
283,160,36380,2,0,B|250:158|250:158|220:174,1,60,10|10,3:2|3:2,2:0:0:0:
142,118,36915,2,0,B|144:88|144:88|166:68,2,60,10|10|14,3:2|3:2|3:2,2:0:0:0:
85,155,37559,6,0,P|102:185|124:270,1,120,0|2,3:2|2:0,2:0:0:0:
82,318,38201,1,2,2:0:0:0:
82,318,38416,2,0,P|45:304|37:278,2,60,0|2|2,2:0|2:0|2:0,2:0:0:0:
207,360,39273,2,0,P|251:334|327:321,1,120,0|2,2:0|3:2,2:0:0:0:
378,294,39915,1,2,2:0:0:0:
378,294,40130,2,0,P|406:313|443:312,1,60,2|2,2:3|2:3,2:0:0:0:
487,281,40558,1,0,3:2:0:0:
412,171,40987,6,0,P|348:185|287:208,1,120,6|0,2:0|2:0,2:0:0:0:
250,250,41630,1,2,2:0:0:0:
250,250,41844,2,0,P|206:232|200:202,1,60,2|2,2:0|2:0,2:0:0:0:
170,165,42272,2,0,P|122:170|91:230,2,120,0|2|2,2:0|3:2|2:3,2:0:0:0:
222,43,43559,6,0,P|267:57|303:58,1,60,6|2,3:2|3:2,2:0:0:0:
339,30,43987,1,0,3:2:0:0:
433,58,44309,2,0,B|424:115|450:81|439:147,1,90,6|2,3:2|2:0,2:0:0:0:
415,206,44844,1,2,2:0:0:0:
450,333,45273,2,0,P|420:337|392:348,1,60,2|0,3:2|3:2,2:0:0:0:
310,293,45809,2,0,B|252:284|287:310|220:299,1,90,6|10,3:2|2:3,2:0:0:0:
180,256,46344,1,10,2:3:0:0:
180,256,46559,6,0,P|194:208|194:194,1,60,6|2,3:2|3:2,2:0:0:0:
190,132,46987,1,0,3:2:0:0:
171,30,47309,2,0,B|113:43|151:61|79:81,1,90,6|2,3:2|2:3,2:0:0:0:
56,128,47844,1,2,2:3:0:0:
56,128,48059,2,0,P|22:115|-6:114,2,60,6|2|0,3:2|3:2|3:2,2:0:0:0:
9,215,48809,2,0,B|67:228|29:246|101:266,1,90,6|0,3:2|3:2,2:0:0:0:
138,222,49344,1,0,3:2:0:0:
239,306,49773,5,2,2:0:0:0:
369,328,50201,1,2,2:0:0:0:
394,196,50630,1,2,2:0:0:0:
263,175,51058,1,2,2:0:0:0:
138,222,51487,6,0,P|135:187|128:157,1,60,2|0,2:0|2:0,2:0:0:0:
101,103,51915,1,2,2:1:0:0:
215,37,52344,1,4,2:0:0:0:
495,353,57486,6,0,P|437:330|374:320,1,120,4|2,3:2|2:0,2:0:0:0:
302,259,58236,2,0,P|261:260|234:307,1,90,0|0,3:2|3:2,2:0:0:0:
251,361,58772,1,0,3:2:0:0:
151,361,59094,2,0,P|138:294|125:256,1,90,0|2,3:2|2:0,2:0:0:0:
103,213,59629,1,0,3:2:0:0:
165,135,59951,1,2,3:2:0:0:
259,165,60272,2,0,B|295:143|295:143|322:150|322:150|346:131|346:131|369:137,1,120,8|4,2:3|2:3,2:0:0:0:
419,173,60915,6,0,P|470:156|481:89,1,120,0|2,3:2|2:0,2:0:0:0:
400,42,61665,2,0,P|357:42|306:27,1,90,0|0,3:2|3:2,2:0:0:0:
251,3,62201,1,0,3:2:0:0:
155,30,62522,2,0,P|110:42|98:92,1,90,0|2,3:2|2:0,2:0:0:0:
119,141,63058,1,0,3:2:0:0:
214,116,63379,1,2,3:2:0:0:
306,150,63701,2,0,B|284:186|284:186|291:213|291:213|272:237|272:237|278:260,1,120,8|4,2:3|2:3,2:0:0:0:
300,317,64344,5,0,2:0:0:0:
44,14,65629,2,0,P|59:45|71:79,1,60,0|0,3:2|3:2,2:0:0:0:
131,88,66058,6,0,P|112:145|98:215,1,120,4|0,3:2|3:2,2:0:0:0:
95,269,66701,1,2,2:0:0:0:
192,357,67129,2,0,B|228:335|228:335|255:342|255:342|279:323|279:323|302:329,1,120,8|4,2:3|2:3,2:0:0:0:
361,345,67772,6,0,P|440:329|450:275,1,120,4|2,3:2|2:0,2:0:0:0:
408,210,68522,2,0,P|420:150|433:114,1,90,4|0,3:2|3:2,2:0:0:0:
466,67,69058,1,0,3:2:0:0:
375,27,69379,2,0,P|315:39|279:52,1,90,0|2,3:2|2:0,2:0:0:0:
232,85,69915,1,8,2:3:0:0:
301,155,70236,1,2,3:2:0:0:
258,244,70558,6,0,B|236:280|236:280|243:307|243:307|224:331|224:331|230:354,1,120,8|4,2:3|2:3,2:0:0:0:
171,378,71201,5,6,3:2:0:0:
171,378,71415,2,0,B|126:360|126:360|113:314,1,90,2|2,3:2|3:2,2:0:0:0:
66,282,71951,1,2,3:2:0:0:
66,282,72165,2,0,B|67:235|67:235|91:181,1,90,2|2,3:2|3:2,2:0:0:0:
40,146,72701,6,0,B|53:116|53:116|83:103,1,60,6|2,3:2|3:2,2:0:0:0:
176,91,73236,2,0,B|187:62|187:62|191:16,2,60,6|2|6,3:2|3:2|3:2,2:0:0:0:
261,141,73986,2,0,B|287:154|287:154|319:153,1,60.28,10|2,2:0|3:2,2:0:0:0:
79,320,77629,6,2,P|125:308|206:300,1,120,4|0,2:1|2:0,2:1:0:0:
261,314,78272,1,2,2:0:0:0:
261,314,78486,1,2,2:0:0:0:
268,182,78915,2,0,P|250:148|219:139,1,60,2|2,2:0|2:0,2:0:0:0:
185,93,79343,2,0,P|121:125|128:178,2,120,2|0|2,2:0|2:0|2:0,2:0:0:0:
291,15,80629,1,2,2:0:0:0:
400,88,81058,6,0,P|404:139|420:222,1,120,4|0,2:0|2:0,2:0:0:0:
454,261,81701,1,2,2:0:0:0:
454,261,81915,1,2,2:0:0:0:
366,359,82343,1,2,2:0:0:0:
249,296,82772,2,0,P|264:246|333:236,2,120,2|0|2,2:0|2:0|2:0,2:0:0:0:
134,361,84058,2,2,P|101:351|89:325,1,60,0|0,2:0|2:0,2:1:0:0:
63,269,84486,6,0,P|26:277|1:290,2,60,4|0|8,2:1|2:0|3:2,2:0:0:0:
118,231,85129,1,2,3:2:0:0:
118,231,85343,1,2,3:2:0:0:
51,116,85772,2,0,P|41:73|34:55,2,60,12|6|6,3:2|3:2|3:2,2:0:0:0:
159,40,86629,1,8,3:2:0:0:
288,65,87058,2,0,P|322:72|335:99,1,60,6|0,3:2|3:2,2:0:0:0:
395,115,87486,2,0,P|405:147|389:172,1,60,8|10,3:2|3:2,2:0:0:0:
339,205,87915,6,0,P|306:192|281:192,2,60,6|0|8,3:2|2:0|3:2,2:0:0:0:
433,297,88772,1,2,3:2:0:0:
309,342,89201,2,0,P|285:340|264:302,1,60,4|6,3:2|3:2,2:0:0:0:
222,262,89629,6,0,P|162:271|109:298,1,120,0|0,2:0|2:0,2:0:0:0:
5,215,90486,1,4,2:0:0:0:
58,94,90915,1,12,2:0:0:0:
194,35,91344,6,0,P|241:57|241:108,1,90.0000000000002,4|0,1:0|2:0,2:0:0:0:
218,131,91772,1,0,2:0:0:0:
218,131,91915,1,8,2:0:0:0:
238,227,92201,2,0,P|295:193|327:187,1,90.0000000000002,8|0,2:0|2:0,2:0:0:0:
364,174,92629,2,0,P|405:163|433:209,1,90.0000000000002,0|8,2:0|2:0,2:0:0:0:
464,233,93058,6,0,P|469:261|480:293,2,45.0000000000001,0|0|0,1:0|2:0|2:0,2:0:0:0:
508,209,93486,1,0,2:0:0:0:
508,209,93629,1,8,2:0:0:0:
507,110,93915,2,0,P|491:55|463:43,1,90.0000000000002,8|0,2:0|2:0,2:0:0:0:
419,23,94344,2,0,P|364:20|336:49,1,90.0000000000002,0|8,2:0|2:0,2:0:0:0:
292,64,94772,6,0,P|285:90|279:120,2,45.0000000000001,4|0|0,1:0|2:0|2:0,2:0:0:0:
252,44,95201,1,0,2:0:0:0:
252,44,95344,1,8,2:0:0:0:
169,98,95629,2,0,P|191:166|196:200,1,90.0000000000002,12|0,2:0|2:0,2:0:0:0:
224,223,96058,2,0,P|273:238|305:207,1,90.0000000000002,0|8,2:0|2:0,2:0:0:0:
347,199,96486,6,0,P|391:217|397:223,2,45.0000000000001,0|0|0,1:0|2:0|2:0,2:0:0:0:
359,154,96915,1,0,2:0:0:0:
359,154,97058,1,8,2:0:0:0:
364,55,97344,2,0,P|406:20|446:26,1,90.0000000000002,8|0,2:0|2:0,2:0:0:0:
487,10,97772,2,0,P|514:53|498:100,1,90.0000000000002,2|10,3:0|2:0,3:0:0:0:
473,126,98201,6,0,P|482:160|486:181,1,45.0000000000001,4|2,1:0|2:0,2:0:0:0:
512,210,98486,2,0,P|503:244|499:265,1,45.0000000000001,2|2,2:0|2:0,2:0:0:0:
488,302,98772,1,10,2:0:0:0:
397,343,99058,2,0,P|369:300|331:300,1,90.0000000000002,8|2,2:0|2:0,2:0:0:0:
286,314,99486,2,0,P|258:357|220:357,1,90.0000000000002,2|10,2:0|2:0,2:0:0:0:
195,316,99915,6,0,P|204:282|208:261,1,45.0000000000001,2|2,1:2|2:0,2:0:0:0:
234,232,100201,2,0,P|225:198|221:177,1,45.0000000000001,2|2,2:0|2:0,2:0:0:0:
210,140,100486,1,10,2:0:0:0:
137,71,100772,2,0,P|95:72|63:122,1,90.0000000000002,8|2,2:0|2:0,2:0:0:0:
49,153,101201,2,0,P|61:198|68:246,1,90.0000000000002,2|8,2:0|2:0,2:0:0:0:
71,290,101629,5,6,1:2:0:0:
154,343,101915,2,0,P|176:336|201:331,1,45.0000000000001,10|10,2:0|2:0,2:0:0:0:
244,348,102201,2,0,P|266:355|291:360,1,45.0000000000001,10|10,2:0|2:0,2:0:0:0:
334,343,102486,1,12,2:0:0:0:
430,367,102772,1,2,2:0:0:0:
450,270,103058,2,0,P|455:241|462:216,1,45.0000000000001,10|10,2:0|2:0,2:0:0:0:
436,187,103344,6,0,P|443:158|472:142,2,60,6|2|2,1:0|2:0|2:0,2:0:0:0:
375,203,103986,1,2,2:0:0:0:
375,203,104201,2,0,P|332:193|299:192,1,60,2|2,2:0|2:0,2:0:0:0:
250,199,104629,1,4,2:0:0:0:
135,265,105058,2,0,P|107:256|87:220,1,60,6|2,2:0|2:0,2:0:0:0:
30,202,105486,2,0,P|23:173|44:137,1,60,2|2,2:0|2:0,2:0:0:0:
92,114,105915,2,0,P|132:105|158:91,1,60,6|2,2:0|2:0,2:0:0:0:
209,69,106344,1,2,2:0:0:0:
300,165,106772,6,0,P|338:152|370:151,2,60,6|2|2,1:0|2:0|2:0,2:0:0:0:
245,203,107415,1,2,2:0:0:0:
245,203,107629,2,0,P|257:236|260:262,1,60,2|2,2:0|2:0,2:0:0:0:
253,326,108058,1,4,2:0:0:0:
381,357,108486,2,0,P|409:347|426:324,1,60,6|2,2:0|2:0,2:0:0:0:
484,291,108915,2,0,P|491:262|479:234,1,60,2|2,2:0|2:0,2:0:0:0:
436,184,109344,2,0,P|406:178|379:166,1,60,6|2,2:0|2:0,2:0:0:0:
327,125,109772,1,2,2:0:0:0:
207,180,110201,6,0,P|203:150|192:122,2,60,6|2|2,1:0|2:0|2:0,2:0:0:0:
199,249,110844,1,2,2:0:0:0:
199,249,111058,2,0,P|171:238|141:234,1,60,2|2,2:0|2:0,2:0:0:0:
77,251,111486,1,4,2:0:0:0:
14,134,111915,2,0,P|23:105|46:88,1,60,6|2,2:0|2:0,2:0:0:0:
65,25,112344,2,0,P|93:17|121:29,1,60,2|2,2:0|2:0,2:0:0:0:
178,62,112772,2,0,P|166:89|160:118,1,60,6|2,2:0|2:0,2:0:0:0:
176,183,113201,1,2,2:0:0:0:
292,121,113629,6,2,P|330:108|357:103,1,60,4|0,3:1|2:0,2:1:0:0:
402,64,114058,1,0,2:0:0:0:
402,64,114272,2,2,P|440:93|436:139,1,90,4|4,3:1|3:2,2:1:0:0:
391,218,114915,1,14,3:2:0:0:
414,348,115344,2,2,P|376:335|349:330,1,60,4|0,3:1|2:0,2:1:0:0:
310,291,115772,1,0,2:0:0:0:
310,291,115986,2,2,P|265:316|268:377,1,90,4|4,3:1|3:2,2:1:0:0:
161,373,116629,1,8,1:0:0:0:
76,289,117058,6,0,B|82:149|-111:325|-61:124|163:45|126:202|121:139|97:145|217:155|172:-17|36:18|69:57,1,432,4|0,2:1|2:0,2:0:0:0:
196,244,119629,1,0,2:0:0:0:
392,109,120486,2,0,B|370:21|342:136|268:-36|482:-13|524:34|504:144|472:170,1,324,2|0,2:0|2:0,2:0:0:0:
410,260,122201,2,0,P|425:308|438:374,2,108,0|0|0,2:0|2:0|2:0,2:0:0:0:
272,66,123915,5,4,2:0:0:0:
70,359,125201,2,0,P|59:306|41:255,1,108,2|2,2:0|2:0,2:0:0:0:
141,39,126486,1,2,2:0:0:0:
366,114,127344,1,2,2:0:0:0:
94,340,128629,1,2,2:0:0:0:
59,226,129058,1,2,2:0:0:0:
294,256,129915,2,0,P|343:266|400:285,1,108,2|0,2:0|2:0,2:0:0:0:
455,265,130558,1,0,2:0:0:0:
