osu file format v14

[General]
AudioFilename: audio.mp3
AudioLeadIn: 0
PreviewTime: 77522
Countdown: 0
SampleSet: Soft
StackLeniency: 0.2
Mode: 0
LetterboxInBreaks: 0
WidescreenStoryboard: 0

[Editor]
DistanceSpacing: 1.1
BeatDivisor: 4
GridSize: 16
TimelineZoom: 2.899999

[Metadata]
Title:Shounen wa Sora o Tadoru
TitleUnicode:少年は空を辿る
Artist:Power Of Nature
ArtistUnicode:Power Of Nature
Creator:CallieCube
Version:-jordan-'s Extra
Source:pop'n music 20 fantasia
Tags:allice obamacube callieonosu smokebloke Gordon Xoul Lazarus PaRaDogi -jordan- Jory Slyze- -_ascended_- ascended -ascended- wafer kami no kotoba goopert ioexception deadcode ceo of osu ceo_of_osu megafan fanzhen0019 electronic videogame video game instrumental
BeatmapID:3196613
BeatmapSetID:1373545

[Difficulty]
HPDrainRate:6
CircleSize:3
OverallDifficulty:8
ApproachRate:9
SliderMultiplier:2
SliderTickRate:1

[Events]
//Background and Video events
0,0,"starry sky big crop.jpeg",0,0
//Break Periods
//Storyboard Layer 0 (Background)
//Storyboard Layer 1 (Fail)
//Storyboard Layer 2 (Pass)
//Storyboard Layer 3 (Foreground)
//Storyboard Layer 4 (Overlay)
//Storyboard Sound Samples

[TimingPoints]
275,428.571428571429,4,2,1,80,1,0
3810,-71.4285714285714,4,2,1,80,0,0
8846,428.571428571429,8,2,1,80,1,0
12275,428.571428571429,4,2,1,80,1,0
12275,-71.4285714285714,4,2,1,80,0,0
13775,428.571428571429,4,2,1,80,1,0
13775,-55.5555555555556,4,2,1,80,0,0
15275,428.571428571429,4,2,1,80,1,0
15275,-250,4,2,1,80,0,0
16132,-250,4,2,1,50,0,0
16882,-250,4,2,1,80,0,0
17096,-100,5,2,1,80,0,0
17310,-100,5,2,1,70,0,0
17417,-83.3333333333333,5,2,1,70,0,0
17631,-62.5,5,2,1,70,0,0
17846,-83.3333333333333,5,2,1,70,0,0
18060,-100,5,2,1,70,0,0
18274,-71.4285714285714,5,2,1,70,0,0
19132,-100,5,2,1,70,0,0
19560,-83.3333333333333,4,2,1,70,0,0
19989,-62.5,4,2,1,70,0,0
20417,428.571428571429,4,2,1,70,1,8
20845,428.571428571429,7,2,1,60,1,0
23846,428.571428571429,4,2,1,60,1,0
25560,428.571428571429,5,2,1,60,1,0
27488,428.571428571429,7,2,1,70,1,0
30488,428.571428571429,4,2,1,70,1,0
32201,428.571428571429,5,2,1,70,1,0
34130,428.571428571429,4,2,1,80,1,0
34130,-62.5,4,2,1,80,0,0
35844,-55.5555555555556,4,2,1,80,0,0
37559,428.571428571429,7,2,1,80,1,0
43559,428.571428571429,7,2,1,80,1,0
46559,428.571428571429,4,2,1,80,1,0
49773,428.571428571429,6,2,1,70,1,0
50630,-83.3333333333333,6,2,1,70,0,0
51915,-83.3333333333333,6,2,1,80,0,0
52344,428.571428571429,4,2,1,60,1,0
52344,-125,4,2,1,60,0,0
54165,-125,4,2,1,70,0,0
56844,-125,4,2,1,80,0,0
57486,428.571428571429,4,2,1,80,1,0
59414,-125,4,2,1,80,0,0
59629,-83.3333333333333,4,2,1,80,0,0
59844,-62.5,4,2,1,80,0,0
60058,-50,4,2,1,80,0,0
60272,-38.4615384615385,4,2,1,80,0,0
62844,-125,4,2,1,80,0,0
63058,-83.3333333333333,4,2,1,80,0,0
63272,-62.5,4,2,1,80,0,0
63486,-83.3333333333333,4,2,1,80,0,0
63701,-38.4615384615385,4,2,1,80,0,0
65308,-125,4,2,1,80,0,0
65629,-125,4,2,1,60,0,0
65844,-62.5,4,2,1,60,0,0
66058,428.571428571429,4,2,1,80,1,0
66058,-62.5,4,2,1,80,0,0
66272,-125,4,2,1,80,0,0
66486,-83.3333333333333,4,2,1,80,0,0
66701,-62.5,4,2,1,80,0,0
66915,-83.3333333333333,4,2,1,80,0,0
67129,-38.4615384615385,4,2,1,80,0,0
67772,-38.4615384615385,4,2,1,85,0,0
69701,-125,4,2,1,85,0,0
69915,-83.3333333333333,4,2,1,85,0,0
70129,-62.5,4,2,1,85,0,0
70344,-83.3333333333333,4,2,1,85,0,0
70558,-38.4615384615385,4,2,1,85,0,0
71201,428.571428571429,5,2,1,80,1,0
71201,-55.5555555555556,4,2,1,80,0,0
72701,428.571428571429,4,2,1,80,1,0
72701,-50,4,2,1,80,0,0
74201,428.571428571429,4,2,1,60,1,0
75701,-62.5,4,2,1,60,0,0
76558,-62.5,4,2,1,50,0,0
76772,-250.000000000001,4,2,1,60,0,0
76986,-250.000000000001,4,2,1,70,0,0
77201,-250.000000000001,4,2,1,80,0,0
77414,-250.000000000001,4,2,1,90,0,0
77629,-250.000000000001,4,2,1,100,0,0
78272,-250.000000000001,4,2,1,95,0,0
78486,-250.000000000001,4,2,1,90,0,0
78701,-250.000000000001,4,2,1,85,0,0
78915,-250.000000000001,4,2,1,80,0,0
79129,-250.000000000001,4,2,1,75,0,0
79343,-250.000000000001,4,2,1,70,0,0
79558,-250.000000000001,4,2,1,65,0,0
79772,-250.000000000001,4,2,1,60,0,0
79986,-250.000000000001,4,2,1,55,0,0
80201,-250.000000000001,4,2,1,50,0,0
80415,-250.000000000001,4,2,1,45,0,0
80629,-250.000000000001,4,2,1,40,0,0
80843,-250.000000000001,4,2,1,35,0,0
81058,-250.000000000001,4,2,1,60,0,0
84058,-100,4,2,1,80,0,0
84593,-71.4285714285714,4,2,1,80,0,0
86201,-71.4285714285714,4,2,1,85,0,0
86308,-62.5,4,2,1,85,0,0
87915,-62.5,4,2,1,90,0,0
89058,-62.5,4,2,1,70,0,0
89201,-62.5,4,2,1,80,0,0
89629,-100,4,2,1,60,0,0
90058,-71.4285714285714,4,2,1,60,0,0
90486,-71.4285714285714,4,2,1,40,0,0
90629,-71.4285714285714,4,2,1,80,0,0
91344,428.571428571429,4,2,1,80,1,0
94772,-100,6,2,1,100,0,1
94915,-100,6,2,1,80,0,1
95629,-100,6,2,1,100,0,1
95772,-100,6,2,1,80,0,1
98201,-66.6666666666667,6,2,1,100,0,1
98272,-100,6,2,1,80,0,1
98486,-47.6190476190476,6,2,1,80,0,1
99058,-33.3333333333333,6,2,1,80,0,1
99344,-41.6666666666667,6,2,1,80,0,1
99915,-55.5555555555556,6,2,1,80,0,1
100201,-66.6666666666667,6,2,1,80,0,1
101058,-47.6190476190476,6,2,1,80,0,1
101629,-47.6190476190476,6,2,1,100,0,1
101700,-47.6190476190476,6,2,1,80,0,1
102486,-95.2380952380952,6,2,1,100,0,1
102557,-95.2380952380952,6,2,1,80,0,1
102701,-95.2380952380952,6,2,1,100,0,1
102772,-95.2380952380952,6,2,1,80,0,1
102915,-90.9090909090909,6,2,1,100,0,1
102986,-90.9090909090909,6,2,1,80,0,1
103344,-90.9090909090909,6,2,1,80,0,0
103451,-62.5,4,2,1,80,0,0
103772,-71.4285714285714,4,2,1,80,0,0
104094,-83.3333333333333,4,2,1,80,0,0
104415,-100,4,2,1,80,0,0
104629,-55.5555555555556,4,2,1,80,0,0
106879,-62.5,4,2,1,80,0,0
107201,-71.4285714285714,4,2,1,80,0,0
107522,-83.3333333333333,4,2,1,80,0,0
108058,-55.5555555555556,4,2,1,80,0,0
110308,-62.5,4,2,1,80,0,0
110629,-71.4285714285714,4,2,1,80,0,0
110951,-83.3333333333333,4,2,1,80,0,0
111272,-100,4,2,1,80,0,0
111486,-55.5555555555556,4,2,1,80,0,0
113629,-83.3333333333333,4,2,1,80,0,0
125201,-83.3333333333333,4,2,1,50,0,0
129915,-250,4,2,1,50,0,0

[Colours]
Combo1 : 45,125,117
Combo2 : 33,80,126
Combo3 : 193,225,229
Combo4 : 115,182,204

[HitObjects]
256,192,1132,12,0,3489,2:0:0:0:
202,277,3703,5,0,3:2:0:0:
190,359,3810,2,0,P|212:319|271:241,1,140,6|0,3:2|2:0,2:0:0:0:
122,312,4132,1,2,3:2:0:0:
357,198,4346,1,0,2:0:0:0:
357,198,4453,1,0,2:0:0:0:
357,198,4560,5,0,2:0:0:0:
438,164,4667,2,0,P|392:164|295:151,1,140,6|0,3:2|2:0,2:0:0:0:
427,250,4989,1,2,3:2:0:0:
211,104,5203,1,0,2:0:0:0:
211,104,5310,1,0,2:0:0:0:
211,104,5417,5,0,2:0:0:0:
137,43,5525,2,0,P|159:82|197:172,1,140,6|0,3:2|2:0,2:0:0:0:
221,17,5846,1,2,3:2:0:0:
202,277,6060,1,0,2:0:0:0:
202,277,6167,1,0,2:0:0:0:
202,277,6275,5,0,2:0:0:0:
189,358,6382,2,0,P|211:318|270:240,1,140,6|0,3:2|2:0,2:0:0:0:
121,311,6703,5,8,2:0:0:0:
206,370,6810,1,8,2:0:0:0:
309,383,6917,1,8,2:0:0:0:
406,345,7025,1,8,2:0:0:0:
452,258,7132,5,0,3:2:0:0:
496,339,7239,2,0,B|498:267|498:267|503:261|503:261|505:183,1,140,6|0,3:2|2:0,2:0:0:0:
406,345,7560,1,2,3:2:0:0:
60,126,7775,1,0,2:0:0:0:
60,126,7882,1,0,2:0:0:0:
60,126,7989,5,0,2:0:0:0:
16,45,8096,2,0,B|14:117|14:117|9:123|9:123|7:201,1,140,4|0,3:2|2:0,2:0:0:0:
106,39,8417,5,0,3:2:0:0:
124,23,8489,1,0,3:2:0:0:
146,12,8560,1,0,3:2:0:0:
170,10,8632,2,0,P|217:11|251:39,1,70,0|0,3:2|3:2,2:0:0:0:
267,140,8846,5,10,2:1:0:0:
183,99,8953,1,8,2:1:0:0:
340,92,9167,5,8,2:3:0:0:
340,92,9275,1,8,2:3:0:0:
418,130,9489,5,10,2:1:0:0:
496,79,9596,1,8,2:1:0:0:
427,226,9810,5,8,2:3:0:0:
427,226,9917,1,8,2:3:0:0:
432,317,10025,1,10,2:1:0:0:
350,275,10132,1,8,2:1:0:0:
340,92,10346,5,8,2:3:0:0:
340,92,10453,1,8,2:3:0:0:
350,275,10667,5,10,2:1:0:0:
268,233,10775,1,8,2:1:0:0:
194,287,10882,1,8,2:3:0:0:
194,287,10989,1,8,2:3:0:0:
111,332,11096,1,10,2:1:0:0:
28,289,11203,1,8,2:1:0:0:
275,329,11417,5,8,2:3:0:0:
275,329,11525,1,8,2:3:0:0:
110,243,11739,5,10,2:1:0:0:
106,148,11846,1,8,2:1:0:0:
198,24,12060,5,8,2:3:0:0:
198,24,12167,1,8,2:3:0:0:
233,105,12275,6,0,L|351:98,1,70,2|0,3:2|2:0,2:0:0:0:
386,93,12489,2,0,B|351:95|351:95|325:20|325:20|260:24,1,140,2|8,3:2|2:0,2:0:0:0:
433,18,12810,6,0,L|551:11,1,70,2|0,3:2|2:0,2:0:0:0:
413,8,13025,2,0,L|531:1,1,70,2|0,3:2|2:0,2:0:0:0:
299,21,13239,2,0,B|325:20|325:20|351:95|351:95|386:93,1,140,2|0,3:2|2:0,2:0:0:0:
500,220,13560,5,2,3:2:0:0:
424,266,13667,1,2,3:2:0:0:
403,351,13775,2,0,P|320:347|301:359,1,89.9999999999999,2|0,3:2|2:0,2:0:0:0:
263,283,13989,2,0,B|149:299|215:216|104:225,1,180,2|8,3:2|2:0,2:0:0:0:
56,384,14310,6,0,P|110:321|114:299,1,89.9999999999999,2|0,3:2|2:0,2:0:0:0:
11,294,14525,2,0,P|92:309|112:302,1,89.9999999999999,2|0,3:2|2:0,2:0:0:0:
104,225,14739,2,0,B|214:215|148:298|262:282,1,180,2|0,3:2|2:0,2:0:0:0:
313,117,15060,5,2,3:2:0:0:
250,195,15167,1,2,3:2:0:0:
245,53,15275,6,0,B|245:9|209:-9|209:-9|228:20|223:60,1,140,6|0,2:1|2:0,2:0:0:0:
181,137,16132,5,0,2:0:0:0:
163,129,16239,1,0,2:0:0:0:
124,151,16346,5,0,2:0:0:0:
89,163,16453,1,0,2:0:0:0:
67,136,16560,5,0,2:0:0:0:
52,127,16667,1,0,2:0:0:0:
48,90,16775,5,0,2:0:0:0:
13,163,16882,1,2,2:0:0:0:
42,240,16989,5,0,2:0:0:0:
51,256,17096,2,0,P|73:274|101:280,2,50,0|0|0,2:0|2:0|2:0,2:0:0:0:
117,357,17417,2,0,P|144:347|168:315,1,60,2|0,3:2|2:0,2:0:0:0:
244,356,17631,2,0,P|249:327|232:274,1,80,0|0,2:0|2:0,2:0:0:0:
284,181,17846,6,0,P|267:219|268:246,1,60,2|0,3:2|2:0,2:0:0:0:
398,226,18060,2,0,P|355:230|333:245,1,50,0|0,2:0|2:0,2:0:0:0:
425,362,18274,6,0,P|409:330|383:308,1,70,2|0,3:2|2:0,2:0:0:0:
478,201,18489,2,0,P|483:235|472:268,1,70,0|0,2:0|2:0,2:0:0:0:
342,384,18703,1,2,3:2:0:0:
424,128,18917,1,0,2:0:0:0:
424,128,19024,1,0,2:0:0:0:
512,126,19132,6,0,P|411:86|346:76,1,150,2|0,3:2|2:0,2:0:0:0:
410,0,19560,6,0,P|299:43|229:54,1,180,2|0,3:2|2:0,2:0:0:0:
296,142,19989,6,0,P|176:87|60:78,1,240,2|0,3:2|2:0,2:0:0:0:
47,90,20417,5,2,3:2:0:0:
56,117,20524,1,0,2:0:0:0:
91,142,20632,5,0,2:0:0:0:
82,200,20739,1,0,2:0:0:0:
124,280,20846,5,2,3:2:0:0:
111,319,20953,1,0,2:0:0:0:
96,318,21060,1,0,2:0:0:0:
80,315,21167,1,0,2:0:0:0:
66,313,21274,1,0,2:0:0:0:
158,324,21488,1,2,2:0:0:0:
142,322,21596,1,0,2:0:0:0:
114,362,21703,5,2,2:0:0:0:
111,319,21810,1,0,2:0:0:0:
96,318,21917,1,0,2:0:0:0:
188,329,22131,1,2,2:0:0:0:
172,327,22238,1,0,2:0:0:0:
158,324,22346,1,0,2:0:0:0:
142,323,22453,1,0,2:0:0:0:
124,280,22560,5,2,2:0:0:0:
218,334,22774,1,2,2:0:0:0:
202,330,22881,1,0,2:0:0:0:
188,329,22988,1,0,2:0:0:0:
172,328,23095,1,0,2:0:0:0:
158,327,23202,1,0,2:0:0:0:
249,377,23417,5,2,2:0:0:0:
232,335,23524,1,0,2:0:0:0:
218,334,23631,1,0,2:0:0:0:
396,273,23846,5,6,2:0:0:0:
314,281,24060,1,2,2:0:0:0:
316,296,24167,1,0,2:0:0:0:
321,309,24274,1,0,2:0:0:0:
330,323,24381,1,0,2:0:0:0:
340,334,24488,1,0,2:0:0:0:
316,251,24703,1,2,2:0:0:0:
314,266,24810,1,0,2:0:0:0:
314,281,24917,1,0,2:0:0:0:
316,296,25024,1,0,2:0:0:0:
321,309,25131,1,0,2:0:0:0:
329,225,25346,1,2,2:0:0:0:
322,237,25453,1,0,2:0:0:0:
316,251,25560,1,0,2:0:0:0:
314,266,25667,1,0,2:0:0:0:
396,273,25774,1,0,2:0:0:0:
351,203,25988,5,2,2:0:0:0:
339,213,26095,1,0,2:0:0:0:
329,225,26202,1,0,2:0:0:0:
322,237,26310,1,0,2:0:0:0:
316,251,26417,1,0,2:0:0:0:
379,194,26631,1,2,2:0:0:0:
366,197,26738,1,0,2:0:0:0:
351,203,26845,2,0,P|384:193|422:200,1,50,2|0,2:3|2:0,2:0:0:0:
479,283,27060,5,2,2:3:0:0:
472,306,27167,1,0,2:0:0:0:
441,340,27274,1,0,2:0:0:0:
387,354,27381,1,0,2:0:0:0:
396,273,27488,5,2,3:2:0:0:
215,323,27702,1,2,2:0:0:0:
226,126,27916,1,2,2:0:0:0:
227,103,28023,1,0,2:0:0:0:
230,78,28130,1,0,2:0:0:0:
231,53,28238,1,0,2:0:0:0:
275,20,28345,5,0,3:2:0:0:
222,175,28559,1,2,2:0:0:0:
223,151,28666,1,0,2:0:0:0:
226,126,28773,1,0,2:0:0:0:
227,103,28880,1,0,2:0:0:0:
230,78,28988,1,0,2:0:0:0:
177,234,29202,5,0,3:2:0:0:
221,201,29309,1,0,2:0:0:0:
222,175,29416,1,0,2:0:0:0:
223,151,29523,1,0,2:0:0:0:
226,126,29630,1,0,2:0:0:0:
215,274,29844,1,2,2:0:0:0:
217,250,29952,1,0,2:0:0:0:
250,236,30059,5,2,3:2:0:0:
221,201,30166,1,0,2:0:0:0:
222,175,30273,1,0,2:0:0:0:
428,37,30488,5,6,3:2:0:0:
446,41,30595,1,0,2:0:0:0:
468,42,30702,1,0,2:0:0:0:
490,41,30809,1,0,2:0:0:0:
512,37,30916,1,0,2:0:0:0:
344,38,31130,1,2,2:0:0:0:
364,32,31238,1,0,2:0:0:0:
386,31,31345,1,0,2:0:0:0:
408,32,31452,1,0,2:0:0:0:
428,37,31559,1,0,2:0:0:0:
260,38,31773,1,2,2:0:0:0:
278,41,31880,1,0,2:0:0:0:
300,42,31988,1,0,2:0:0:0:
322,41,32095,1,0,2:0:0:0:
344,38,32201,1,0,2:0:0:0:
224,121,32415,5,2,2:0:0:0:
196,33,32522,1,2,2:0:0:0:
217,31,32629,1,0,2:0:0:0:
241,32,32736,1,0,2:0:0:0:
260,38,32843,1,0,2:0:0:0:
93,38,33058,1,2,2:0:0:0:
112,42,33165,1,0,2:0:0:0:
133,42,33272,1,0,2:0:0:0:
155,41,33379,1,0,2:0:0:0:
177,38,33486,1,2,2:3:0:0:
7,38,33701,1,2,2:0:0:0:
29,33,33808,1,0,2:0:0:0:
50,31,33915,1,0,2:0:0:0:
72,32,34022,1,0,2:0:0:0:
130,127,34130,6,8,P|111:192|111:231,1,80,2|0,3:2|2:0,2:0:0:0:
128,297,34344,2,0,P|130:217|146:138,1,160,2|0,3:2|2:0,2:0:0:0:
2,179,34665,6,0,P|3:242|-13:290,1,80,2|0,3:2|2:0,2:0:0:0:
26,355,34880,2,0,P|45:290|45:251,1,80,2|0,3:2|2:0,2:0:0:0:
25,187,35094,2,0,P|23:267|7:346,1,160,2|0,3:2|2:0,2:0:0:0:
150,304,35415,2,0,P|151:264|161:225,1,80,2|0,3:2|2:0,2:0:0:0:
254,84,35630,5,2,3:2:0:0:
323,30,35737,1,2,3:2:0:0:
411,30,35844,2,0,L|401:142,1,89.9999999999999,10|0,3:2|2:0,2:0:0:0:
404,214,36058,2,0,B|411:125|411:125|420:119|420:119|428:20,1,180,10|0,3:2|3:2,2:0:0:0:
496,170,36380,6,0,L|486:282,1,89.9999999999999,10|0,3:2|2:0,2:0:0:0:
489,353,36594,2,0,B|496:264|496:264|505:258|505:258|513:159,1,180,10|0,3:2|3:2,2:0:0:0:
379,224,36915,6,0,B|375:268|375:268|371:271|371:271|367:321,1,89.9999999999999,10|0,3:2|2:0,2:0:0:0:
258,366,37130,2,0,B|263:322|263:322|259:318|259:318|266:268,1,89.9999999999999,10|0,3:2|2:0,2:0:0:0:
283,130,37344,1,14,3:2:0:0:
226,36,37451,1,10,3:2:0:0:
99,34,37559,5,0,3:2:0:0:
110,39,37666,1,2,2:0:0:0:
131,54,37773,1,2,2:0:0:0:
154,86,37880,1,2,2:0:0:0:
160,139,37987,1,2,2:0:0:0:
130,188,38094,1,2,2:0:0:0:
75,211,38201,1,2,2:0:0:0:
5,189,38309,1,2,2:0:0:0:
5,189,38523,5,2,2:0:0:0:
23,184,38630,1,2,2:0:0:0:
48,189,38737,1,2,2:0:0:0:
98,207,38844,1,2,2:0:0:0:
140,260,38951,1,2,2:0:0:0:
191,318,39059,1,2,2:0:0:0:
268,320,39166,1,2,2:0:0:0:
268,320,39380,5,2,2:0:0:0:
230,250,39487,1,2,2:0:0:0:
244,173,39594,1,2,2:0:0:0:
301,117,39701,1,2,3:2:0:0:
326,64,39808,1,2,2:0:0:0:
316,17,39915,1,2,2:0:0:0:
283,2,40023,1,2,2:0:0:0:
254,11,40130,1,2,2:3:0:0:
240,32,40237,1,2,2:3:0:0:
245,53,40344,1,2,2:3:0:0:
258,65,40451,1,2,2:3:0:0:
281,69,40558,1,0,3:2:0:0:
296,66,40665,5,2,2:0:0:0:
328,44,40773,1,2,2:0:0:0:
383,36,40880,1,2,2:0:0:0:
468,106,40987,5,6,2:0:0:0:
465,148,41094,1,2,2:0:0:0:
463,200,41201,1,2,2:0:0:0:
459,260,41308,1,2,2:0:0:0:
459,260,41523,5,2,2:0:0:0:
427,270,41630,1,2,2:0:0:0:
395,248,41737,1,2,2:0:0:0:
348,272,41844,1,2,2:0:0:0:
307,231,41951,1,2,2:0:0:0:
244,272,42058,1,2,2:0:0:0:
181,224,42165,1,2,2:0:0:0:
181,224,42379,5,2,2:0:0:0:
221,169,42486,1,2,2:0:0:0:
172,123,42593,1,2,2:0:0:0:
125,174,42700,1,2,3:2:0:0:
179,207,42809,1,2,2:0:0:0:
207,170,42916,1,2,2:0:0:0:
173,137,43022,1,2,2:0:0:0:
141,173,43129,1,2,2:3:0:0:
181,176,43236,1,2,2:3:0:0:
181,176,43343,1,2,2:3:0:0:
181,176,43450,1,2,2:3:0:0:
68,240,43559,5,6,3:2:0:0:
103,283,43666,1,0,2:0:0:0:
105,338,43773,5,2,3:2:0:0:
155,337,43880,1,0,2:0:0:0:
180,355,43987,5,0,3:2:0:0:
197,334,44094,1,0,3:2:0:0:
270,376,44201,5,10,3:2:0:0:
384,328,44309,1,6,3:2:0:0:
384,328,44630,1,2,2:0:0:0:
384,328,44844,1,2,2:0:0:0:
474,274,45059,5,6,3:2:0:0:
426,241,45166,1,0,2:0:0:0:
436,190,45273,5,2,3:2:0:0:
463,157,45380,1,0,2:0:0:0:
428,110,45487,5,0,3:2:0:0:
413,91,45594,1,0,3:2:0:0:
502,73,45701,5,10,3:2:0:0:
358,160,45809,1,6,3:2:0:0:
198,72,46023,5,8,2:3:0:0:
233,111,46130,1,10,2:3:0:0:
245,148,46237,1,8,2:3:0:0:
247,180,46344,1,10,2:3:0:0:
239,202,46451,1,8,2:3:0:0:
135,158,46559,5,6,3:2:0:0:
90,129,46666,1,0,2:0:0:0:
47,205,46773,5,2,3:2:0:0:
93,182,46880,1,0,2:0:0:0:
98,233,46987,5,0,3:2:0:0:
71,222,47094,1,0,3:2:0:0:
53,322,47201,5,10,3:2:0:0:
194,294,47309,1,6,3:2:0:0:
194,294,47630,5,2,2:3:0:0:
240,316,47737,1,0,2:0:0:0:
300,311,47844,1,2,2:3:0:0:
350,249,47951,1,0,2:0:0:0:
319,157,48059,5,6,3:2:0:0:
265,130,48166,1,2,3:2:0:0:
280,79,48273,5,2,3:2:0:0:
271,35,48380,1,2,3:2:0:0:
309,27,48487,5,0,3:2:0:0:
339,4,48594,1,0,3:2:0:0:
373,86,48701,5,10,3:2:0:0:
258,229,48809,1,6,3:2:0:0:
258,229,49130,5,0,3:2:0:0:
259,240,49201,1,0,3:2:0:0:
260,252,49273,1,0,3:2:0:0:
263,269,49344,2,0,L|271:349,1,50,0|0,3:2|2:0,2:0:0:0:
360,330,49559,5,0,3:2:0:0:
357,364,49666,1,0,2:0:0:0:
451,355,49773,6,0,L|434:243,1,100,2|0,2:0|2:0,2:0:0:0:
61,29,50201,2,0,L|78:141,1,100,2|0,2:0|2:0,2:0:0:0:
471,20,50630,6,0,L|348:38,1,120,2|0,2:0|2:0,2:0:0:0:
41,364,51058,2,0,L|119:352,1,60,2|2,2:0|2:0,2:0:0:0:
61,376,51273,2,0,L|139:364,1,60,2|2,2:0|2:0,2:0:0:0:
345,208,51487,5,2,2:0:0:0:
225,106,51630,5,0,2:0:0:0:
197,261,51773,5,0,2:0:0:0:
256,192,51915,5,2,2:1:0:0:
256,192,52344,6,0,B|325:201|320:273|320:273|335:293|335:293|198:280|198:280|182:290|182:290|80:282|80:282|8:273|7:173|89:176|89:176|142:181,1,600,4|0,2:0|2:0,2:0:0:0:
192,141,54058,5,0,2:0:0:0:
192,141,54165,2,0,L|118:135,1,40,0|0,2:0|2:0,2:0:0:0:
81,37,54379,5,0,2:0:0:0:
81,37,54486,1,0,2:0:0:0:
81,37,54594,1,2,2:0:0:0:
81,37,54701,2,0,L|155:43,1,40,0|0,2:0|2:0,2:0:0:0:
234,9,54915,5,2,2:0:0:0:
234,9,55022,1,0,2:0:0:0:
243,50,55129,1,2,2:0:0:0:
252,51,55201,1,0,2:0:0:0:
263,53,55272,1,0,2:0:0:0:
274,54,55344,1,2,2:0:0:0:
370,64,55558,5,2,2:0:0:0:
370,64,55665,1,0,2:0:0:0:
397,105,55772,1,2,2:3:0:0:
492,116,55986,5,0,2:0:0:0:
492,116,56094,2,0,L|483:186,2,40,2|2|0,3:0|3:0|2:0,2:0:0:0:
504,28,56415,2,0,L|495:98,1,40,0|0,3:2|3:2,2:0:0:0:
455,250,56629,5,8,2:0:0:0:
388,191,56736,1,8,2:0:0:0:
311,234,56844,5,8,2:3:0:0:
226,160,57004,5,8,2:3:0:0:
112,222,57165,5,8,2:3:0:0:
51,148,57272,2,0,P|68:182|70:218,1,60,4|0,2:3|2:0,2:0:0:0:
54,297,57486,5,4,3:2:0:0:
53,306,57594,1,2,2:0:0:0:
53,320,57701,1,2,2:0:0:0:
59,342,57808,1,0,3:2:0:0:
78,363,57915,1,2,2:0:0:0:
112,367,58022,1,2,2:0:0:0:
141,351,58129,1,0,3:2:0:0:
156,313,58236,1,0,3:2:0:0:
156,313,58451,5,0,3:2:0:0:
171,283,58558,1,0,3:2:0:0:
201,269,58665,1,2,2:0:0:0:
230,276,58772,1,0,3:2:0:0:
246,291,58879,1,2,2:0:0:0:
253,303,58986,1,0,3:2:0:0:
256,317,59094,1,0,3:2:0:0:
256,317,59308,5,0,3:2:0:0:
262,334,59415,2,0,P|284:369|316:381,1,40,2|2,2:0|2:0,2:0:0:0:
380,336,59629,2,0,P|421:338|449:319,1,60,0|2,3:2|2:0,2:0:0:0:
436,226,59844,2,0,P|451:187|444:146,1,80,2|2,2:0|3:2,2:0:0:0:
365,351,60058,2,0,P|405:358|463:329,1,100,2|2,3:2|3:2,2:0:0:0:
268,70,60272,6,0,B|386:82|312:-20|491:2,2,195,8|8|8,2:3|2:3|2:3,2:0:0:0:
351,172,60701,1,4,2:3:0:0:
351,172,60808,1,8,2:3:0:0:
255,163,60915,5,0,3:2:0:0:
244,160,61022,1,2,2:0:0:0:
225,160,61129,1,2,2:0:0:0:
205,158,61236,1,0,3:2:0:0:
175,156,61344,1,2,2:0:0:0:
142,151,61451,1,2,2:0:0:0:
101,148,61558,1,0,3:2:0:0:
57,143,61665,1,0,3:2:0:0:
57,143,61879,5,0,3:2:0:0:
100,138,61986,1,0,3:2:0:0:
141,134,62094,1,2,2:0:0:0:
174,130,62201,1,0,3:2:0:0:
205,127,62308,1,2,2:0:0:0:
225,125,62415,1,0,3:2:0:0:
244,125,62522,1,0,3:2:0:0:
244,125,62736,5,0,3:2:0:0:
249,108,62844,2,0,L|255:37,1,40,2|2,2:0|2:0,2:0:0:0:
110,5,63058,2,0,L|104:76,1,60,0|2,3:2|2:0,2:0:0:0:
368,166,63272,2,0,L|375:76,1,80,2|2,2:0|3:2,2:0:0:0:
133,0,63486,2,0,L|127:71,1,60,2|2,3:2|3:2,2:0:0:0:
474,59,63701,6,0,B|467:149|467:149|478:161|478:161|470:299,2,195,8|8|8,2:3|2:3|2:3,2:0:0:0:
372,170,64129,1,4,2:3:0:0:
372,170,64236,1,8,2:3:0:0:
305,234,64344,5,2,2:0:0:0:
270,238,64451,1,2,2:0:0:0:
430,337,64665,5,2,2:0:0:0:
378,324,64772,1,2,2:0:0:0:
512,379,64986,5,2,2:0:0:0:
500,382,65094,1,2,2:0:0:0:
281,351,65308,6,0,P|282:379|296:352,1,80,2|0,2:0|2:0,2:0:0:0:
314,264,65629,5,0,3:2:0:0:
295,259,65701,1,0,3:2:0:0:
275,258,65772,1,0,3:2:0:0:
254,263,65844,2,0,P|199:296|182:335,1,80,0|0,3:2|3:2,2:0:0:0:
113,341,66058,5,4,3:2:0:0:
39,309,66165,1,0,3:2:0:0:
29,290,66272,2,0,P|23:233|31:213,1,40,2|2,2:0|2:0,2:0:0:0:
177,197,66486,2,0,P|132:230|110:234,1,60,0|2,3:2|2:0,2:0:0:0:
17,112,66701,2,0,P|83:126|102:144,1,80,2|2,2:0|3:2,2:0:0:0:
17,318,66915,2,0,P|2:250|11:225,1,60,2|2,3:2|3:2,2:0:0:0:
100,0,67129,6,0,P|178:69|275:103,2,195,8|8|8,2:3|2:3|2:3,2:0:0:0:
306,24,67558,1,4,2:3:0:0:
306,24,67665,1,8,2:3:0:0:
394,40,67772,5,4,3:2:0:0:
401,54,67879,1,2,2:0:0:0:
384,77,67986,1,10,2:0:0:0:
399,102,68094,1,0,3:2:0:0:
379,138,68201,1,2,2:0:0:0:
391,184,68308,1,2,2:0:0:0:
362,227,68415,1,0,3:2:0:0:
392,281,68522,1,4,3:2:0:0:
392,281,68736,5,0,3:2:0:0:
420,228,68844,1,0,3:2:0:0:
374,182,68951,1,2,2:0:0:0:
403,141,69058,1,0,3:2:0:0:
383,105,69165,1,2,2:0:0:0:
400,77,69272,1,0,3:2:0:0:
387,56,69379,1,0,3:2:0:0:
387,56,69594,5,0,3:2:0:0:
394,40,69701,2,0,L|468:34,1,40,2|2,2:0|2:0,2:0:0:0:
293,155,69915,2,0,L|367:149,1,60,8|8,2:3|2:3,2:0:0:0:
195,287,70129,2,0,L|293:279,1,80,8|2,2:3|3:2,2:0:0:0:
306,177,70344,2,0,L|365:172,1,60,6|2,3:2|3:2,2:0:0:0:
508,354,70558,6,0,B|463:356|463:356|404:269|404:269|335:275,2,195,8|10|8,2:3|2:3|2:3,2:0:0:0:
313,376,70986,1,4,2:3:0:0:
313,376,71094,1,8,2:3:0:0:
220,384,71201,6,0,P|146:363|128:350,1,89.9999999999999,6|0,3:2|2:0,2:0:0:0:
75,258,71415,2,0,P|189:358|248:366,1,180,2|8,3:2|2:0,2:0:0:0:
274,280,71736,6,0,P|222:335|202:346,1,89.9999999999999,2|0,3:2|2:0,2:0:0:0:
12,363,71951,2,0,P|85:377|102:374,1,89.9999999999999,2|0,3:2|2:0,2:0:0:0:
251,277,72165,2,0,P|181:332|95:350,1,180,2|0,3:2|2:0,2:0:0:0:
124,162,72486,5,2,3:2:0:0:
181,75,72594,1,10,2:0:0:0:
287,65,72701,2,0,L|422:55,1,100,6|0,3:2|2:0,2:0:0:0:
490,86,72915,2,0,B|403:92|403:92|395:82|395:82|295:89,1,200,2|8,3:2|2:0,2:0:0:0:
403,220,73236,6,0,L|411:121,1,100,6|0,3:2|2:0,2:0:0:0:
281,180,73451,2,0,L|274:279,1,100,2|0,3:2|2:0,2:0:0:0:
382,17,73665,2,0,B|376:104|376:104|386:112|386:112|379:212,1,200,6|0,3:2|2:0,2:0:0:0:
486,348,73986,1,10,2:0:0:0:
378,357,74093,1,10,2:0:0:0:
274,362,74201,5,2,3:2:0:0:
37,299,75701,6,0,P|75:288|116:292,1,80,2|0,2:3|2:0,2:0:0:0:
133,213,75915,2,0,P|153:289|143:368,1,160,0|0,3:2|2:0,2:0:0:0:
15,379,76236,2,0,P|-6:302|3:223,1,160,0|0,2:0|2:0,2:0:0:0:
243,180,76558,5,0,2:0:0:0:
287,355,76772,2,2,B|234:362|235:261,1,120,0|0,2:0|2:0,2:1:0:0:
460,14,77629,5,6,2:1:0:0:
373,117,77843,1,2,2:0:0:0:
365,23,78058,1,2,2:0:0:0:
468,109,78272,1,2,2:0:0:0:
460,14,78486,1,2,2:0:0:0:
373,117,78701,1,2,2:0:0:0:
365,23,78915,5,2,2:3:0:0:
242,177,79129,5,2,2:3:0:0:
115,18,79343,5,2,2:3:0:0:
16,27,79558,1,2,2:0:0:0:
75,108,79772,1,2,2:0:0:0:
0,10,79986,1,2,2:0:0:0:
134,189,80201,5,2,2:3:0:0:
174,99,80415,1,2,2:0:0:0:
75,108,80629,1,2,2:0:0:0:
197,92,80843,1,2,2:0:0:0:
422,341,81058,5,4,2:0:0:0:
309,248,81272,1,2,2:0:0:0:
455,257,81486,1,2,2:0:0:0:
333,336,81701,1,2,2:0:0:0:
385,201,81915,1,2,2:0:0:0:
422,341,82129,1,2,2:0:0:0:
385,201,82343,5,2,2:3:0:0:
385,201,82558,1,2,2:0:0:0:
176,313,82772,5,2,2:3:0:0:
181,212,82986,1,2,2:0:0:0:
92,259,83201,1,2,2:0:0:0:
201,200,83415,1,2,2:0:0:0:
3,306,83629,5,2,2:3:0:0:
87,360,83843,1,2,2:0:0:0:
221,188,84058,6,2,L|223:154,6,25,0|0|0|0|0|0|0,2:0|2:0|2:0|2:0|2:0|2:0|2:0,2:1:0:0:
382,173,84486,5,4,2:1:0:0:
476,138,84593,2,0,B|417:134|417:134|411:136|411:136|318:128,1,140,8|2,3:2|3:2,2:0:0:0:
485,44,84915,1,8,3:2:0:0:
130,30,85129,1,2,3:2:0:0:
130,30,85236,1,0,3:2:0:0:
130,30,85343,5,2,3:2:0:0:
36,65,85451,2,0,B|96:70|96:70|101:67|101:67|194:75,1,140,8|2,3:2|3:2,2:0:0:0:
27,159,85772,1,12,3:2:0:0:
322,89,85986,1,6,3:2:0:0:
322,89,86093,1,0,2:0:0:0:
322,89,86201,5,6,3:2:0:0:
258,14,86308,2,0,B|251:125|305:63|299:196,1,160,8|2,3:2|3:2,2:0:0:0:
351,1,86629,1,8,3:2:0:0:
190,295,86843,1,2,3:2:0:0:
190,295,86951,1,0,3:2:0:0:
190,295,87058,5,6,3:2:0:0:
254,370,87165,2,0,B|260:258|206:320|212:187,1,160,8|2,2:0|3:2,2:0:0:0:
161,383,87486,5,8,3:2:0:0:
90,309,87593,1,8,3:2:0:0:
61,209,87701,1,10,3:2:0:0:
83,107,87808,1,8,3:2:0:0:
157,46,87915,5,6,3:2:0:0:
57,18,88022,2,0,P|125:85|154:193,1,160,8|2,3:2|3:2,2:0:0:0:
256,64,88343,1,8,3:2:0:0:
355,338,88558,1,2,3:2:0:0:
355,338,88665,1,0,3:2:0:0:
355,338,88772,5,2,3:2:0:0:
455,366,88879,2,0,P|387:299|358:191,1,160,8|0,2:0|2:0,2:0:0:0:
256,320,89201,1,4,3:2:0:0:
157,46,89415,1,6,3:2:0:0:
157,46,89522,1,0,2:0:0:0:
113,129,89629,6,0,P|125:169|151:197,2,66.6666666666667,0|0|0,2:0|2:0|2:0,2:0:0:0:
83,267,90058,2,0,P|120:279|186:262,2,93.3333333333334,0|0|0,2:0|2:0|2:0,2:0:0:0:
203,127,90486,5,4,2:0:0:0:
255,138,90629,5,4,2:0:0:0:
301,123,90772,5,4,2:0:0:0:
331,81,90915,5,12,2:0:0:0:
325,53,91058,5,12,2:0:0:0:
311,42,91201,5,12,2:0:0:0:
297,38,91344,5,4,1:0:0:0:
375,20,91486,1,0,2:0:0:0:
449,48,91629,1,0,2:0:0:0:
481,121,91772,1,0,2:0:0:0:
450,194,91915,5,8,2:0:0:0:
427,186,91986,1,8,2:0:0:0:
407,204,92058,5,8,2:0:0:0:
381,215,92129,1,8,2:0:0:0:
358,191,92201,5,8,2:0:0:0:
283,161,92344,1,0,2:0:0:0:
220,210,92486,1,0,2:0:0:0:
140,220,92629,1,0,2:0:0:0:
76,170,92772,5,8,2:0:0:0:
90,195,92844,1,8,2:0:0:0:
70,225,92915,5,8,2:0:0:0:
57,245,92986,1,8,2:0:0:0:
56,288,93058,5,0,1:0:0:0:
120,335,93201,1,0,2:0:0:0:
199,343,93344,1,0,2:0:0:0:
276,326,93486,1,0,2:0:0:0:
327,264,93629,5,8,2:0:0:0:
305,276,93701,1,8,2:0:0:0:
317,227,93772,5,8,2:0:0:0:
300,216,93844,1,8,2:0:0:0:
305,171,93915,5,8,2:0:0:0:
336,97,94058,1,0,2:0:0:0:
256,91,94201,1,0,2:0:0:0:
220,19,94344,1,0,2:0:0:0:
171,82,94486,5,8,2:0:0:0:
145,55,94558,1,8,2:0:0:0:
112,43,94629,5,8,2:0:0:0:
85,69,94701,1,8,2:0:0:0:
62,55,94772,5,4,1:0:0:0:
48,133,94915,1,0,2:0:0:0:
101,192,95058,1,0,2:0:0:0:
179,206,95201,1,0,2:0:0:0:
248,166,95344,5,8,2:0:0:0:
269,159,95415,1,8,2:0:0:0:
296,183,95486,5,8,2:0:0:0:
318,197,95558,1,8,2:0:0:0:
325,235,95629,5,12,2:0:0:0:
318,314,95772,1,0,2:0:0:0:
386,355,95915,1,0,2:0:0:0:
459,322,96058,1,0,2:0:0:0:
470,242,96201,5,8,2:0:0:0:
455,224,96272,1,8,2:0:0:0:
467,207,96344,5,8,2:0:0:0:
474,183,96415,1,8,2:0:0:0:
453,167,96486,5,0,1:0:0:0:
407,101,96629,1,0,2:0:0:0:
413,21,96772,1,0,2:0:0:0:
334,34,96915,1,0,2:0:0:0:
266,77,97058,5,8,2:0:0:0:
250,59,97129,1,8,2:0:0:0:
243,109,97201,5,8,2:0:0:0:
222,112,97272,1,8,2:0:0:0:
212,157,97344,5,8,2:0:0:0:
270,211,97486,1,0,2:0:0:0:
284,289,97629,1,0,2:0:0:0:
233,351,97772,1,2,3:0:0:0:
153,344,97915,5,10,2:0:0:0:
145,326,97986,1,10,2:0:0:0:
116,337,98058,5,10,2:0:0:0:
86,324,98129,1,10,2:0:0:0:
48,341,98201,6,0,P|56:305|55:268,3,50,4|2|2|2,1:0|2:0|2:0|2:0,2:0:0:0:
110,232,98486,2,0,P|105:200|83:163,3,70,2|2|2|2,2:0|2:0|2:0|2:0,2:0:0:0:
9,64,98772,5,10,2:0:0:0:
32,55,98844,1,10,2:0:0:0:
54,74,98915,5,10,2:0:0:0:
80,86,98986,1,10,2:0:0:0:
106,61,99058,6,0,P|168:34|210:43,3,100,8|2|2|2,2:0|2:0|2:0|2:0,2:0:0:0:
271,3,99344,2,0,P|312:55|315:98,3,80,2|2|2|2,2:0|2:0|2:0|2:0,2:0:0:0:
406,70,99629,5,10,2:0:0:0:
392,96,99701,1,10,2:0:0:0:
414,128,99772,5,10,2:0:0:0:
405,160,99844,1,10,2:0:0:0:
428,195,99915,6,0,P|454:163|487:149,3,60,2|2|2|2,1:2|2:0|2:0|2:0,2:0:0:0:
433,286,100201,2,0,P|391:278|362:256,3,50,2|2|2|2,2:0|2:0|2:0|2:0,2:0:0:0:
314,193,100486,5,10,2:0:0:0:
326,215,100558,1,10,2:0:0:0:
275,203,100629,5,10,2:0:0:0:
263,222,100701,1,10,2:0:0:0:
216,215,100772,6,0,P|224:164|250:137,3,50,8|2|2|2,2:0|2:0|2:0|2:0,2:0:0:0:
175,296,101058,2,0,P|134:262|125:227,3,70,2|2|2|2,2:0|2:0|2:0|2:0,2:0:0:0:
128,142,101344,5,8,2:0:0:0:
158,114,101415,1,8,2:0:0:0:
169,79,101486,5,8,2:0:0:0:
143,52,101558,1,8,2:0:0:0:
161,27,101629,6,0,P|107:36|65:90,3,70,6|2|2|2,1:2|2:0|2:0|2:0,2:0:0:0:
253,95,101915,2,0,P|207:64|190:-1,3,70,10|10|10|2,2:0|2:0|2:0|2:0,2:0:0:0:
311,32,102201,5,10,2:0:0:0:
336,40,102272,1,10,2:0:0:0:
380,24,102344,5,10,2:0:0:0:
396,69,102415,1,10,2:0:0:0:
429,53,102486,6,0,P|486:122|495:156,1,69.9999999999999,12|2,2:0|2:0,2:0:0:0:
482,131,102701,6,0,P|419:199|408:233,1,69.9999999999999,4|2,2:0|2:0,2:0:0:0:
424,203,102915,6,0,P|462:233|472:276,1,55,4|2,2:0|2:0,2:0:0:0:
391,277,103058,5,10,2:0:0:0:
373,299,103129,1,10,2:0:0:0:
348,286,103201,5,10,2:0:0:0:
276,331,103344,5,6,1:0:0:0:
233,305,103451,2,0,L|137:321,1,80,2|2,2:0|2:0,2:0:0:0:
41,360,103665,5,2,2:0:0:0:
60,329,103772,2,0,L|47:253,1,70,2|2,2:0|2:0,2:0:0:0:
0,148,103986,5,2,2:0:0:0:
28,164,104094,2,0,L|104:151,1,60,2|2,2:0|2:0,2:0:0:0:
186,121,104308,5,2,2:0:0:0:
174,141,104415,2,0,L|187:217,1,50,2|2,2:0|2:0,2:0:0:0:
92,52,104629,6,0,P|130:16|178:8,1,89.9999999999999,4|0,2:0|2:0,2:0:0:0:
312,144,104844,2,0,P|299:93|316:47,1,89.9999999999999,4|0,2:0|2:0,2:0:0:0:
503,25,105058,5,6,2:0:0:0:
474,64,105165,1,2,2:0:0:0:
466,112,105272,1,2,2:0:0:0:
499,157,105379,5,2,2:0:0:0:
460,175,105486,1,2,2:0:0:0:
434,206,105594,1,2,2:0:0:0:
454,272,105701,5,2,2:0:0:0:
419,268,105808,1,2,2:0:0:0:
389,279,105915,1,6,2:0:0:0:
373,334,106022,5,2,2:0:0:0:
355,318,106129,1,2,2:0:0:0:
333,316,106236,1,2,2:0:0:0:
316,345,106344,5,2,2:0:0:0:
304,329,106451,1,2,2:0:0:0:
268,293,106558,1,2,2:0:0:0:
213,264,106665,1,2,2:0:0:0:
155,263,106772,5,6,1:0:0:0:
179,307,106879,2,0,P|157:414|132:432,1,80,2|2,2:0|2:0,2:0:0:0:
143,147,107094,5,2,2:0:0:0:
184,146,107201,2,0,P|250:204|254:228,1,70,2|2,2:0|2:0,2:0:0:0:
50,98,107415,5,2,2:0:0:0:
69,69,107522,2,0,P|135:45|154:53,1,60,2|2,2:0|2:0,2:0:0:0:
134,161,107736,5,2,2:0:0:0:
123,177,107844,2,0,P|85:203|63:207,1,60,2|2,2:0|2:0,2:0:0:0:
13,360,108058,6,0,B|151:386|116:232|264:264,1,270,4|0,2:0|2:0,2:0:0:0:
353,366,108486,5,6,2:0:0:0:
391,329,108594,1,2,2:0:0:0:
413,283,108701,1,2,2:0:0:0:
474,267,108808,5,2,2:0:0:0:
441,235,108915,1,2,2:0:0:0:
425,195,109022,1,2,2:0:0:0:
367,175,109129,5,2,2:0:0:0:
392,150,109236,1,2,2:0:0:0:
404,117,109344,1,6,2:0:0:0:
454,94,109451,5,2,2:0:0:0:
432,78,109558,1,2,2:0:0:0:
425,59,109665,1,2,2:0:0:0:
374,62,109772,5,2,2:0:0:0:
343,38,109879,1,2,2:0:0:0:
285,28,109986,1,2,2:0:0:0:
230,37,110094,1,2,2:0:0:0:
181,81,110201,5,6,1:0:0:0:
220,112,110308,2,0,L|215:218,1,80,2|2,2:0|2:0,2:0:0:0:
33,181,110522,5,2,2:0:0:0:
58,149,110629,2,0,L|143:153,1,70,2|2,2:0|2:0,2:0:0:0:
130,323,110844,5,2,2:0:0:0:
102,301,110951,2,0,L|105:227,1,60,2|2,2:0|2:0,2:0:0:0:
271,263,111165,5,2,2:0:0:0:
256,283,111272,2,0,L|204:280,1,50,2|2,2:0|2:0,2:0:0:0:
243,143,111486,6,0,B|248:97|248:97|254:94|254:94|261:7,1,89.9999999999999,4|0,2:0|2:0,2:0:0:0:
434,7,111701,2,0,B|429:53|429:53|423:56|423:56|416:143,1,89.9999999999999,4|0,2:0|2:0,2:0:0:0:
503,286,111915,5,6,2:0:0:0:
448,294,112022,1,2,2:0:0:0:
395,303,112129,1,2,2:0:0:0:
352,254,112236,5,2,2:0:0:0:
347,297,112344,1,2,2:0:0:0:
344,339,112451,1,2,2:0:0:0:
303,317,112558,5,2,2:0:0:0:
268,322,112665,1,2,2:0:0:0:
235,327,112772,1,6,2:0:0:0:
182,355,112879,5,2,2:0:0:0:
185,328,112986,1,2,2:0:0:0:
188,304,113094,1,2,2:0:0:0:
225,260,113201,5,2,2:0:0:0:
199,264,113308,1,2,2:0:0:0:
156,268,113415,1,2,2:0:0:0:
109,275,113522,1,2,2:0:0:0:
50,284,113629,6,2,L|140:313,2,60,4|0|0,3:1|2:0|2:0,2:1:0:0:
338,384,113951,2,2,L|367:294,2,60,4|0|0,3:2|2:0|2:0,2:1:0:0:
438,96,114272,2,2,L|348:67,2,60,4|0|0,3:1|2:0|2:0,2:1:0:0:
150,0,114594,2,2,L|121:90,2,60,4|0|0,3:2|2:0|2:0,2:1:0:0:
49,274,114915,5,14,3:2:0:0:
49,274,115022,1,10,1:3:0:0:
49,274,115129,1,10,1:3:0:0:
49,274,115236,1,10,1:3:0:0:
49,274,115344,2,2,L|134:234,2,60,4|0|0,3:1|2:0|2:0,2:1:0:0:
438,96,115665,2,2,L|356:133,2,60,4|0|0,3:2|2:0|2:0,2:1:0:0:
338,384,115986,2,2,L|299:303,2,60,4|0|0,3:1|2:0|2:0,2:1:0:0:
150,0,116308,2,2,L|181:71,2,60,4|0|0,3:2|2:0|2:0,2:1:0:0:
49,274,116629,1,8,1:0:0:0:
72,272,116736,1,8,1:0:0:0:
110,271,116844,1,8,1:0:0:0:
167,267,116951,1,8,1:0:0:0:
252,260,117058,5,4,2:1:0:0:
252,260,117272,1,0,2:0:0:0:
252,260,117486,1,0,2:0:0:0:
351,249,117701,1,0,2:0:0:0:
351,249,117915,1,0,2:0:0:0:
351,249,118129,1,0,2:0:0:0:
387,80,118344,5,2,2:0:0:0:
427,384,118558,5,2,2:0:0:0:
252,260,118772,5,2,2:0:0:0:
252,260,118986,1,0,2:0:0:0:
252,260,119201,1,0,2:0:0:0:
351,249,119415,1,0,2:0:0:0:
427,384,119629,5,2,2:0:0:0:
427,384,119844,1,0,2:0:0:0:
427,384,120058,1,0,2:0:0:0:
427,384,120272,1,0,2:0:0:0:
292,88,120486,5,2,2:0:0:0:
292,88,120701,1,0,2:0:0:0:
292,88,120915,1,0,2:0:0:0:
193,99,121129,1,0,2:0:0:0:
193,99,121344,1,0,2:0:0:0:
193,99,121558,1,0,2:0:0:0:
448,235,121772,5,2,2:0:0:0:
448,235,121986,1,0,2:0:0:0:
193,99,122201,5,2,2:0:0:0:
193,99,122415,1,0,2:0:0:0:
193,99,122629,1,0,2:0:0:0:
292,88,122844,1,0,2:0:0:0:
85,0,123058,5,2,2:0:0:0:
85,0,123272,1,0,2:0:0:0:
85,0,123486,1,0,2:0:0:0:
85,0,123701,1,0,2:0:0:0:
477,92,123915,5,4,2:0:0:0:
477,92,125201,5,2,2:0:0:0:
421,251,125415,5,2,2:0:0:0:
335,131,125629,5,2,2:0:0:0:
266,241,126486,5,2,2:0:0:0:
181,170,127344,5,2,2:0:0:0:
103,228,128629,5,2,2:0:0:0:
63,200,129058,5,2,2:0:0:0:
47,216,129915,6,0,P|17:220|-9:212,3,40,2|0|0|0,2:0|2:0|2:0|2:0,2:0:0:0:
