osu file format v14

[General]
AudioFilename: audio.mp3
AudioLeadIn: 0
PreviewTime: 85983
Countdown: 0
SampleSet: None
StackLeniency: 0.7
Mode: 3
LetterboxInBreaks: 0
SpecialStyle: 0
WidescreenStoryboard: 1

[Editor]
DistanceSpacing: 1.2
BeatDivisor: 4
GridSize: 32
TimelineZoom: 2.7

[Metadata]
Title:24/7 Popperz
TitleUnicode:24/7 Popperz
Artist:Power Of Nature
ArtistUnicode:Power Of Nature
Creator:D o t
Version:EX 49
Source:pop'n music うさぎと猫と少年の夢
Tags:
BeatmapID:1812298
BeatmapSetID:866824

[Difficulty]
HPDrainRate:8
CircleSize:9
OverallDifficulty:8
ApproachRate:5
SliderMultiplier:1.4
SliderTickRate:1

[Events]
//Background and Video events
0,0,"9.png",0,0
//Break Periods
//Storyboard Layer 0 (Background)
//Storyboard Layer 1 (Fail)
//Storyboard Layer 2 (Pass)
//Storyboard Layer 3 (Foreground)
//Storyboard Sound Samples

[TimingPoints]
513,297.029702970297,4,2,0,50,1,0
10017,-100,4,2,0,50,0,1
10018,-100,4,2,0,50,0,0
38532,-100,4,2,0,50,0,1
38533,-100,4,2,0,50,0,0
57542,-100,4,2,0,50,0,1
57543,-100,4,2,0,50,0,0
86057,-100,4,2,0,50,0,1
86058,-100,4,2,0,50,0,0
118136,-100,4,2,0,50,0,1
118137,-100,4,2,0,50,0,0

[HitObjects]
28,192,513,5,0,0:0:0:0:
142,192,513,1,0,0:0:0:0:
369,192,513,1,0,0:0:0:0:
483,192,513,1,0,0:0:0:0:
256,192,1107,1,0,0:0:0:0:
85,192,1255,128,0,1626:0:0:0:0:
312,192,1255,128,0,1626:0:0:0:0:
426,192,1255,128,0,1626:0:0:0:0:
28,192,1701,1,0,0:0:0:0:
142,192,1701,1,0,0:0:0:0:
369,192,1701,1,0,0:0:0:0:
483,192,1701,1,0,0:0:0:0:
256,192,2295,1,0,0:0:0:0:
85,192,2443,128,0,2814:0:0:0:0:
199,192,2443,128,0,2814:0:0:0:0:
426,192,2443,128,0,2814:0:0:0:0:
28,192,2889,1,0,0:0:0:0:
142,192,2889,1,0,0:0:0:0:
369,192,2889,1,0,0:0:0:0:
483,192,2889,1,0,0:0:0:0:
256,192,3483,1,0,0:0:0:0:
142,192,3631,128,0,4003:0:0:0:0:
312,192,3631,128,0,4003:0:0:0:0:
426,192,3631,128,0,4003:0:0:0:0:
256,192,4077,128,0,5116:0:0:0:0:
28,192,5265,1,0,0:0:0:0:
142,192,5265,1,0,0:0:0:0:
369,192,5265,1,0,0:0:0:0:
483,192,5265,1,0,0:0:0:0:
256,192,5859,1,0,0:0:0:0:
85,192,6008,128,0,6379:0:0:0:0:
312,192,6008,128,0,6379:0:0:0:0:
426,192,6008,128,0,6379:0:0:0:0:
28,192,6453,1,0,0:0:0:0:
142,192,6453,1,0,0:0:0:0:
369,192,6453,1,0,0:0:0:0:
483,192,6453,1,0,0:0:0:0:
256,192,7047,1,0,0:0:0:0:
85,192,7196,128,0,7567:0:0:0:0:
199,192,7196,128,0,7567:0:0:0:0:
426,192,7196,128,0,7567:0:0:0:0:
28,192,7641,1,0,0:0:0:0:
142,192,7641,1,0,0:0:0:0:
369,192,7641,1,0,0:0:0:0:
483,192,7641,1,0,0:0:0:0:
256,192,8235,1,0,0:0:0:0:
28,192,8384,128,0,8755:0:0:0:0:
142,192,8384,128,0,8755:0:0:0:0:
312,192,8384,128,0,8755:0:0:0:0:
85,192,8829,1,0,0:0:0:0:
256,192,8829,1,0,0:0:0:0:
142,192,9126,1,0,0:0:0:0:
312,192,9126,1,0,0:0:0:0:
199,192,9423,1,0,0:0:0:0:
369,192,9423,1,0,0:0:0:0:
256,192,9720,1,0,0:0:0:0:
426,192,9720,1,0,0:0:0:0:
28,192,10017,1,0,0:0:0:0:
369,192,10017,1,0,0:0:0:0:
199,192,10166,1,0,0:0:0:0:
312,192,10240,1,0,0:0:0:0:
28,192,10314,1,0,0:0:0:0:
426,192,10314,1,0,0:0:0:0:
256,192,10463,1,0,0:0:0:0:
369,192,10537,1,0,0:0:0:0:
28,192,10612,1,0,0:0:0:0:
483,192,10612,1,0,0:0:0:0:
85,192,10760,1,0,0:0:0:0:
199,192,10834,1,0,0:0:0:0:
28,192,10909,1,0,0:0:0:0:
312,192,10909,1,0,0:0:0:0:
142,192,11057,1,0,0:0:0:0:
256,192,11131,1,0,0:0:0:0:
28,192,11206,1,0,0:0:0:0:
369,192,11206,1,0,0:0:0:0:
199,192,11354,1,0,0:0:0:0:
312,192,11428,1,0,0:0:0:0:
483,192,11503,1,0,0:0:0:0:
28,192,11503,1,0,0:0:0:0:
426,192,11651,1,0,0:0:0:0:
85,192,11651,1,0,0:0:0:0:
28,192,11800,1,0,0:0:0:0:
199,192,11948,1,0,0:0:0:0:
85,192,12022,1,0,0:0:0:0:
256,192,12097,1,0,0:0:0:0:
28,192,12097,1,0,0:0:0:0:
142,192,12171,1,0,0:0:0:0:
312,192,12245,1,0,0:0:0:0:
199,192,12319,1,0,0:0:0:0:
369,192,12394,1,0,0:0:0:0:
28,192,12394,1,0,0:0:0:0:
142,192,12542,1,0,0:0:0:0:
256,192,12616,1,0,0:0:0:0:
28,192,12691,1,0,0:0:0:0:
426,192,12691,1,0,0:0:0:0:
199,192,12839,1,0,0:0:0:0:
312,192,12913,1,0,0:0:0:0:
28,192,12988,1,0,0:0:0:0:
483,192,12988,1,0,0:0:0:0:
85,192,13136,1,0,0:0:0:0:
199,192,13211,1,0,0:0:0:0:
28,192,13285,1,0,0:0:0:0:
369,192,13285,1,0,0:0:0:0:
142,192,13433,1,0,0:0:0:0:
312,192,13508,1,0,0:0:0:0:
28,192,13582,1,0,0:0:0:0:
426,192,13582,1,0,0:0:0:0:
369,192,13879,1,0,0:0:0:0:
28,192,13879,1,0,0:0:0:0:
312,192,14027,1,0,0:0:0:0:
199,192,14176,1,0,0:0:0:0:
28,192,14176,1,0,0:0:0:0:
426,192,14324,1,0,0:0:0:0:
256,192,14399,1,0,0:0:0:0:
28,192,14473,1,0,0:0:0:0:
369,192,14473,1,0,0:0:0:0:
199,192,14547,1,0,0:0:0:0:
312,192,14621,1,0,0:0:0:0:
142,192,14696,1,0,0:0:0:0:
256,192,14770,1,0,0:0:0:0:
369,192,14770,1,0,0:0:0:0:
142,192,14918,1,0,0:0:0:0:
199,192,14993,1,0,0:0:0:0:
312,192,15067,1,0,0:0:0:0:
426,192,15067,1,0,0:0:0:0:
28,192,15215,1,0,0:0:0:0:
312,192,15290,1,0,0:0:0:0:
199,192,15364,1,0,0:0:0:0:
85,192,15364,1,0,0:0:0:0:
28,192,15513,1,0,0:0:0:0:
369,192,15587,1,0,0:0:0:0:
256,192,15661,1,0,0:0:0:0:
142,192,15661,1,0,0:0:0:0:
369,192,15810,1,0,0:0:0:0:
312,192,15884,1,0,0:0:0:0:
426,192,15958,1,0,0:0:0:0:
199,192,15958,1,0,0:0:0:0:
85,192,15958,1,0,0:0:0:0:
256,192,16107,1,0,0:0:0:0:
142,192,16255,1,0,0:0:0:0:
28,192,16255,1,0,0:0:0:0:
312,192,16255,1,0,0:0:0:0:
85,192,16404,1,0,0:0:0:0:
256,192,16404,1,0,0:0:0:0:
369,192,16404,1,0,0:0:0:0:
28,192,16552,1,0,0:0:0:0:
142,192,16701,1,0,0:0:0:0:
426,192,16701,1,0,0:0:0:0:
312,192,16775,1,0,0:0:0:0:
369,192,16849,1,0,0:0:0:0:
28,192,16849,1,0,0:0:0:0:
256,192,16923,1,0,0:0:0:0:
312,192,16998,1,0,0:0:0:0:
142,192,16998,1,0,0:0:0:0:
199,192,17072,1,0,0:0:0:0:
256,192,17146,1,0,0:0:0:0:
369,192,17146,1,0,0:0:0:0:
142,192,17295,1,0,0:0:0:0:
199,192,17369,1,0,0:0:0:0:
312,192,17443,1,0,0:0:0:0:
426,192,17443,1,0,0:0:0:0:
28,192,17592,1,0,0:0:0:0:
256,192,17666,1,0,0:0:0:0:
85,192,17740,1,0,0:0:0:0:
199,192,17740,1,0,0:0:0:0:
28,192,17889,1,0,0:0:0:0:
369,192,17963,1,0,0:0:0:0:
256,192,18037,1,0,0:0:0:0:
142,192,18037,1,0,0:0:0:0:
28,192,18186,1,0,0:0:0:0:
85,192,18334,1,0,0:0:0:0:
199,192,18334,1,0,0:0:0:0:
312,192,18334,1,0,0:0:0:0:
426,192,18334,1,0,0:0:0:0:
28,192,18631,1,0,0:0:0:0:
142,192,18631,1,0,0:0:0:0:
312,192,18631,1,0,0:0:0:0:
85,192,18780,1,0,0:0:0:0:
256,192,18780,1,0,0:0:0:0:
369,192,18780,1,0,0:0:0:0:
28,192,19522,1,0,0:0:0:0:
142,192,19522,1,0,0:0:0:0:
256,192,19522,1,0,0:0:0:0:
369,192,19522,1,0,0:0:0:0:
28,192,19671,1,0,0:0:0:0:
85,192,19745,1,0,0:0:0:0:
142,192,19819,1,0,0:0:0:0:
199,192,19894,1,0,0:0:0:0:
256,192,19968,1,0,0:0:0:0:
312,192,20042,1,0,0:0:0:0:
426,192,20116,1,0,0:0:0:0:
369,192,20265,1,0,0:0:0:0:
312,192,20413,1,0,0:0:0:0:
256,192,20562,1,0,0:0:0:0:
199,192,20711,1,0,0:0:0:0:
256,192,20711,1,0,0:0:0:0:
312,192,20711,1,0,0:0:0:0:
28,192,20711,128,0,21750:0:0:0:0:
85,192,21899,1,0,0:0:0:0:
369,192,21899,1,0,0:0:0:0:
483,192,21899,1,0,0:0:0:0:
142,192,22047,1,0,0:0:0:0:
199,192,22121,1,0,0:0:0:0:
256,192,22196,1,0,0:0:0:0:
312,192,22270,1,0,0:0:0:0:
369,192,22344,1,0,0:0:0:0:
426,192,22418,1,0,0:0:0:0:
199,192,22493,1,0,0:0:0:0:
312,192,22641,1,0,0:0:0:0:
426,192,22790,1,0,0:0:0:0:
199,192,22938,1,0,0:0:0:0:
142,192,23087,1,0,0:0:0:0:
199,192,23087,1,0,0:0:0:0:
256,192,23087,1,0,0:0:0:0:
483,192,23087,128,0,24126:0:0:0:0:
426,192,24275,1,0,0:0:0:0:
369,192,24275,1,0,0:0:0:0:
312,192,24275,1,0,0:0:0:0:
256,192,24275,1,0,0:0:0:0:
142,192,24423,1,0,0:0:0:0:
199,192,24498,1,0,0:0:0:0:
256,192,24572,1,0,0:0:0:0:
312,192,24646,1,0,0:0:0:0:
369,192,24720,1,0,0:0:0:0:
426,192,24795,1,0,0:0:0:0:
483,192,24869,1,0,0:0:0:0:
426,192,25017,1,0,0:0:0:0:
199,192,25166,1,0,0:0:0:0:
369,192,25314,1,0,0:0:0:0:
85,192,25463,1,0,0:0:0:0:
142,192,25463,1,0,0:0:0:0:
199,192,25463,1,0,0:0:0:0:
256,192,25463,128,0,26503:0:0:0:0:
142,192,26651,1,0,0:0:0:0:
256,192,26651,1,0,0:0:0:0:
312,192,26651,1,0,0:0:0:0:
426,192,26651,1,0,0:0:0:0:
28,192,26800,1,0,0:0:0:0:
85,192,26874,1,0,0:0:0:0:
142,192,26948,1,0,0:0:0:0:
199,192,27022,1,0,0:0:0:0:
256,192,27097,1,0,0:0:0:0:
312,192,27171,1,0,0:0:0:0:
369,192,27245,1,0,0:0:0:0:
426,192,27394,1,0,0:0:0:0:
369,192,27542,1,0,0:0:0:0:
312,192,27691,1,0,0:0:0:0:
256,192,27839,1,0,0:0:0:0:
199,192,27839,1,0,0:0:0:0:
369,192,27839,1,0,0:0:0:0:
85,192,27839,1,0,0:0:0:0:
85,192,27988,1,0,0:0:0:0:
85,192,28136,1,0,0:0:0:0:
199,192,28136,1,0,0:0:0:0:
256,192,28136,1,0,0:0:0:0:
369,192,28136,1,0,0:0:0:0:
85,192,28285,1,0,0:0:0:0:
28,192,28433,1,0,0:0:0:0:
312,192,28433,1,0,0:0:0:0:
426,192,28433,1,0,0:0:0:0:
142,192,28508,1,0,0:0:0:0:
28,192,28582,1,0,0:0:0:0:
142,192,28656,1,0,0:0:0:0:
28,192,28730,1,0,0:0:0:0:
312,192,28730,1,0,0:0:0:0:
426,192,28730,1,0,0:0:0:0:
142,192,28805,1,0,0:0:0:0:
28,192,28879,1,0,0:0:0:0:
142,192,28953,1,0,0:0:0:0:
28,192,29027,1,0,0:0:0:0:
369,192,29027,1,0,0:0:0:0:
142,192,29176,1,0,0:0:0:0:
199,192,29250,1,0,0:0:0:0:
28,192,29324,1,0,0:0:0:0:
256,192,29324,1,0,0:0:0:0:
312,192,29399,1,0,0:0:0:0:
369,192,29473,1,0,0:0:0:0:
426,192,29547,1,0,0:0:0:0:
28,192,29621,1,0,0:0:0:0:
483,192,29621,1,0,0:0:0:0:
426,192,29770,1,0,0:0:0:0:
28,192,29918,1,0,0:0:0:0:
369,192,29918,1,0,0:0:0:0:
312,192,30067,1,0,0:0:0:0:
142,192,30215,1,0,0:0:0:0:
256,192,30215,128,0,30810:0:0:0:0:
199,192,30290,1,0,0:0:0:0:
142,192,30364,1,0,0:0:0:0:
85,192,30438,1,0,0:0:0:0:
142,192,30512,1,0,0:0:0:0:
199,192,30587,1,0,0:0:0:0:
142,192,30661,1,0,0:0:0:0:
85,192,30735,1,0,0:0:0:0:
142,192,30810,1,0,0:0:0:0:
28,192,30884,1,0,0:0:0:0:
85,192,30958,1,0,0:0:0:0:
142,192,31032,1,0,0:0:0:0:
199,192,31107,1,0,0:0:0:0:
256,192,31181,1,0,0:0:0:0:
312,192,31255,1,0,0:0:0:0:
369,192,31329,1,0,0:0:0:0:
426,192,31404,1,0,0:0:0:0:
28,192,31404,1,0,0:0:0:0:
142,192,31552,1,0,0:0:0:0:
199,192,31626,1,0,0:0:0:0:
28,192,31701,1,0,0:0:0:0:
256,192,31701,1,0,0:0:0:0:
312,192,31775,1,0,0:0:0:0:
369,192,31849,1,0,0:0:0:0:
426,192,31923,1,0,0:0:0:0:
28,192,31998,1,0,0:0:0:0:
312,192,31998,1,0,0:0:0:0:
369,192,32146,1,0,0:0:0:0:
28,192,32295,1,0,0:0:0:0:
426,192,32295,1,0,0:0:0:0:
312,192,32443,1,0,0:0:0:0:
142,192,32592,1,0,0:0:0:0:
256,192,32592,128,0,33186:0:0:0:0:
199,192,32666,1,0,0:0:0:0:
142,192,32740,1,0,0:0:0:0:
85,192,32814,1,0,0:0:0:0:
142,192,32889,1,0,0:0:0:0:
199,192,32963,1,0,0:0:0:0:
142,192,33037,1,0,0:0:0:0:
28,192,33112,1,0,0:0:0:0:
85,192,33186,1,0,0:0:0:0:
142,192,33260,1,0,0:0:0:0:
199,192,33334,1,0,0:0:0:0:
256,192,33409,1,0,0:0:0:0:
312,192,33483,1,0,0:0:0:0:
369,192,33557,1,0,0:0:0:0:
426,192,33631,1,0,0:0:0:0:
483,192,33706,1,0,0:0:0:0:
28,192,33780,1,0,0:0:0:0:
369,192,33780,1,0,0:0:0:0:
142,192,33928,1,0,0:0:0:0:
199,192,34003,1,0,0:0:0:0:
28,192,34077,1,0,0:0:0:0:
256,192,34077,1,0,0:0:0:0:
312,192,34151,1,0,0:0:0:0:
369,192,34225,1,0,0:0:0:0:
426,192,34300,1,0,0:0:0:0:
28,192,34374,1,0,0:0:0:0:
483,192,34374,1,0,0:0:0:0:
426,192,34522,1,0,0:0:0:0:
28,192,34671,1,0,0:0:0:0:
369,192,34671,1,0,0:0:0:0:
483,192,34819,1,0,0:0:0:0:
199,192,34968,1,0,0:0:0:0:
369,192,34968,128,0,35562:0:0:0:0:
256,192,35042,1,0,0:0:0:0:
199,192,35116,1,0,0:0:0:0:
142,192,35191,1,0,0:0:0:0:
199,192,35265,1,0,0:0:0:0:
256,192,35339,1,0,0:0:0:0:
199,192,35413,1,0,0:0:0:0:
142,192,35488,1,0,0:0:0:0:
199,192,35562,1,0,0:0:0:0:
256,192,35636,1,0,0:0:0:0:
312,192,35711,1,0,0:0:0:0:
369,192,35785,1,0,0:0:0:0:
426,192,35859,1,0,0:0:0:0:
312,192,35933,1,0,0:0:0:0:
199,192,36008,1,0,0:0:0:0:
85,192,36082,1,0,0:0:0:0:
28,192,36156,1,0,0:0:0:0:
369,192,36156,1,0,0:0:0:0:
85,192,36305,1,0,0:0:0:0:
142,192,36379,1,0,0:0:0:0:
28,192,36453,1,0,0:0:0:0:
199,192,36453,1,0,0:0:0:0:
256,192,36527,1,0,0:0:0:0:
312,192,36602,1,0,0:0:0:0:
369,192,36676,1,0,0:0:0:0:
28,192,36750,1,0,0:0:0:0:
426,192,36750,1,0,0:0:0:0:
483,192,36899,1,0,0:0:0:0:
28,192,37047,1,0,0:0:0:0:
426,192,37047,1,0,0:0:0:0:
369,192,37196,1,0,0:0:0:0:
142,192,37344,1,0,0:0:0:0:
312,192,37344,128,0,37641:0:0:0:0:
85,192,37418,1,0,0:0:0:0:
28,192,37493,1,0,0:0:0:0:
85,192,37567,1,0,0:0:0:0:
142,192,37641,1,0,0:0:0:0:
199,192,37715,1,0,0:0:0:0:
256,192,37790,1,0,0:0:0:0:
312,192,37864,1,0,0:0:0:0:
369,192,37938,1,0,0:0:0:0:
256,192,38013,1,0,0:0:0:0:
142,192,38087,1,0,0:0:0:0:
28,192,38161,1,0,0:0:0:0:
369,192,38235,1,0,0:0:0:0:
426,192,38532,1,0,0:0:0:0:
312,192,38582,1,0,0:0:0:0:
199,192,38631,1,0,0:0:0:0:
85,192,38681,1,0,0:0:0:0:
256,192,38755,1,0,0:0:0:0:
426,192,38829,1,0,0:0:0:0:
312,192,38879,1,0,0:0:0:0:
199,192,38928,1,0,0:0:0:0:
85,192,38978,1,0,0:0:0:0:
256,192,39052,1,0,0:0:0:0:
199,192,39126,1,0,0:0:0:0:
142,192,39201,1,0,0:0:0:0:
256,192,39275,1,0,0:0:0:0:
199,192,39349,1,0,0:0:0:0:
312,192,39423,1,0,0:0:0:0:
256,192,39498,1,0,0:0:0:0:
369,192,39572,1,0,0:0:0:0:
312,192,39646,1,0,0:0:0:0:
483,192,39720,1,0,0:0:0:0:
369,192,39770,1,0,0:0:0:0:
256,192,39819,1,0,0:0:0:0:
142,192,39869,1,0,0:0:0:0:
312,192,39943,1,0,0:0:0:0:
483,192,40017,1,0,0:0:0:0:
369,192,40067,1,0,0:0:0:0:
256,192,40116,1,0,0:0:0:0:
142,192,40166,1,0,0:0:0:0:
312,192,40240,1,0,0:0:0:0:
483,192,40314,1,0,0:0:0:0:
312,192,40389,1,0,0:0:0:0:
369,192,40463,1,0,0:0:0:0:
256,192,40537,1,0,0:0:0:0:
312,192,40612,1,0,0:0:0:0:
199,192,40686,1,0,0:0:0:0:
256,192,40760,1,0,0:0:0:0:
142,192,40834,1,0,0:0:0:0:
369,192,40909,1,0,0:0:0:0:
256,192,40958,1,0,0:0:0:0:
142,192,41008,1,0,0:0:0:0:
28,192,41057,1,0,0:0:0:0:
199,192,41131,1,0,0:0:0:0:
369,192,41206,1,0,0:0:0:0:
256,192,41255,1,0,0:0:0:0:
142,192,41305,1,0,0:0:0:0:
28,192,41354,1,0,0:0:0:0:
199,192,41428,1,0,0:0:0:0:
142,192,41503,1,0,0:0:0:0:
85,192,41577,1,0,0:0:0:0:
199,192,41651,1,0,0:0:0:0:
142,192,41725,1,0,0:0:0:0:
256,192,41800,1,0,0:0:0:0:
199,192,41874,1,0,0:0:0:0:
312,192,41948,1,0,0:0:0:0:
256,192,42022,1,0,0:0:0:0:
483,192,42097,1,0,0:0:0:0:
369,192,42146,1,0,0:0:0:0:
256,192,42196,1,0,0:0:0:0:
142,192,42245,1,0,0:0:0:0:
312,192,42319,1,0,0:0:0:0:
483,192,42394,1,0,0:0:0:0:
369,192,42443,1,0,0:0:0:0:
256,192,42493,1,0,0:0:0:0:
142,192,42542,1,0,0:0:0:0:
312,192,42616,1,0,0:0:0:0:
369,192,42691,1,0,0:0:0:0:
199,192,42765,1,0,0:0:0:0:
426,192,42839,1,0,0:0:0:0:
312,192,42913,1,0,0:0:0:0:
483,192,42988,1,0,0:0:0:0:
426,192,43062,1,0,0:0:0:0:
369,192,43136,1,0,0:0:0:0:
256,192,43211,1,0,0:0:0:0:
483,192,43285,1,0,0:0:0:0:
369,192,43334,1,0,0:0:0:0:
256,192,43384,1,0,0:0:0:0:
142,192,43433,1,0,0:0:0:0:
312,192,43508,1,0,0:0:0:0:
483,192,43582,1,0,0:0:0:0:
369,192,43631,1,0,0:0:0:0:
256,192,43681,1,0,0:0:0:0:
142,192,43730,1,0,0:0:0:0:
312,192,43805,1,0,0:0:0:0:
199,192,43879,1,0,0:0:0:0:
426,192,43879,1,0,0:0:0:0:
142,192,43953,1,0,0:0:0:0:
483,192,44027,1,0,0:0:0:0:
256,192,44027,1,0,0:0:0:0:
199,192,44102,1,0,0:0:0:0:
426,192,44176,1,0,0:0:0:0:
312,192,44176,1,0,0:0:0:0:
256,192,44250,1,0,0:0:0:0:
483,192,44324,1,0,0:0:0:0:
369,192,44324,1,0,0:0:0:0:
312,192,44399,1,0,0:0:0:0:
426,192,44473,1,0,0:0:0:0:
312,192,44522,1,0,0:0:0:0:
199,192,44572,1,0,0:0:0:0:
85,192,44621,1,0,0:0:0:0:
256,192,44696,1,0,0:0:0:0:
426,192,44770,1,0,0:0:0:0:
312,192,44819,1,0,0:0:0:0:
199,192,44869,1,0,0:0:0:0:
85,192,44918,1,0,0:0:0:0:
256,192,44993,1,0,0:0:0:0:
199,192,45067,1,0,0:0:0:0:
369,192,45067,1,0,0:0:0:0:
312,192,45141,1,0,0:0:0:0:
256,192,45215,1,0,0:0:0:0:
426,192,45215,1,0,0:0:0:0:
369,192,45290,1,0,0:0:0:0:
312,192,45364,1,0,0:0:0:0:
483,192,45364,1,0,0:0:0:0:
369,192,45438,1,0,0:0:0:0:
426,192,45513,1,0,0:0:0:0:
256,192,45513,1,0,0:0:0:0:
312,192,45587,1,0,0:0:0:0:
256,192,45661,1,0,0:0:0:0:
483,192,45661,1,0,0:0:0:0:
369,192,45711,1,0,0:0:0:0:
426,192,45760,1,0,0:0:0:0:
312,192,45810,1,0,0:0:0:0:
199,192,45810,1,0,0:0:0:0:
256,192,45884,1,0,0:0:0:0:
142,192,45958,1,0,0:0:0:0:
369,192,45958,1,0,0:0:0:0:
256,192,46008,1,0,0:0:0:0:
312,192,46057,1,0,0:0:0:0:
199,192,46107,1,0,0:0:0:0:
85,192,46107,1,0,0:0:0:0:
369,192,46181,1,0,0:0:0:0:
256,192,46255,1,0,0:0:0:0:
28,192,46255,1,0,0:0:0:0:
369,192,46329,1,0,0:0:0:0:
85,192,46404,1,0,0:0:0:0:
256,192,46404,1,0,0:0:0:0:
369,192,46478,1,0,0:0:0:0:
28,192,46552,1,0,0:0:0:0:
256,192,46552,1,0,0:0:0:0:
369,192,46626,1,0,0:0:0:0:
85,192,46701,1,0,0:0:0:0:
256,192,46701,1,0,0:0:0:0:
312,192,46775,1,0,0:0:0:0:
142,192,46849,1,0,0:0:0:0:
369,192,46849,1,0,0:0:0:0:
256,192,46899,1,0,0:0:0:0:
312,192,46948,1,0,0:0:0:0:
199,192,46998,1,0,0:0:0:0:
85,192,46998,1,0,0:0:0:0:
256,192,47072,1,0,0:0:0:0:
312,192,47146,1,0,0:0:0:0:
142,192,47146,1,0,0:0:0:0:
199,192,47196,1,0,0:0:0:0:
256,192,47245,1,0,0:0:0:0:
312,192,47295,1,0,0:0:0:0:
199,192,47295,1,0,0:0:0:0:
256,192,47369,1,0,0:0:0:0:
199,192,47443,1,0,0:0:0:0:
312,192,47443,1,0,0:0:0:0:
369,192,47517,1,0,0:0:0:0:
426,192,47592,1,0,0:0:0:0:
142,192,47592,1,0,0:0:0:0:
483,192,47666,1,0,0:0:0:0:
426,192,47740,1,0,0:0:0:0:
199,192,47740,1,0,0:0:0:0:
369,192,47814,1,0,0:0:0:0:
312,192,47889,1,0,0:0:0:0:
142,192,47889,1,0,0:0:0:0:
256,192,47963,1,0,0:0:0:0:
199,192,48037,1,0,0:0:0:0:
312,192,48037,1,0,0:0:0:0:
28,192,48334,1,0,0:0:0:0:
142,192,48334,1,0,0:0:0:0:
256,192,48334,1,0,0:0:0:0:
369,192,48334,1,0,0:0:0:0:
142,192,48631,1,0,0:0:0:0:
256,192,48631,1,0,0:0:0:0:
312,192,48631,1,0,0:0:0:0:
426,192,48631,1,0,0:0:0:0:
28,192,48928,1,0,0:0:0:0:
85,192,48928,1,0,0:0:0:0:
256,192,48928,1,0,0:0:0:0:
312,192,48928,1,0,0:0:0:0:
142,192,49225,1,0,0:0:0:0:
199,192,49225,1,0,0:0:0:0:
256,192,49225,1,0,0:0:0:0:
369,192,49225,1,0,0:0:0:0:
256,192,49522,1,0,0:0:0:0:
312,192,49522,1,0,0:0:0:0:
426,192,49522,1,0,0:0:0:0:
483,192,49522,1,0,0:0:0:0:
369,192,49819,1,0,0:0:0:0:
312,192,49819,1,0,0:0:0:0:
85,192,49819,1,0,0:0:0:0:
28,192,49819,1,0,0:0:0:0:
85,192,50116,1,0,0:0:0:0:
199,192,50116,1,0,0:0:0:0:
256,192,50116,1,0,0:0:0:0:
312,192,50116,1,0,0:0:0:0:
199,192,50413,1,0,0:0:0:0:
312,192,50413,1,0,0:0:0:0:
369,192,50413,1,0,0:0:0:0:
426,192,50413,1,0,0:0:0:0:
28,192,50711,1,0,0:0:0:0:
85,192,50711,1,0,0:0:0:0:
142,192,50711,1,0,0:0:0:0:
256,192,50711,1,0,0:0:0:0:
142,192,51008,1,0,0:0:0:0:
199,192,51008,1,0,0:0:0:0:
256,192,51008,1,0,0:0:0:0:
312,192,51008,1,0,0:0:0:0:
256,192,51305,1,0,0:0:0:0:
369,192,51305,1,0,0:0:0:0:
426,192,51305,1,0,0:0:0:0:
483,192,51305,1,0,0:0:0:0:
256,192,51602,1,0,0:0:0:0:
199,192,51602,1,0,0:0:0:0:
312,192,51602,1,0,0:0:0:0:
426,192,51602,1,0,0:0:0:0:
85,192,51899,1,0,0:0:0:0:
142,192,51899,1,0,0:0:0:0:
199,192,51899,1,0,0:0:0:0:
256,192,51899,1,0,0:0:0:0:
85,192,52196,1,0,0:0:0:0:
199,192,52196,1,0,0:0:0:0:
312,192,52196,1,0,0:0:0:0:
369,192,52196,1,0,0:0:0:0:
426,192,52196,1,0,0:0:0:0:
142,192,52295,1,0,0:0:0:0:
369,192,52394,1,0,0:0:0:0:
199,192,52493,1,0,0:0:0:0:
312,192,52592,1,0,0:0:0:0:
426,192,52691,1,0,0:0:0:0:
85,192,52790,1,0,0:0:0:0:
199,192,52790,1,0,0:0:0:0:
312,192,52790,1,0,0:0:0:0:
256,192,52889,1,0,0:0:0:0:
142,192,52889,1,0,0:0:0:0:
28,192,52889,1,0,0:0:0:0:
85,192,52988,1,0,0:0:0:0:
199,192,52988,1,0,0:0:0:0:
312,192,52988,1,0,0:0:0:0:
142,192,53087,1,0,0:0:0:0:
256,192,53087,1,0,0:0:0:0:
369,192,53087,1,0,0:0:0:0:
312,192,53186,1,0,0:0:0:0:
85,192,53186,1,0,0:0:0:0:
142,192,53285,1,0,0:0:0:0:
369,192,53285,1,0,0:0:0:0:
199,192,53384,1,0,0:0:0:0:
426,192,53384,1,0,0:0:0:0:
142,192,53483,1,0,0:0:0:0:
369,192,53483,1,0,0:0:0:0:
199,192,53582,1,0,0:0:0:0:
426,192,53582,1,0,0:0:0:0:
256,192,53681,1,0,0:0:0:0:
483,192,53681,1,0,0:0:0:0:
199,192,53780,1,0,0:0:0:0:
426,192,53780,1,0,0:0:0:0:
256,192,53879,1,0,0:0:0:0:
369,192,53879,1,0,0:0:0:0:
199,192,53978,1,0,0:0:0:0:
426,192,53978,1,0,0:0:0:0:
369,192,54077,1,0,0:0:0:0:
142,192,54077,1,0,0:0:0:0:
426,192,54176,1,0,0:0:0:0:
199,192,54176,1,0,0:0:0:0:
483,192,54275,1,0,0:0:0:0:
256,192,54275,1,0,0:0:0:0:
426,192,54374,1,0,0:0:0:0:
199,192,54374,1,0,0:0:0:0:
483,192,54473,1,0,0:0:0:0:
256,192,54473,1,0,0:0:0:0:
426,192,54572,1,0,0:0:0:0:
199,192,54572,1,0,0:0:0:0:
369,192,54671,1,0,0:0:0:0:
142,192,54671,1,0,0:0:0:0:
426,192,54770,1,0,0:0:0:0:
199,192,54770,1,0,0:0:0:0:
483,192,54869,1,0,0:0:0:0:
256,192,54869,1,0,0:0:0:0:
426,192,54968,1,0,0:0:0:0:
199,192,54968,1,0,0:0:0:0:
483,192,55067,1,0,0:0:0:0:
256,192,55067,1,0,0:0:0:0:
426,192,55166,1,0,0:0:0:0:
199,192,55166,1,0,0:0:0:0:
142,192,55265,1,0,0:0:0:0:
369,192,55265,1,0,0:0:0:0:
199,192,55364,1,0,0:0:0:0:
426,192,55364,1,0,0:0:0:0:
142,192,55463,1,0,0:0:0:0:
369,192,55463,1,0,0:0:0:0:
85,192,55562,1,0,0:0:0:0:
312,192,55562,1,0,0:0:0:0:
142,192,55661,1,0,0:0:0:0:
369,192,55661,1,0,0:0:0:0:
199,192,55760,1,0,0:0:0:0:
426,192,55760,1,0,0:0:0:0:
142,192,55859,1,0,0:0:0:0:
369,192,55859,1,0,0:0:0:0:
256,192,55958,1,0,0:0:0:0:
483,192,55958,1,0,0:0:0:0:
199,192,56057,1,0,0:0:0:0:
426,192,56057,1,0,0:0:0:0:
142,192,56156,1,0,0:0:0:0:
369,192,56156,1,0,0:0:0:0:
199,192,56255,1,0,0:0:0:0:
426,192,56255,1,0,0:0:0:0:
369,192,56354,1,0,0:0:0:0:
142,192,56354,1,0,0:0:0:0:
85,192,56453,1,0,0:0:0:0:
312,192,56453,1,0,0:0:0:0:
28,192,56552,1,0,0:0:0:0:
369,192,56552,1,0,0:0:0:0:
85,192,56651,1,0,0:0:0:0:
426,192,56651,1,0,0:0:0:0:
28,192,56750,1,0,0:0:0:0:
369,192,56750,1,0,0:0:0:0:
85,192,56849,1,0,0:0:0:0:
426,192,56849,1,0,0:0:0:0:
142,192,56948,1,0,0:0:0:0:
483,192,56948,1,0,0:0:0:0:
199,192,57047,1,0,0:0:0:0:
312,192,57047,1,0,0:0:0:0:
426,192,57047,1,0,0:0:0:0:
256,192,57146,1,0,0:0:0:0:
369,192,57146,1,0,0:0:0:0:
483,192,57146,1,0,0:0:0:0:
426,192,57245,1,0,0:0:0:0:
312,192,57245,1,0,0:0:0:0:
199,192,57245,1,0,0:0:0:0:
256,192,57344,1,0,0:0:0:0:
142,192,57344,1,0,0:0:0:0:
85,192,57443,1,0,0:0:0:0:
312,192,57443,1,0,0:0:0:0:
142,192,57542,1,0,0:0:0:0:
256,192,57641,1,0,0:0:0:0:
369,192,57740,1,0,0:0:0:0:
85,192,57839,1,0,0:0:0:0:
199,192,57938,1,0,0:0:0:0:
312,192,58037,1,0,0:0:0:0:
426,192,58136,1,0,0:0:0:0:
28,192,58235,1,0,0:0:0:0:
256,192,58334,1,0,0:0:0:0:
85,192,58433,1,0,0:0:0:0:
199,192,58532,1,0,0:0:0:0:
312,192,58631,1,0,0:0:0:0:
142,192,58730,1,0,0:0:0:0:
256,192,58829,1,0,0:0:0:0:
369,192,58928,1,0,0:0:0:0:
85,192,59027,1,0,0:0:0:0:
199,192,59126,1,0,0:0:0:0:
312,192,59225,1,0,0:0:0:0:
426,192,59324,1,0,0:0:0:0:
256,192,59423,1,0,0:0:0:0:
369,192,59522,1,0,0:0:0:0:
85,192,59621,1,0,0:0:0:0:
199,192,59720,1,0,0:0:0:0:
312,192,59819,1,0,0:0:0:0:
28,192,59918,128,0,61107:0:0:0:0:
426,192,59918,128,0,60290:0:0:0:0:
312,192,60364,128,0,60735:0:0:0:0:
369,192,60810,128,0,62220:0:0:0:0:
85,192,61255,1,0,0:0:0:0:
142,192,61329,1,0,0:0:0:0:
199,192,61404,1,0,0:0:0:0:
256,192,61552,1,0,0:0:0:0:
312,192,61701,1,0,0:0:0:0:
256,192,61849,1,0,0:0:0:0:
199,192,61998,1,0,0:0:0:0:
142,192,62146,1,0,0:0:0:0:
85,192,62295,128,0,63483:0:0:0:0:
483,192,62295,128,0,62666:0:0:0:0:
312,192,62740,128,0,63112:0:0:0:0:
426,192,63186,128,0,64597:0:0:0:0:
142,192,63631,1,0,0:0:0:0:
199,192,63706,1,0,0:0:0:0:
256,192,63780,1,0,0:0:0:0:
312,192,63928,1,0,0:0:0:0:
369,192,64077,1,0,0:0:0:0:
312,192,64225,1,0,0:0:0:0:
256,192,64374,1,0,0:0:0:0:
199,192,64522,1,0,0:0:0:0:
483,192,64671,128,0,65042:0:0:0:0:
142,192,64671,128,0,65859:0:0:0:0:
256,192,65116,128,0,65488:0:0:0:0:
426,192,65562,128,0,65933:0:0:0:0:
369,192,66008,128,0,66379:0:0:0:0:
28,192,66008,1,0,0:0:0:0:
85,192,66082,1,0,0:0:0:0:
142,192,66156,1,0,0:0:0:0:
199,192,66305,1,0,0:0:0:0:
312,192,66453,128,0,66676:0:0:0:0:
256,192,66453,1,0,0:0:0:0:
199,192,66602,1,0,0:0:0:0:
256,192,66750,128,0,66973:0:0:0:0:
142,192,66750,1,0,0:0:0:0:
85,192,66899,1,0,0:0:0:0:
28,192,67047,1,0,0:0:0:0:
483,192,67047,1,0,0:0:0:0:
28,192,67344,1,0,0:0:0:0:
312,192,67344,1,0,0:0:0:0:
483,192,67641,1,0,0:0:0:0:
199,192,67641,1,0,0:0:0:0:
369,192,68087,1,0,0:0:0:0:
426,192,68161,1,0,0:0:0:0:
483,192,68235,1,0,0:0:0:0:
426,192,68334,1,0,0:0:0:0:
369,192,68433,1,0,0:0:0:0:
312,192,68532,1,0,0:0:0:0:
426,192,68532,1,0,0:0:0:0:
256,192,68631,1,0,0:0:0:0:
369,192,68631,1,0,0:0:0:0:
199,192,68730,1,0,0:0:0:0:
312,192,68730,1,0,0:0:0:0:
142,192,68829,1,0,0:0:0:0:
256,192,68829,1,0,0:0:0:0:
199,192,68928,1,0,0:0:0:0:
312,192,68928,1,0,0:0:0:0:
256,192,69027,1,0,0:0:0:0:
142,192,69027,1,0,0:0:0:0:
199,192,69126,1,0,0:0:0:0:
312,192,69126,1,0,0:0:0:0:
142,192,69225,1,0,0:0:0:0:
256,192,69225,1,0,0:0:0:0:
85,192,69324,1,0,0:0:0:0:
199,192,69324,1,0,0:0:0:0:
256,192,69423,1,0,0:0:0:0:
369,192,69423,1,0,0:0:0:0:
312,192,69572,1,0,0:0:0:0:
28,192,69572,1,0,0:0:0:0:
142,192,69646,1,0,0:0:0:0:
142,192,69795,1,0,0:0:0:0:
28,192,69869,1,0,0:0:0:0:
256,192,69869,1,0,0:0:0:0:
256,192,70017,1,0,0:0:0:0:
142,192,70092,1,0,0:0:0:0:
28,192,70166,1,0,0:0:0:0:
142,192,70240,1,0,0:0:0:0:
312,192,70314,1,0,0:0:0:0:
312,192,70463,1,0,0:0:0:0:
28,192,70463,1,0,0:0:0:0:
142,192,70537,1,0,0:0:0:0:
199,192,70686,1,0,0:0:0:0:
142,192,70760,1,0,0:0:0:0:
256,192,70760,1,0,0:0:0:0:
199,192,70834,1,0,0:0:0:0:
312,192,70834,1,0,0:0:0:0:
256,192,70909,1,0,0:0:0:0:
85,192,70909,1,0,0:0:0:0:
312,192,71057,1,0,0:0:0:0:
142,192,71131,1,0,0:0:0:0:
256,192,71206,1,0,0:0:0:0:
369,192,71206,1,0,0:0:0:0:
312,192,71354,1,0,0:0:0:0:
142,192,71354,1,0,0:0:0:0:
256,192,71428,1,0,0:0:0:0:
85,192,71503,1,0,0:0:0:0:
369,192,71503,1,0,0:0:0:0:
312,192,71651,1,0,0:0:0:0:
426,192,71651,1,0,0:0:0:0:
142,192,71725,1,0,0:0:0:0:
369,192,71800,1,0,0:0:0:0:
369,192,71948,1,0,0:0:0:0:
85,192,71948,1,0,0:0:0:0:
199,192,72022,1,0,0:0:0:0:
199,192,72171,1,0,0:0:0:0:
85,192,72245,1,0,0:0:0:0:
256,192,72245,1,0,0:0:0:0:
256,192,72394,1,0,0:0:0:0:
199,192,72468,1,0,0:0:0:0:
85,192,72542,1,0,0:0:0:0:
199,192,72616,1,0,0:0:0:0:
312,192,72691,1,0,0:0:0:0:
312,192,72839,1,0,0:0:0:0:
85,192,72839,1,0,0:0:0:0:
199,192,72913,1,0,0:0:0:0:
199,192,73062,1,0,0:0:0:0:
142,192,73136,1,0,0:0:0:0:
256,192,73136,1,0,0:0:0:0:
199,192,73211,1,0,0:0:0:0:
312,192,73211,1,0,0:0:0:0:
256,192,73285,1,0,0:0:0:0:
369,192,73285,1,0,0:0:0:0:
312,192,73433,1,0,0:0:0:0:
142,192,73508,1,0,0:0:0:0:
256,192,73582,1,0,0:0:0:0:
369,192,73582,1,0,0:0:0:0:
142,192,73730,1,0,0:0:0:0:
312,192,73730,1,0,0:0:0:0:
199,192,73805,1,0,0:0:0:0:
256,192,73879,1,0,0:0:0:0:
369,192,73879,1,0,0:0:0:0:
199,192,74027,1,0,0:0:0:0:
426,192,74027,1,0,0:0:0:0:
312,192,74102,1,0,0:0:0:0:
256,192,74176,1,0,0:0:0:0:
369,192,74176,1,0,0:0:0:0:
312,192,74324,1,0,0:0:0:0:
199,192,74399,1,0,0:0:0:0:
256,192,74473,1,0,0:0:0:0:
312,192,74547,1,0,0:0:0:0:
426,192,74621,1,0,0:0:0:0:
256,192,74770,1,0,0:0:0:0:
369,192,74770,1,0,0:0:0:0:
199,192,74844,1,0,0:0:0:0:
426,192,74844,1,0,0:0:0:0:
312,192,74918,1,0,0:0:0:0:
483,192,74993,1,0,0:0:0:0:
256,192,75067,1,0,0:0:0:0:
369,192,75067,1,0,0:0:0:0:
426,192,75141,1,0,0:0:0:0:
256,192,75215,1,0,0:0:0:0:
312,192,75215,1,0,0:0:0:0:
199,192,75290,1,0,0:0:0:0:
426,192,75290,1,0,0:0:0:0:
142,192,75364,1,0,0:0:0:0:
369,192,75364,1,0,0:0:0:0:
312,192,75513,1,0,0:0:0:0:
426,192,75513,1,0,0:0:0:0:
483,192,75587,1,0,0:0:0:0:
199,192,75587,1,0,0:0:0:0:
256,192,75661,1,0,0:0:0:0:
369,192,75661,1,0,0:0:0:0:
312,192,75810,1,0,0:0:0:0:
426,192,75810,1,0,0:0:0:0:
256,192,75884,1,0,0:0:0:0:
199,192,75958,1,0,0:0:0:0:
369,192,75958,1,0,0:0:0:0:
199,192,76107,1,0,0:0:0:0:
312,192,76107,1,0,0:0:0:0:
142,192,76181,1,0,0:0:0:0:
256,192,76255,1,0,0:0:0:0:
369,192,76255,1,0,0:0:0:0:
426,192,76404,1,0,0:0:0:0:
28,192,76552,1,0,0:0:0:0:
483,192,76552,1,0,0:0:0:0:
28,192,76701,1,0,0:0:0:0:
483,192,76701,1,0,0:0:0:0:
142,192,76775,1,0,0:0:0:0:
369,192,76775,1,0,0:0:0:0:
28,192,76849,1,0,0:0:0:0:
483,192,76849,1,0,0:0:0:0:
142,192,76923,1,0,0:0:0:0:
28,192,76998,1,0,0:0:0:0:
483,192,76998,1,0,0:0:0:0:
142,192,77072,1,0,0:0:0:0:
369,192,77072,1,0,0:0:0:0:
28,192,77146,1,0,0:0:0:0:
483,192,77146,1,0,0:0:0:0:
142,192,77295,1,0,0:0:0:0:
199,192,77369,1,0,0:0:0:0:
256,192,77443,1,0,0:0:0:0:
312,192,77517,1,0,0:0:0:0:
369,192,77592,1,0,0:0:0:0:
426,192,77666,1,0,0:0:0:0:
483,192,77740,1,0,0:0:0:0:
28,192,77740,1,0,0:0:0:0:
483,192,77889,1,0,0:0:0:0:
28,192,77889,1,0,0:0:0:0:
142,192,77963,1,0,0:0:0:0:
369,192,77963,1,0,0:0:0:0:
483,192,78037,1,0,0:0:0:0:
28,192,78037,1,0,0:0:0:0:
142,192,78112,1,0,0:0:0:0:
483,192,78186,1,0,0:0:0:0:
28,192,78186,1,0,0:0:0:0:
142,192,78260,1,0,0:0:0:0:
369,192,78260,1,0,0:0:0:0:
483,192,78334,1,0,0:0:0:0:
28,192,78334,1,0,0:0:0:0:
142,192,78483,1,0,0:0:0:0:
199,192,78557,1,0,0:0:0:0:
256,192,78631,1,0,0:0:0:0:
312,192,78706,1,0,0:0:0:0:
369,192,78780,1,0,0:0:0:0:
426,192,78854,1,0,0:0:0:0:
483,192,78928,1,0,0:0:0:0:
85,192,78928,1,0,0:0:0:0:
85,192,79077,1,0,0:0:0:0:
369,192,79077,1,0,0:0:0:0:
199,192,79151,1,0,0:0:0:0:
256,192,79151,1,0,0:0:0:0:
85,192,79225,1,0,0:0:0:0:
369,192,79225,1,0,0:0:0:0:
199,192,79300,1,0,0:0:0:0:
369,192,79374,1,0,0:0:0:0:
85,192,79374,1,0,0:0:0:0:
256,192,79448,1,0,0:0:0:0:
199,192,79448,1,0,0:0:0:0:
85,192,79522,1,0,0:0:0:0:
369,192,79522,1,0,0:0:0:0:
142,192,79671,1,0,0:0:0:0:
199,192,79745,1,0,0:0:0:0:
256,192,79819,1,0,0:0:0:0:
312,192,79894,1,0,0:0:0:0:
369,192,79968,1,0,0:0:0:0:
426,192,80042,1,0,0:0:0:0:
483,192,80116,1,0,0:0:0:0:
85,192,80116,1,0,0:0:0:0:
85,192,80265,1,0,0:0:0:0:
369,192,80265,1,0,0:0:0:0:
199,192,80339,1,0,0:0:0:0:
256,192,80339,1,0,0:0:0:0:
85,192,80413,1,0,0:0:0:0:
369,192,80413,1,0,0:0:0:0:
199,192,80488,1,0,0:0:0:0:
85,192,80562,1,0,0:0:0:0:
369,192,80562,1,0,0:0:0:0:
199,192,80636,1,0,0:0:0:0:
256,192,80636,1,0,0:0:0:0:
85,192,80711,1,0,0:0:0:0:
369,192,80711,1,0,0:0:0:0:
142,192,80859,1,0,0:0:0:0:
199,192,80933,1,0,0:0:0:0:
256,192,81008,1,0,0:0:0:0:
312,192,81082,1,0,0:0:0:0:
369,192,81156,1,0,0:0:0:0:
426,192,81230,1,0,0:0:0:0:
483,192,81305,1,0,0:0:0:0:
142,192,81379,1,0,0:0:0:0:
369,192,81453,1,0,0:0:0:0:
142,192,81527,1,0,0:0:0:0:
369,192,81602,1,0,0:0:0:0:
142,192,81676,1,0,0:0:0:0:
369,192,81750,1,0,0:0:0:0:
142,192,81824,1,0,0:0:0:0:
199,192,81899,1,0,0:0:0:0:
312,192,81973,1,0,0:0:0:0:
426,192,82047,1,0,0:0:0:0:
369,192,82121,1,0,0:0:0:0:
142,192,82196,1,0,0:0:0:0:
199,192,82270,1,0,0:0:0:0:
256,192,82344,1,0,0:0:0:0:
312,192,82418,1,0,0:0:0:0:
369,192,82493,1,0,0:0:0:0:
483,192,82567,1,0,0:0:0:0:
369,192,82641,1,0,0:0:0:0:
142,192,82715,1,0,0:0:0:0:
369,192,82790,1,0,0:0:0:0:
142,192,82864,1,0,0:0:0:0:
369,192,82938,1,0,0:0:0:0:
142,192,83013,1,0,0:0:0:0:
426,192,83087,1,0,0:0:0:0:
199,192,83161,1,0,0:0:0:0:
312,192,83235,1,0,0:0:0:0:
85,192,83310,1,0,0:0:0:0:
369,192,83384,1,0,0:0:0:0:
199,192,83458,1,0,0:0:0:0:
312,192,83532,1,0,0:0:0:0:
142,192,83607,1,0,0:0:0:0:
369,192,83681,1,0,0:0:0:0:
256,192,83755,1,0,0:0:0:0:
28,192,83829,1,0,0:0:0:0:
142,192,83904,1,0,0:0:0:0:
256,192,83978,1,0,0:0:0:0:
85,192,84052,1,0,0:0:0:0:
199,192,84126,1,0,0:0:0:0:
312,192,84201,1,0,0:0:0:0:
199,192,84275,1,0,0:0:0:0:
369,192,84349,1,0,0:0:0:0:
483,192,84423,1,0,0:0:0:0:
369,192,84498,1,0,0:0:0:0:
256,192,84572,1,0,0:0:0:0:
426,192,84646,1,0,0:0:0:0:
199,192,84720,1,0,0:0:0:0:
312,192,84795,1,0,0:0:0:0:
142,192,84869,1,0,0:0:0:0:
199,192,84943,1,0,0:0:0:0:
312,192,85017,1,0,0:0:0:0:
426,192,85092,1,0,0:0:0:0:
312,192,85166,1,0,0:0:0:0:
199,192,85240,1,0,0:0:0:0:
369,192,85314,1,0,0:0:0:0:
256,192,85389,1,0,0:0:0:0:
142,192,85463,1,0,0:0:0:0:
483,192,85612,1,0,0:0:0:0:
28,192,85760,1,0,0:0:0:0:
28,192,86057,1,0,0:0:0:0:
483,192,86057,1,0,0:0:0:0:
369,192,86206,1,0,0:0:0:0:
426,192,86280,1,0,0:0:0:0:
28,192,86354,1,0,0:0:0:0:
312,192,86354,1,0,0:0:0:0:
199,192,86428,1,0,0:0:0:0:
369,192,86503,1,0,0:0:0:0:
256,192,86577,1,0,0:0:0:0:
28,192,86651,1,0,0:0:0:0:
142,192,86651,1,0,0:0:0:0:
199,192,86800,1,0,0:0:0:0:
256,192,86874,1,0,0:0:0:0:
28,192,86948,1,0,0:0:0:0:
312,192,86948,1,0,0:0:0:0:
369,192,87022,1,0,0:0:0:0:
426,192,87097,1,0,0:0:0:0:
483,192,87171,1,0,0:0:0:0:
142,192,87245,1,0,0:0:0:0:
312,192,87245,1,0,0:0:0:0:
369,192,87394,1,0,0:0:0:0:
426,192,87468,1,0,0:0:0:0:
142,192,87542,1,0,0:0:0:0:
483,192,87542,1,0,0:0:0:0:
426,192,87616,1,0,0:0:0:0:
369,192,87691,1,0,0:0:0:0:
312,192,87765,1,0,0:0:0:0:
142,192,87839,1,0,0:0:0:0:
256,192,87839,1,0,0:0:0:0:
142,192,88136,1,0,0:0:0:0:
28,192,88136,1,0,0:0:0:0:
28,192,88285,1,0,0:0:0:0:
256,192,88285,1,0,0:0:0:0:
28,192,88433,1,0,0:0:0:0:
312,192,88433,1,0,0:0:0:0:
142,192,88582,1,0,0:0:0:0:
199,192,88656,1,0,0:0:0:0:
28,192,88730,1,0,0:0:0:0:
256,192,88730,1,0,0:0:0:0:
312,192,88805,1,0,0:0:0:0:
369,192,88879,1,0,0:0:0:0:
426,192,88953,1,0,0:0:0:0:
483,192,89027,1,0,0:0:0:0:
142,192,89027,1,0,0:0:0:0:
426,192,89176,1,0,0:0:0:0:
483,192,89250,1,0,0:0:0:0:
142,192,89324,1,0,0:0:0:0:
426,192,89324,1,0,0:0:0:0:
369,192,89399,1,0,0:0:0:0:
312,192,89473,1,0,0:0:0:0:
256,192,89547,1,0,0:0:0:0:
199,192,89621,1,0,0:0:0:0:
483,192,89621,1,0,0:0:0:0:
369,192,89696,1,0,0:0:0:0:
256,192,89770,1,0,0:0:0:0:
142,192,89844,1,0,0:0:0:0:
199,192,89918,1,0,0:0:0:0:
426,192,89918,1,0,0:0:0:0:
312,192,89993,1,0,0:0:0:0:
199,192,90067,1,0,0:0:0:0:
85,192,90141,1,0,0:0:0:0:
142,192,90215,1,0,0:0:0:0:
369,192,90215,1,0,0:0:0:0:
256,192,90290,1,0,0:0:0:0:
142,192,90364,1,0,0:0:0:0:
28,192,90438,1,0,0:0:0:0:
85,192,90513,1,0,0:0:0:0:
312,192,90513,1,0,0:0:0:0:
199,192,90587,1,0,0:0:0:0:
85,192,90661,1,0,0:0:0:0:
199,192,90735,1,0,0:0:0:0:
28,192,90810,1,0,0:0:0:0:
142,192,90810,1,0,0:0:0:0:
256,192,90810,1,0,0:0:0:0:
142,192,90958,1,0,0:0:0:0:
199,192,91032,1,0,0:0:0:0:
28,192,91107,1,0,0:0:0:0:
256,192,91107,1,0,0:0:0:0:
312,192,91181,1,0,0:0:0:0:
369,192,91255,1,0,0:0:0:0:
426,192,91329,1,0,0:0:0:0:
28,192,91404,1,0,0:0:0:0:
369,192,91404,1,0,0:0:0:0:
256,192,91404,1,0,0:0:0:0:
142,192,91552,1,0,0:0:0:0:
199,192,91626,1,0,0:0:0:0:
28,192,91701,1,0,0:0:0:0:
256,192,91701,1,0,0:0:0:0:
312,192,91775,1,0,0:0:0:0:
369,192,91849,1,0,0:0:0:0:
426,192,91923,1,0,0:0:0:0:
142,192,91998,1,0,0:0:0:0:
369,192,91998,1,0,0:0:0:0:
256,192,91998,1,0,0:0:0:0:
199,192,92146,1,0,0:0:0:0:
483,192,92220,1,0,0:0:0:0:
142,192,92295,1,0,0:0:0:0:
256,192,92295,1,0,0:0:0:0:
369,192,92295,1,0,0:0:0:0:
426,192,92369,1,0,0:0:0:0:
312,192,92443,1,0,0:0:0:0:
199,192,92517,1,0,0:0:0:0:
142,192,92592,1,0,0:0:0:0:
369,192,92592,1,0,0:0:0:0:
256,192,92592,1,0,0:0:0:0:
369,192,92740,1,0,0:0:0:0:
312,192,92814,1,0,0:0:0:0:
256,192,92889,1,0,0:0:0:0:
199,192,92963,1,0,0:0:0:0:
142,192,93037,1,0,0:0:0:0:
85,192,93112,1,0,0:0:0:0:
28,192,93186,1,0,0:0:0:0:
256,192,93186,1,0,0:0:0:0:
142,192,93260,1,0,0:0:0:0:
312,192,93334,1,0,0:0:0:0:
369,192,93409,1,0,0:0:0:0:
142,192,93483,1,0,0:0:0:0:
256,192,93483,1,0,0:0:0:0:
369,192,93557,1,0,0:0:0:0:
312,192,93631,1,0,0:0:0:0:
426,192,93631,1,0,0:0:0:0:
256,192,93780,1,0,0:0:0:0:
369,192,93780,1,0,0:0:0:0:
483,192,93780,1,0,0:0:0:0:
199,192,94077,1,0,0:0:0:0:
312,192,94077,1,0,0:0:0:0:
426,192,94077,1,0,0:0:0:0:
312,192,94374,1,0,0:0:0:0:
369,192,94374,1,0,0:0:0:0:
199,192,94448,1,0,0:0:0:0:
142,192,94448,1,0,0:0:0:0:
369,192,94522,1,0,0:0:0:0:
312,192,94522,1,0,0:0:0:0:
142,192,94597,1,0,0:0:0:0:
199,192,94597,1,0,0:0:0:0:
312,192,94671,1,0,0:0:0:0:
369,192,94671,1,0,0:0:0:0:
199,192,94745,1,0,0:0:0:0:
142,192,94745,1,0,0:0:0:0:
369,192,94819,1,0,0:0:0:0:
312,192,94819,1,0,0:0:0:0:
142,192,94894,1,0,0:0:0:0:
199,192,94894,1,0,0:0:0:0:
312,192,94968,1,0,0:0:0:0:
369,192,94968,1,0,0:0:0:0:
85,192,94968,128,0,95488:0:0:0:0:
426,192,95265,128,0,95488:0:0:0:0:
28,192,95562,1,0,0:0:0:0:
483,192,95562,1,0,0:0:0:0:
483,192,95711,1,0,0:0:0:0:
426,192,95785,1,0,0:0:0:0:
369,192,95859,1,0,0:0:0:0:
142,192,95859,128,0,96082:0:0:0:0:
483,192,95933,1,0,0:0:0:0:
426,192,96008,1,0,0:0:0:0:
369,192,96082,1,0,0:0:0:0:
312,192,96156,1,0,0:0:0:0:
28,192,96156,1,0,0:0:0:0:
85,192,96305,1,0,0:0:0:0:
142,192,96379,1,0,0:0:0:0:
199,192,96453,1,0,0:0:0:0:
369,192,96453,128,0,96676:0:0:0:0:
85,192,96527,1,0,0:0:0:0:
142,192,96602,1,0,0:0:0:0:
199,192,96676,1,0,0:0:0:0:
256,192,96750,1,0,0:0:0:0:
483,192,96750,1,0,0:0:0:0:
199,192,96899,1,0,0:0:0:0:
312,192,96899,1,0,0:0:0:0:
256,192,96973,1,0,0:0:0:0:
369,192,96973,1,0,0:0:0:0:
312,192,97047,1,0,0:0:0:0:
426,192,97047,1,0,0:0:0:0:
369,192,97121,1,0,0:0:0:0:
256,192,97121,1,0,0:0:0:0:
312,192,97196,1,0,0:0:0:0:
199,192,97196,1,0,0:0:0:0:
256,192,97270,1,0,0:0:0:0:
142,192,97270,1,0,0:0:0:0:
28,192,97344,1,0,0:0:0:0:
369,192,97344,1,0,0:0:0:0:
28,192,97641,1,0,0:0:0:0:
142,192,97641,1,0,0:0:0:0:
256,192,97641,1,0,0:0:0:0:
312,192,97790,1,0,0:0:0:0:
369,192,97938,1,0,0:0:0:0:
142,192,98087,1,0,0:0:0:0:
199,192,98161,1,0,0:0:0:0:
256,192,98235,1,0,0:0:0:0:
28,192,98235,1,0,0:0:0:0:
312,192,98310,1,0,0:0:0:0:
369,192,98384,1,0,0:0:0:0:
426,192,98458,1,0,0:0:0:0:
483,192,98532,1,0,0:0:0:0:
142,192,98532,1,0,0:0:0:0:
426,192,98681,1,0,0:0:0:0:
483,192,98755,1,0,0:0:0:0:
142,192,98829,1,0,0:0:0:0:
426,192,98829,1,0,0:0:0:0:
369,192,98904,1,0,0:0:0:0:
312,192,98978,1,0,0:0:0:0:
256,192,99052,1,0,0:0:0:0:
142,192,99126,1,0,0:0:0:0:
483,192,99126,1,0,0:0:0:0:
369,192,99201,1,0,0:0:0:0:
312,192,99275,1,0,0:0:0:0:
199,192,99349,1,0,0:0:0:0:
85,192,99423,1,0,0:0:0:0:
426,192,99423,1,0,0:0:0:0:
312,192,99498,1,0,0:0:0:0:
256,192,99572,1,0,0:0:0:0:
142,192,99646,1,0,0:0:0:0:
28,192,99720,1,0,0:0:0:0:
369,192,99720,1,0,0:0:0:0:
256,192,99795,1,0,0:0:0:0:
199,192,99869,1,0,0:0:0:0:
85,192,99943,1,0,0:0:0:0:
28,192,100017,1,0,0:0:0:0:
312,192,100017,1,0,0:0:0:0:
199,192,100092,1,0,0:0:0:0:
142,192,100166,1,0,0:0:0:0:
28,192,100240,1,0,0:0:0:0:
256,192,100314,1,0,0:0:0:0:
312,192,100389,1,0,0:0:0:0:
256,192,100463,1,0,0:0:0:0:
85,192,100463,1,0,0:0:0:0:
199,192,100537,1,0,0:0:0:0:
256,192,100612,1,0,0:0:0:0:
312,192,100686,1,0,0:0:0:0:
256,192,100760,1,0,0:0:0:0:
85,192,100760,1,0,0:0:0:0:
199,192,100834,1,0,0:0:0:0:
142,192,100909,1,0,0:0:0:0:
199,192,100983,1,0,0:0:0:0:
85,192,101057,1,0,0:0:0:0:
142,192,101057,1,0,0:0:0:0:
312,192,101131,1,0,0:0:0:0:
426,192,101206,1,0,0:0:0:0:
312,192,101280,1,0,0:0:0:0:
85,192,101354,1,0,0:0:0:0:
142,192,101354,1,0,0:0:0:0:
256,192,101428,1,0,0:0:0:0:
142,192,101503,1,0,0:0:0:0:
369,192,101503,1,0,0:0:0:0:
312,192,101577,1,0,0:0:0:0:
85,192,101651,1,0,0:0:0:0:
256,192,101651,1,0,0:0:0:0:
199,192,101725,1,0,0:0:0:0:
256,192,101800,1,0,0:0:0:0:
142,192,101800,1,0,0:0:0:0:
312,192,101874,1,0,0:0:0:0:
85,192,101948,1,0,0:0:0:0:
369,192,101948,1,0,0:0:0:0:
426,192,102022,1,0,0:0:0:0:
483,192,102097,1,0,0:0:0:0:
142,192,102097,1,0,0:0:0:0:
199,192,102171,1,0,0:0:0:0:
85,192,102245,1,0,0:0:0:0:
483,192,102245,1,0,0:0:0:0:
426,192,102319,1,0,0:0:0:0:
369,192,102394,1,0,0:0:0:0:
312,192,102468,1,0,0:0:0:0:
85,192,102542,1,0,0:0:0:0:
256,192,102542,1,0,0:0:0:0:
199,192,102616,1,0,0:0:0:0:
28,192,102691,1,0,0:0:0:0:
142,192,102765,1,0,0:0:0:0:
85,192,102839,1,0,0:0:0:0:
199,192,102839,1,0,0:0:0:0:
256,192,102913,1,0,0:0:0:0:
199,192,102988,1,0,0:0:0:0:
256,192,103062,1,0,0:0:0:0:
85,192,103136,1,0,0:0:0:0:
312,192,103136,1,0,0:0:0:0:
199,192,103211,1,0,0:0:0:0:
426,192,103285,1,0,0:0:0:0:
199,192,103359,1,0,0:0:0:0:
85,192,103433,1,0,0:0:0:0:
426,192,103433,1,0,0:0:0:0:
483,192,103508,1,0,0:0:0:0:
426,192,103582,1,0,0:0:0:0:
312,192,103656,1,0,0:0:0:0:
85,192,103730,1,0,0:0:0:0:
199,192,103730,1,0,0:0:0:0:
369,192,103805,1,0,0:0:0:0:
256,192,103879,1,0,0:0:0:0:
199,192,103879,1,0,0:0:0:0:
85,192,103953,1,0,0:0:0:0:
28,192,103953,1,0,0:0:0:0:
256,192,104027,1,0,0:0:0:0:
312,192,104027,1,0,0:0:0:0:
85,192,104102,1,0,0:0:0:0:
142,192,104102,1,0,0:0:0:0:
312,192,104176,1,0,0:0:0:0:
369,192,104176,1,0,0:0:0:0:
199,192,104250,1,0,0:0:0:0:
142,192,104250,1,0,0:0:0:0:
369,192,104324,1,0,0:0:0:0:
426,192,104324,1,0,0:0:0:0:
199,192,104399,1,0,0:0:0:0:
256,192,104399,1,0,0:0:0:0:
426,192,104473,1,0,0:0:0:0:
483,192,104473,1,0,0:0:0:0:
199,192,104770,1,0,0:0:0:0:
256,192,104770,1,0,0:0:0:0:
28,192,104844,1,0,0:0:0:0:
85,192,104844,1,0,0:0:0:0:
256,192,104918,1,0,0:0:0:0:
312,192,104918,1,0,0:0:0:0:
85,192,104993,1,0,0:0:0:0:
142,192,104993,1,0,0:0:0:0:
312,192,105067,1,0,0:0:0:0:
369,192,105067,1,0,0:0:0:0:
142,192,105141,1,0,0:0:0:0:
199,192,105141,1,0,0:0:0:0:
369,192,105215,1,0,0:0:0:0:
426,192,105215,1,0,0:0:0:0:
199,192,105290,1,0,0:0:0:0:
256,192,105290,1,0,0:0:0:0:
426,192,105364,1,0,0:0:0:0:
483,192,105364,1,0,0:0:0:0:
369,192,105661,1,0,0:0:0:0:
142,192,105735,1,0,0:0:0:0:
369,192,105810,1,0,0:0:0:0:
142,192,105884,1,0,0:0:0:0:
483,192,105958,1,0,0:0:0:0:
28,192,106032,1,0,0:0:0:0:
483,192,106107,1,0,0:0:0:0:
28,192,106181,1,0,0:0:0:0:
256,192,106255,1,0,0:0:0:0:
199,192,106255,1,0,0:0:0:0:
85,192,106329,1,0,0:0:0:0:
142,192,106329,1,0,0:0:0:0:
256,192,106404,1,0,0:0:0:0:
312,192,106404,1,0,0:0:0:0:
142,192,106478,1,0,0:0:0:0:
199,192,106478,1,0,0:0:0:0:
312,192,106552,1,0,0:0:0:0:
369,192,106552,1,0,0:0:0:0:
199,192,106626,1,0,0:0:0:0:
256,192,106626,1,0,0:0:0:0:
369,192,106701,1,0,0:0:0:0:
426,192,106701,1,0,0:0:0:0:
256,192,106775,1,0,0:0:0:0:
312,192,106775,1,0,0:0:0:0:
426,192,106849,1,0,0:0:0:0:
483,192,106849,1,0,0:0:0:0:
199,192,107146,1,0,0:0:0:0:
256,192,107146,1,0,0:0:0:0:
85,192,107220,1,0,0:0:0:0:
142,192,107220,1,0,0:0:0:0:
312,192,107295,1,0,0:0:0:0:
256,192,107295,1,0,0:0:0:0:
142,192,107369,1,0,0:0:0:0:
199,192,107369,1,0,0:0:0:0:
312,192,107443,1,0,0:0:0:0:
369,192,107443,1,0,0:0:0:0:
256,192,107517,1,0,0:0:0:0:
199,192,107517,1,0,0:0:0:0:
369,192,107592,1,0,0:0:0:0:
426,192,107592,1,0,0:0:0:0:
256,192,107666,1,0,0:0:0:0:
312,192,107666,1,0,0:0:0:0:
426,192,107740,1,0,0:0:0:0:
483,192,107740,1,0,0:0:0:0:
312,192,108037,1,0,0:0:0:0:
199,192,108112,1,0,0:0:0:0:
312,192,108186,1,0,0:0:0:0:
199,192,108260,1,0,0:0:0:0:
483,192,108334,1,0,0:0:0:0:
28,192,108409,1,0,0:0:0:0:
483,192,108483,1,0,0:0:0:0:
28,192,108557,1,0,0:0:0:0:
142,192,108631,1,0,0:0:0:0:
369,192,108631,1,0,0:0:0:0:
369,192,109225,1,0,0:0:0:0:
483,192,109225,1,0,0:0:0:0:
85,192,109819,1,0,0:0:0:0:
199,192,109819,1,0,0:0:0:0:
312,192,110413,1,0,0:0:0:0:
426,192,110413,1,0,0:0:0:0:
28,192,111008,1,0,0:0:0:0:
369,192,111008,1,0,0:0:0:0:
85,192,111107,1,0,0:0:0:0:
312,192,111107,1,0,0:0:0:0:
142,192,111206,1,0,0:0:0:0:
256,192,111206,1,0,0:0:0:0:
28,192,111305,1,0,0:0:0:0:
369,192,111305,1,0,0:0:0:0:
312,192,111404,1,0,0:0:0:0:
256,192,111503,1,0,0:0:0:0:
142,192,111503,1,0,0:0:0:0:
28,192,111602,1,0,0:0:0:0:
369,192,111602,1,0,0:0:0:0:
85,192,111701,1,0,0:0:0:0:
312,192,111701,1,0,0:0:0:0:
142,192,111800,1,0,0:0:0:0:
256,192,111800,1,0,0:0:0:0:
28,192,111899,1,0,0:0:0:0:
369,192,111899,1,0,0:0:0:0:
312,192,111998,1,0,0:0:0:0:
142,192,112097,1,0,0:0:0:0:
256,192,112097,1,0,0:0:0:0:
85,192,112196,1,0,0:0:0:0:
199,192,112196,1,0,0:0:0:0:
312,192,112196,1,0,0:0:0:0:
142,192,112295,1,0,0:0:0:0:
369,192,112295,1,0,0:0:0:0:
199,192,112394,1,0,0:0:0:0:
426,192,112394,1,0,0:0:0:0:
85,192,112493,1,0,0:0:0:0:
312,192,112493,1,0,0:0:0:0:
369,192,112592,1,0,0:0:0:0:
199,192,112691,1,0,0:0:0:0:
426,192,112691,1,0,0:0:0:0:
142,192,112790,1,0,0:0:0:0:
28,192,112790,1,0,0:0:0:0:
369,192,112790,1,0,0:0:0:0:
199,192,112889,1,0,0:0:0:0:
426,192,112889,1,0,0:0:0:0:
256,192,112988,1,0,0:0:0:0:
483,192,112988,1,0,0:0:0:0:
142,192,113087,1,0,0:0:0:0:
369,192,113087,1,0,0:0:0:0:
426,192,113186,1,0,0:0:0:0:
199,192,113285,1,0,0:0:0:0:
483,192,113285,1,0,0:0:0:0:
426,192,113384,1,0,0:0:0:0:
85,192,113384,1,0,0:0:0:0:
85,192,113681,1,0,0:0:0:0:
312,192,113681,1,0,0:0:0:0:
28,192,113780,1,0,0:0:0:0:
199,192,113780,1,0,0:0:0:0:
85,192,113879,1,0,0:0:0:0:
312,192,113879,1,0,0:0:0:0:
28,192,113978,1,0,0:0:0:0:
142,192,113978,1,0,0:0:0:0:
369,192,113978,1,0,0:0:0:0:
256,192,114275,1,0,0:0:0:0:
426,192,114275,1,0,0:0:0:0:
483,192,114275,1,0,0:0:0:0:
312,192,114374,1,0,0:0:0:0:
199,192,114374,1,0,0:0:0:0:
256,192,114473,1,0,0:0:0:0:
369,192,114473,1,0,0:0:0:0:
483,192,114473,1,0,0:0:0:0:
483,192,114572,1,0,0:0:0:0:
369,192,114572,1,0,0:0:0:0:
142,192,114572,1,0,0:0:0:0:
312,192,114869,1,0,0:0:0:0:
85,192,114869,1,0,0:0:0:0:
28,192,114968,1,0,0:0:0:0:
199,192,114968,1,0,0:0:0:0:
199,192,115067,1,0,0:0:0:0:
312,192,115067,1,0,0:0:0:0:
85,192,115067,1,0,0:0:0:0:
28,192,115166,1,0,0:0:0:0:
142,192,115166,1,0,0:0:0:0:
369,192,115166,1,0,0:0:0:0:
142,192,115463,1,0,0:0:0:0:
199,192,115463,1,0,0:0:0:0:
312,192,115463,1,0,0:0:0:0:
426,192,115463,1,0,0:0:0:0:
85,192,115562,1,0,0:0:0:0:
312,192,115562,1,0,0:0:0:0:
312,192,115661,1,0,0:0:0:0:
426,192,115661,1,0,0:0:0:0:
199,192,115661,1,0,0:0:0:0:
28,192,115760,128,0,115983:0:0:0:0:
85,192,115760,128,0,115983:0:0:0:0:
142,192,115760,128,0,115983:0:0:0:0:
142,192,116057,128,0,116280:0:0:0:0:
199,192,116057,128,0,116280:0:0:0:0:
256,192,116057,128,0,116280:0:0:0:0:
256,192,116354,128,0,116577:0:0:0:0:
369,192,116354,128,0,116577:0:0:0:0:
312,192,116354,128,0,116577:0:0:0:0:
369,192,116651,128,0,116874:0:0:0:0:
426,192,116651,128,0,116874:0:0:0:0:
483,192,116651,128,0,116874:0:0:0:0:
28,192,116948,128,0,117171:0:0:0:0:
85,192,116948,128,0,117171:0:0:0:0:
142,192,116948,128,0,117171:0:0:0:0:
199,192,117245,128,0,117468:0:0:0:0:
256,192,117245,128,0,117468:0:0:0:0:
312,192,117245,128,0,117468:0:0:0:0:
369,192,117245,128,0,117468:0:0:0:0:
256,192,117542,128,0,117765:0:0:0:0:
312,192,117542,128,0,117765:0:0:0:0:
369,192,117542,128,0,117765:0:0:0:0:
426,192,117542,128,0,117765:0:0:0:0:
312,192,117839,128,0,118062:0:0:0:0:
369,192,117839,128,0,118062:0:0:0:0:
426,192,117839,128,0,118062:0:0:0:0:
483,192,117839,128,0,118062:0:0:0:0:
28,192,118136,1,0,0:0:0:0:
142,192,118136,1,0,0:0:0:0:
369,192,118136,1,0,0:0:0:0:
483,192,118136,1,0,0:0:0:0:
