osu file format v14

[General]
AudioFilename: audio.mp3
AudioLeadIn: 0
PreviewTime: 85983
Countdown: 0
SampleSet: Normal
StackLeniency: 0.7
Mode: 1
LetterboxInBreaks: 0
WidescreenStoryboard: 0

[Editor]
DistanceSpacing: 1.2
BeatDivisor: 4
GridSize: 32
TimelineZoom: 2.7

[Metadata]
Title:24/7 Popperz
TitleUnicode:24/7 Popperz
Artist:Power Of Nature
ArtistUnicode:Power Of Nature
Creator:D o t
Version:.'s Taiko
Source:pop'n music うさぎと猫と少年の夢
Tags:
BeatmapID:1812173
BeatmapSetID:866824

[Difficulty]
HPDrainRate:6
CircleSize:5
OverallDifficulty:6
ApproachRate:5
SliderMultiplier:1.4
SliderTickRate:1

[Events]
//Background and Video events
0,0,"9.png",0,0
//Break Periods
//Storyboard Layer 0 (Background)
//Storyboard Layer 1 (Fail)
//Storyboard Layer 2 (Pass)
//Storyboard Layer 3 (Foreground)
//Storyboard Sound Samples

[TimingPoints]
513,297.029702970297,4,1,0,80,1,0
10017,-100,4,1,0,90,0,0
19522,-100,4,1,0,70,0,0
29027,-100,4,1,0,90,0,0
59918,-100,4,1,0,60,0,0
67938,-100,4,1,0,70,0,0
69423,-100,4,1,0,90,0,0
76552,-100,4,1,0,80,0,0
81453,-100,4,1,0,75,0,0
86057,-100,4,1,0,95,0,1
95562,-100,4,1,0,90,0,0
97938,-100,4,1,0,96,0,1
108631,-100,4,1,0,70,0,0
111008,-100,4,1,0,90,0,0

[HitObjects]
256,192,513,5,4,0:0:0:0:
256,192,1106,1,2,0:0:0:0:
256,192,1255,1,4,0:0:0:0:
256,192,1701,1,4,0:0:0:0:
256,192,2295,1,2,0:0:0:0:
256,192,2443,1,4,0:0:0:0:
256,192,2889,1,4,0:0:0:0:
256,192,3483,1,2,0:0:0:0:
256,192,3631,1,4,0:0:0:0:
256,192,4077,1,4,0:0:0:0:
256,192,4225,1,0,0:0:0:0:
256,192,4300,1,0,0:0:0:0:
256,192,4374,1,2,0:0:0:0:
256,192,4522,1,2,0:0:0:0:
256,192,4597,1,2,0:0:0:0:
256,192,4671,1,0,0:0:0:0:
256,192,4745,1,2,0:0:0:0:
256,192,4819,1,0,0:0:0:0:
256,192,4894,1,0,0:0:0:0:
256,192,4968,1,2,0:0:0:0:
256,192,5116,1,0,0:0:0:0:
256,192,5265,1,4,0:0:0:0:
256,192,5859,1,2,0:0:0:0:
256,192,6008,1,4,0:0:0:0:
256,192,6453,1,4,0:0:0:0:
256,192,7047,1,2,0:0:0:0:
256,192,7196,1,4,0:0:0:0:
256,192,7641,1,4,0:0:0:0:
256,192,8235,1,2,0:0:0:0:
256,192,8384,1,4,0:0:0:0:
256,192,8829,1,4,0:0:0:0:
256,192,8978,1,0,0:0:0:0:
256,192,9052,1,0,0:0:0:0:
256,192,9126,1,2,0:0:0:0:
256,192,9275,1,0,0:0:0:0:
256,192,9349,1,0,0:0:0:0:
256,192,9423,1,2,0:0:0:0:
256,192,9572,1,0,0:0:0:0:
256,192,9646,1,0,0:0:0:0:
256,192,9720,1,2,0:0:0:0:
256,192,9869,1,2,0:0:0:0:
256,192,10017,1,4,0:0:0:0:
256,192,10166,1,0,0:0:0:0:
256,192,10240,1,0,0:0:0:0:
256,192,10314,1,2,0:0:0:0:
256,192,10463,1,2,0:0:0:0:
256,192,10537,1,0,0:0:0:0:
256,192,10612,1,2,0:0:0:0:
256,192,10760,1,2,0:0:0:0:
256,192,10834,1,2,0:0:0:0:
256,192,10909,1,0,0:0:0:0:
256,192,11057,1,0,0:0:0:0:
256,192,11206,1,2,0:0:0:0:
256,192,11354,1,0,0:0:0:0:
256,192,11428,1,0,0:0:0:0:
256,192,11503,1,2,0:0:0:0:
256,192,11651,1,2,0:0:0:0:
256,192,11948,1,2,0:0:0:0:
256,192,12022,1,0,0:0:0:0:
256,192,12097,1,2,0:0:0:0:
256,192,12245,1,2,0:0:0:0:
256,192,12394,1,0,0:0:0:0:
256,192,12542,1,0,0:0:0:0:
256,192,12616,1,0,0:0:0:0:
256,192,12691,1,2,0:0:0:0:
256,192,12839,1,2,0:0:0:0:
256,192,12913,1,0,0:0:0:0:
256,192,12988,1,2,0:0:0:0:
256,192,13136,1,0,0:0:0:0:
256,192,13211,1,2,0:0:0:0:
256,192,13285,1,0,0:0:0:0:
256,192,13433,1,0,0:0:0:0:
256,192,13582,1,2,0:0:0:0:
256,192,13730,1,0,0:0:0:0:
256,192,13805,1,2,0:0:0:0:
256,192,13879,1,2,0:0:0:0:
256,192,14027,1,0,0:0:0:0:
256,192,14324,1,2,0:0:0:0:
256,192,14399,1,0,0:0:0:0:
256,192,14473,1,2,0:0:0:0:
256,192,14547,1,2,0:0:0:0:
256,192,14621,1,0,0:0:0:0:
256,192,14770,1,0,0:0:0:0:
256,192,14918,1,0,0:0:0:0:
256,192,14993,1,0,0:0:0:0:
256,192,15067,1,2,0:0:0:0:
256,192,15215,1,2,0:0:0:0:
256,192,15290,1,2,0:0:0:0:
256,192,15364,1,0,0:0:0:0:
256,192,15513,1,0,0:0:0:0:
256,192,15587,1,2,0:0:0:0:
256,192,15661,1,2,0:0:0:0:
256,192,15810,1,2,0:0:0:0:
256,192,15958,1,0,0:0:0:0:
256,192,16107,1,2,0:0:0:0:
256,192,16181,1,2,0:0:0:0:
256,192,16255,1,0,0:0:0:0:
256,192,16404,1,2,0:0:0:0:
256,192,16701,1,2,0:0:0:0:
256,192,16775,1,0,0:0:0:0:
256,192,16849,1,2,0:0:0:0:
256,192,16923,1,2,0:0:0:0:
256,192,16998,1,0,0:0:0:0:
256,192,17146,1,0,0:0:0:0:
256,192,17295,1,0,0:0:0:0:
256,192,17369,1,0,0:0:0:0:
256,192,17443,1,2,0:0:0:0:
256,192,17592,1,2,0:0:0:0:
256,192,17666,1,2,0:0:0:0:
256,192,17740,1,0,0:0:0:0:
256,192,17889,1,0,0:0:0:0:
256,192,17963,1,2,0:0:0:0:
256,192,18037,1,2,0:0:0:0:
256,192,18186,1,2,0:0:0:0:
256,192,18334,1,0,0:0:0:0:
256,192,18483,1,2,0:0:0:0:
256,192,18557,1,2,0:0:0:0:
256,192,18631,1,0,0:0:0:0:
256,192,18780,1,2,0:0:0:0:
256,192,19225,1,0,0:0:0:0:
256,192,19522,1,4,0:0:0:0:
256,192,20711,1,0,0:0:0:0:
256,192,20859,1,0,0:0:0:0:
256,192,20933,1,0,0:0:0:0:
256,192,21008,1,2,0:0:0:0:
256,192,21156,1,2,0:0:0:0:
256,192,21230,1,2,0:0:0:0:
256,192,21305,1,0,0:0:0:0:
256,192,21379,1,2,0:0:0:0:
256,192,21453,1,0,0:0:0:0:
256,192,21527,1,0,0:0:0:0:
256,192,21602,1,2,0:0:0:0:
256,192,21750,1,0,0:0:0:0:
256,192,21899,1,4,0:0:0:0:
256,192,23087,1,0,0:0:0:0:
256,192,23235,1,0,0:0:0:0:
256,192,23310,1,0,0:0:0:0:
256,192,23384,1,2,0:0:0:0:
256,192,23532,1,2,0:0:0:0:
256,192,23607,1,0,0:0:0:0:
256,192,23681,1,0,0:0:0:0:
256,192,23755,1,2,0:0:0:0:
256,192,23829,1,0,0:0:0:0:
256,192,23904,1,0,0:0:0:0:
256,192,23978,1,2,0:0:0:0:
256,192,24126,1,0,0:0:0:0:
256,192,24275,1,4,0:0:0:0:
256,192,25463,1,0,0:0:0:0:
256,192,25612,1,0,0:0:0:0:
256,192,25686,1,0,0:0:0:0:
256,192,25760,1,2,0:0:0:0:
256,192,25909,1,2,0:0:0:0:
256,192,25983,1,2,0:0:0:0:
256,192,26057,1,0,0:0:0:0:
256,192,26131,1,2,0:0:0:0:
256,192,26206,1,0,0:0:0:0:
256,192,26280,1,0,0:0:0:0:
256,192,26354,1,2,0:0:0:0:
256,192,26503,1,0,0:0:0:0:
256,192,26651,1,4,0:0:0:0:
256,192,27839,1,0,0:0:0:0:
256,192,27988,1,0,0:0:0:0:
256,192,28062,1,0,0:0:0:0:
256,192,28136,1,2,0:0:0:0:
256,192,28285,1,0,0:0:0:0:
256,192,28433,1,2,0:0:0:0:
256,192,28508,1,2,0:0:0:0:
256,192,28582,1,0,0:0:0:0:
256,192,28656,1,0,0:0:0:0:
256,192,28730,1,2,0:0:0:0:
256,192,28805,1,0,0:0:0:0:
256,192,28879,1,2,0:0:0:0:
256,192,28953,1,2,0:0:0:0:
256,192,29027,1,0,0:0:0:0:
256,192,29176,1,0,0:0:0:0:
256,192,29250,1,0,0:0:0:0:
256,192,29324,1,2,0:0:0:0:
256,192,29399,1,0,0:0:0:0:
256,192,29473,1,2,0:0:0:0:
256,192,29547,1,2,0:0:0:0:
256,192,29621,1,2,0:0:0:0:
256,192,29770,1,2,0:0:0:0:
256,192,29844,1,2,0:0:0:0:
256,192,29918,1,0,0:0:0:0:
256,192,30067,1,2,0:0:0:0:
256,192,30215,1,0,0:0:0:0:
256,192,30290,1,2,0:0:0:0:
256,192,30364,1,2,0:0:0:0:
256,192,30438,1,0,0:0:0:0:
256,192,30512,1,0,0:0:0:0:
256,192,30587,1,2,0:0:0:0:
256,192,30661,1,2,0:0:0:0:
256,192,30735,1,0,0:0:0:0:
256,192,30810,1,2,0:0:0:0:
256,192,30884,1,0,0:0:0:0:
256,192,30958,1,0,0:0:0:0:
256,192,31032,1,2,0:0:0:0:
256,192,31107,1,0,0:0:0:0:
256,192,31181,1,0,0:0:0:0:
256,192,31255,1,2,0:0:0:0:
256,192,31329,1,2,0:0:0:0:
256,192,31404,1,0,0:0:0:0:
256,192,31552,1,0,0:0:0:0:
256,192,31626,1,2,0:0:0:0:
256,192,31701,1,0,0:0:0:0:
256,192,31775,1,0,0:0:0:0:
256,192,31849,1,2,0:0:0:0:
256,192,31923,1,2,0:0:0:0:
256,192,31998,1,0,0:0:0:0:
256,192,32146,1,0,0:0:0:0:
256,192,32220,1,0,0:0:0:0:
256,192,32295,1,2,0:0:0:0:
256,192,32443,1,0,0:0:0:0:
256,192,32592,1,0,0:0:0:0:
256,192,32666,1,2,0:0:0:0:
256,192,32740,1,2,0:0:0:0:
256,192,32814,1,0,0:0:0:0:
256,192,32889,1,0,0:0:0:0:
256,192,32963,1,2,0:0:0:0:
256,192,33037,1,2,0:0:0:0:
256,192,33112,1,0,0:0:0:0:
256,192,33186,1,0,0:0:0:0:
256,192,33260,1,0,0:0:0:0:
256,192,33334,1,2,0:0:0:0:
256,192,33409,1,0,0:0:0:0:
256,192,33483,1,2,0:0:0:0:
256,192,33557,1,0,0:0:0:0:
256,192,33631,1,2,0:0:0:0:
256,192,33706,1,2,0:0:0:0:
256,192,33780,1,0,0:0:0:0:
256,192,33928,1,0,0:0:0:0:
256,192,34003,1,2,0:0:0:0:
256,192,34077,1,0,0:0:0:0:
256,192,34151,1,0,0:0:0:0:
256,192,34225,1,2,0:0:0:0:
256,192,34300,1,0,0:0:0:0:
256,192,34374,1,2,0:0:0:0:
256,192,34522,1,2,0:0:0:0:
256,192,34597,1,2,0:0:0:0:
256,192,34671,1,0,0:0:0:0:
256,192,34819,1,2,0:0:0:0:
256,192,34968,1,0,0:0:0:0:
256,192,35042,1,2,0:0:0:0:
256,192,35116,1,2,0:0:0:0:
256,192,35191,1,0,0:0:0:0:
256,192,35265,1,0,0:0:0:0:
256,192,35339,1,2,0:0:0:0:
256,192,35413,1,2,0:0:0:0:
256,192,35488,1,0,0:0:0:0:
256,192,35562,1,0,0:0:0:0:
256,192,35636,1,2,0:0:0:0:
256,192,35711,1,2,0:0:0:0:
256,192,35785,1,2,0:0:0:0:
256,192,35859,1,0,0:0:0:0:
256,192,35933,1,0,0:0:0:0:
256,192,36008,1,2,0:0:0:0:
256,192,36082,1,0,0:0:0:0:
256,192,36156,1,0,0:0:0:0:
256,192,36305,1,0,0:0:0:0:
256,192,36379,1,0,0:0:0:0:
256,192,36453,1,0,0:0:0:0:
256,192,36527,1,2,0:0:0:0:
256,192,36602,1,0,0:0:0:0:
256,192,36676,1,0,0:0:0:0:
256,192,36750,1,2,0:0:0:0:
256,192,36899,1,2,0:0:0:0:
256,192,36973,1,2,0:0:0:0:
256,192,37047,1,0,0:0:0:0:
256,192,37196,1,2,0:0:0:0:
256,192,37344,1,0,0:0:0:0:
256,192,37418,1,0,0:0:0:0:
256,192,37493,1,2,0:0:0:0:
256,192,37567,1,0,0:0:0:0:
256,192,37641,1,2,0:0:0:0:
256,192,37715,1,2,0:0:0:0:
256,192,37790,1,0,0:0:0:0:
256,192,37864,1,2,0:0:0:0:
256,192,37938,1,0,0:0:0:0:
256,192,38013,1,0,0:0:0:0:
256,192,38087,1,2,0:0:0:0:
256,192,38161,1,0,0:0:0:0:
256,192,38235,1,0,0:0:0:0:
256,192,38384,1,0,0:0:0:0:
256,192,38532,1,2,0:0:0:0:
256,192,38681,1,2,0:0:0:0:
256,192,38829,1,0,0:0:0:0:
256,192,38904,1,2,0:0:0:0:
256,192,39052,1,2,0:0:0:0:
256,192,39126,1,0,0:0:0:0:
256,192,39201,1,0,0:0:0:0:
256,192,39275,1,2,0:0:0:0:
256,192,39349,1,0,0:0:0:0:
256,192,39423,1,2,0:0:0:0:
256,192,39572,1,0,0:0:0:0:
256,192,39646,1,0,0:0:0:0:
256,192,39720,1,2,0:0:0:0:
256,192,39869,1,2,0:0:0:0:
256,192,40017,1,2,0:0:0:0:
256,192,40092,1,2,0:0:0:0:
256,192,40240,1,0,0:0:0:0:
256,192,40314,1,2,0:0:0:0:
256,192,40389,1,2,0:0:0:0:
256,192,40463,1,0,0:0:0:0:
256,192,40537,1,2,0:0:0:0:
256,192,40612,1,0,0:0:0:0:
256,192,40760,1,2,0:0:0:0:
256,192,40834,1,2,0:0:0:0:
256,192,40909,1,0,0:0:0:0:
256,192,41057,1,0,0:0:0:0:
256,192,41206,1,2,0:0:0:0:
256,192,41280,1,0,0:0:0:0:
256,192,41428,1,0,0:0:0:0:
256,192,41503,1,2,0:0:0:0:
256,192,41577,1,2,0:0:0:0:
256,192,41651,1,0,0:0:0:0:
256,192,41725,1,0,0:0:0:0:
256,192,41800,1,2,0:0:0:0:
256,192,41948,1,2,0:0:0:0:
256,192,42022,1,0,0:0:0:0:
256,192,42097,1,2,0:0:0:0:
256,192,42245,1,2,0:0:0:0:
256,192,42394,1,0,0:0:0:0:
256,192,42468,1,2,0:0:0:0:
256,192,42616,1,2,0:0:0:0:
256,192,42691,1,0,0:0:0:0:
256,192,42765,1,0,0:0:0:0:
256,192,42839,1,2,0:0:0:0:
256,192,42913,1,0,0:0:0:0:
256,192,42988,1,2,0:0:0:0:
256,192,43136,1,2,0:0:0:0:
256,192,43211,1,2,0:0:0:0:
256,192,43285,1,0,0:0:0:0:
256,192,43433,1,0,0:0:0:0:
256,192,43582,1,2,0:0:0:0:
256,192,43656,1,0,0:0:0:0:
256,192,43805,1,0,0:0:0:0:
256,192,43879,1,2,0:0:0:0:
256,192,43953,1,2,0:0:0:0:
256,192,44027,1,0,0:0:0:0:
256,192,44102,1,2,0:0:0:0:
256,192,44176,1,0,0:0:0:0:
256,192,44324,1,0,0:0:0:0:
256,192,44399,1,0,0:0:0:0:
256,192,44473,1,2,0:0:0:0:
256,192,44621,1,2,0:0:0:0:
256,192,44770,1,0,0:0:0:0:
256,192,44844,1,2,0:0:0:0:
256,192,44993,1,2,0:0:0:0:
256,192,45067,1,0,0:0:0:0:
256,192,45141,1,0,0:0:0:0:
256,192,45215,1,2,0:0:0:0:
256,192,45290,1,0,0:0:0:0:
256,192,45364,1,2,0:0:0:0:
256,192,45513,1,2,0:0:0:0:
256,192,45587,1,2,0:0:0:0:
256,192,45661,1,0,0:0:0:0:
256,192,45810,1,0,0:0:0:0:
256,192,45958,1,2,0:0:0:0:
256,192,46032,1,2,0:0:0:0:
256,192,46181,1,2,0:0:0:0:
256,192,46255,1,0,0:0:0:0:
256,192,46329,1,0,0:0:0:0:
256,192,46404,1,2,0:0:0:0:
256,192,46478,1,2,0:0:0:0:
256,192,46552,1,0,0:0:0:0:
256,192,46701,1,2,0:0:0:0:
256,192,46775,1,0,0:0:0:0:
256,192,46849,1,2,0:0:0:0:
256,192,46998,1,2,0:0:0:0:
256,192,47146,1,0,0:0:0:0:
256,192,47220,1,2,0:0:0:0:
256,192,47369,1,2,0:0:0:0:
256,192,47443,1,0,0:0:0:0:
256,192,47517,1,2,0:0:0:0:
256,192,47592,1,2,0:0:0:0:
256,192,47666,1,2,0:0:0:0:
256,192,47740,1,0,0:0:0:0:
256,192,47814,1,0,0:0:0:0:
256,192,47889,1,2,0:0:0:0:
256,192,47963,1,0,0:0:0:0:
256,192,48037,1,2,0:0:0:0:
256,192,48235,1,0,0:0:0:0:
256,192,48334,1,2,0:0:0:0:
256,192,48532,1,2,0:0:0:0:
256,192,48631,1,0,0:0:0:0:
256,192,48829,1,0,0:0:0:0:
256,192,48928,1,0,0:0:0:0:
256,192,49126,1,0,0:0:0:0:
256,192,49225,1,2,0:0:0:0:
256,192,49423,1,2,0:0:0:0:
256,192,49522,1,2,0:0:0:0:
256,192,49720,1,2,0:0:0:0:
256,192,49819,1,0,0:0:0:0:
256,192,50017,1,0,0:0:0:0:
256,192,50116,1,0,0:0:0:0:
256,192,50314,1,0,0:0:0:0:
256,192,50413,1,2,0:0:0:0:
256,192,50612,1,0,0:0:0:0:
256,192,50711,1,2,0:0:0:0:
256,192,50909,1,2,0:0:0:0:
256,192,51008,1,0,0:0:0:0:
256,192,51206,1,0,0:0:0:0:
256,192,51305,1,0,0:0:0:0:
256,192,51503,1,0,0:0:0:0:
256,192,51602,1,2,0:0:0:0:
256,192,51701,1,2,0:0:0:0:
256,192,51800,1,0,0:0:0:0:
256,192,51899,1,2,0:0:0:0:
256,192,51998,1,0,0:0:0:0:
256,192,52097,1,0,0:0:0:0:
256,192,52196,1,2,0:0:0:0:
256,192,52493,1,0,0:0:0:0:
256,192,52790,1,2,0:0:0:0:
256,192,52889,1,2,0:0:0:0:
256,192,52988,1,0,0:0:0:0:
256,192,53087,1,2,0:0:0:0:
256,192,53186,1,0,0:0:0:0:
256,192,53285,1,2,0:0:0:0:
256,192,53384,1,2,0:0:0:0:
256,192,53483,1,0,0:0:0:0:
256,192,53582,1,0,0:0:0:0:
256,192,53681,1,2,0:0:0:0:
256,192,53780,1,0,0:0:0:0:
256,192,53879,1,2,0:0:0:0:
256,192,53978,1,2,0:0:0:0:
256,192,54077,1,0,0:0:0:0:
256,192,54176,1,0,0:0:0:0:
256,192,54275,1,2,0:0:0:0:
256,192,54374,1,0,0:0:0:0:
256,192,54473,1,0,0:0:0:0:
256,192,54572,1,2,0:0:0:0:
256,192,54671,1,0,0:0:0:0:
256,192,54770,1,2,0:0:0:0:
256,192,54869,1,0,0:0:0:0:
256,192,54968,1,0,0:0:0:0:
256,192,55067,1,2,0:0:0:0:
256,192,55166,1,2,0:0:0:0:
256,192,55265,1,0,0:0:0:0:
256,192,55364,1,2,0:0:0:0:
256,192,55463,1,0,0:0:0:0:
256,192,55562,1,0,0:0:0:0:
256,192,55661,1,0,0:0:0:0:
256,192,55760,1,2,0:0:0:0:
256,192,55859,1,0,0:0:0:0:
256,192,55958,1,2,0:0:0:0:
256,192,56057,1,2,0:0:0:0:
256,192,56156,1,0,0:0:0:0:
256,192,56255,1,2,0:0:0:0:
256,192,56354,1,0,0:0:0:0:
256,192,56453,1,0,0:0:0:0:
256,192,56552,1,2,0:0:0:0:
256,192,56651,1,2,0:0:0:0:
256,192,56750,1,2,0:0:0:0:
256,192,56849,1,0,0:0:0:0:
256,192,56948,1,2,0:0:0:0:
256,192,57047,1,0,0:0:0:0:
256,192,57146,1,2,0:0:0:0:
256,192,57245,1,0,0:0:0:0:
256,192,57344,1,0,0:0:0:0:
256,192,57443,1,2,0:0:0:0:
256,192,57542,1,0,0:0:0:0:
256,192,57740,1,0,0:0:0:0:
256,192,57839,1,0,0:0:0:0:
256,192,58037,1,0,0:0:0:0:
256,192,58136,1,2,0:0:0:0:
256,192,58334,1,0,0:0:0:0:
256,192,58631,1,0,0:0:0:0:
256,192,58928,1,0,0:0:0:0:
256,192,59027,1,0,0:0:0:0:
256,192,59225,1,0,0:0:0:0:
256,192,59324,1,2,0:0:0:0:
256,192,59522,1,0,0:0:0:0:
256,192,59819,1,0,0:0:0:0:
256,192,59918,1,6,0:0:0:0:
256,192,60364,1,0,0:0:0:0:
256,192,60810,1,2,0:0:0:0:
256,192,61255,1,0,0:0:0:0:
256,192,61329,1,0,0:0:0:0:
256,192,61404,1,2,0:0:0:0:
256,192,61552,1,0,0:0:0:0:
256,192,61701,1,2,0:0:0:0:
256,192,61849,1,0,0:0:0:0:
256,192,61998,1,0,0:0:0:0:
256,192,62146,1,0,0:0:0:0:
256,192,62295,1,2,0:0:0:0:
256,192,62740,1,0,0:0:0:0:
256,192,63186,1,2,0:0:0:0:
256,192,63631,1,0,0:0:0:0:
256,192,63706,1,0,0:0:0:0:
256,192,63780,1,2,0:0:0:0:
256,192,63928,1,0,0:0:0:0:
256,192,64077,1,2,0:0:0:0:
256,192,64225,1,2,0:0:0:0:
256,192,64374,1,2,0:0:0:0:
256,192,64522,1,0,0:0:0:0:
256,192,64671,1,2,0:0:0:0:
256,192,65116,1,0,0:0:0:0:
256,192,65562,1,2,0:0:0:0:
256,192,66008,1,0,0:0:0:0:
256,192,66082,1,0,0:0:0:0:
256,192,66156,1,2,0:0:0:0:
256,192,66305,1,0,0:0:0:0:
256,192,66453,1,2,0:0:0:0:
256,192,66602,1,0,0:0:0:0:
256,192,66750,1,2,0:0:0:0:
256,192,66899,1,2,0:0:0:0:
256,192,67047,1,0,0:0:0:0:
256,192,67344,1,0,0:0:0:0:
256,192,67641,1,2,0:0:0:0:
256,192,68087,1,2,0:0:0:0:
256,192,68161,1,2,0:0:0:0:
256,192,68235,1,0,0:0:0:0:
256,192,68334,1,2,0:0:0:0:
256,192,68433,1,2,0:0:0:0:
256,192,68532,1,0,0:0:0:0:
256,192,68631,1,2,0:0:0:0:
256,192,68730,1,2,0:0:0:0:
256,192,68829,1,0,0:0:0:0:
256,192,68928,1,0,0:0:0:0:
256,192,69027,1,0,0:0:0:0:
256,192,69126,1,2,0:0:0:0:
256,192,69225,1,0,0:0:0:0:
256,192,69324,1,0,0:0:0:0:
256,192,69423,1,2,0:0:0:0:
256,192,69498,1,0,0:0:0:0:
256,192,69572,1,2,0:0:0:0:
256,192,69646,1,0,0:0:0:0:
256,192,69720,1,2,0:0:0:0:
256,192,69869,1,0,0:0:0:0:
256,192,69943,1,2,0:0:0:0:
256,192,70017,1,0,0:0:0:0:
256,192,70092,1,2,0:0:0:0:
256,192,70166,1,0,0:0:0:0:
256,192,70314,1,0,0:0:0:0:
256,192,70463,1,0,0:0:0:0:
256,192,70537,1,0,0:0:0:0:
256,192,70612,1,2,0:0:0:0:
256,192,70686,1,2,0:0:0:0:
256,192,70760,1,0,0:0:0:0:
256,192,70909,1,0,0:0:0:0:
256,192,71057,1,0,0:0:0:0:
256,192,71131,1,0,0:0:0:0:
256,192,71206,1,2,0:0:0:0:
256,192,71280,1,2,0:0:0:0:
256,192,71354,1,0,0:0:0:0:
256,192,71428,1,2,0:0:0:0:
256,192,71503,1,2,0:0:0:0:
256,192,71651,1,0,0:0:0:0:
256,192,71799,1,2,0:0:0:0:
256,192,71873,1,0,0:0:0:0:
256,192,71948,1,2,0:0:0:0:
256,192,72022,1,0,0:0:0:0:
256,192,72096,1,2,0:0:0:0:
256,192,72245,1,0,0:0:0:0:
256,192,72319,1,2,0:0:0:0:
256,192,72393,1,0,0:0:0:0:
256,192,72467,1,2,0:0:0:0:
256,192,72542,1,0,0:0:0:0:
256,192,72691,1,0,0:0:0:0:
256,192,72839,1,0,0:0:0:0:
256,192,72913,1,0,0:0:0:0:
256,192,72988,1,2,0:0:0:0:
256,192,73062,1,2,0:0:0:0:
256,192,73136,1,0,0:0:0:0:
256,192,73285,1,0,0:0:0:0:
256,192,73433,1,0,0:0:0:0:
256,192,73508,1,0,0:0:0:0:
256,192,73582,1,2,0:0:0:0:
256,192,73656,1,2,0:0:0:0:
256,192,73730,1,2,0:0:0:0:
256,192,73805,1,0,0:0:0:0:
256,192,73879,1,2,0:0:0:0:
256,192,74027,1,2,0:0:0:0:
256,192,74176,1,0,0:0:0:0:
256,192,74251,1,0,0:0:0:0:
256,192,74325,1,0,0:0:0:0:
256,192,74399,1,2,0:0:0:0:
256,192,74473,1,0,0:0:0:0:
256,192,74621,1,2,0:0:0:0:
256,192,74695,1,2,0:0:0:0:
256,192,74769,1,2,0:0:0:0:
256,192,74844,1,0,0:0:0:0:
256,192,74918,1,2,0:0:0:0:
256,192,75067,1,2,0:0:0:0:
256,192,75141,1,0,0:0:0:0:
256,192,75215,1,2,0:0:0:0:
256,192,75290,1,2,0:0:0:0:
256,192,75364,1,0,0:0:0:0:
256,192,75513,1,0,0:0:0:0:
256,192,75587,1,2,0:0:0:0:
256,192,75661,1,0,0:0:0:0:
256,192,75735,1,0,0:0:0:0:
256,192,75810,1,2,0:0:0:0:
256,192,75884,1,0,0:0:0:0:
256,192,75958,1,2,0:0:0:0:
256,192,76107,1,0,0:0:0:0:
256,192,76181,1,2,0:0:0:0:
256,192,76255,1,2,0:0:0:0:
256,192,76404,1,0,0:0:0:0:
256,192,76552,1,6,0:0:0:0:
256,192,76701,1,0,0:0:0:0:
256,192,76775,1,0,0:0:0:0:
256,192,76849,1,0,0:0:0:0:
256,192,76923,1,0,0:0:0:0:
256,192,76998,1,0,0:0:0:0:
256,192,77072,1,0,0:0:0:0:
256,192,77146,1,0,0:0:0:0:
256,192,77295,1,0,0:0:0:0:
256,192,77369,1,0,0:0:0:0:
256,192,77443,1,0,0:0:0:0:
256,192,77517,1,2,0:0:0:0:
256,192,77592,1,0,0:0:0:0:
256,192,77666,1,0,0:0:0:0:
256,192,77740,1,2,0:0:0:0:
256,192,77889,1,0,0:0:0:0:
256,192,77963,1,0,0:0:0:0:
256,192,78037,1,0,0:0:0:0:
256,192,78112,1,0,0:0:0:0:
256,192,78186,1,0,0:0:0:0:
256,192,78260,1,0,0:0:0:0:
256,192,78334,1,0,0:0:0:0:
256,192,78483,1,0,0:0:0:0:
256,192,78557,1,0,0:0:0:0:
256,192,78631,1,0,0:0:0:0:
256,192,78706,1,2,0:0:0:0:
256,192,78780,1,2,0:0:0:0:
256,192,78854,1,0,0:0:0:0:
256,192,78928,1,2,0:0:0:0:
256,192,79077,1,0,0:0:0:0:
256,192,79151,1,0,0:0:0:0:
256,192,79225,1,0,0:0:0:0:
256,192,79300,1,0,0:0:0:0:
256,192,79374,1,0,0:0:0:0:
256,192,79448,1,0,0:0:0:0:
256,192,79522,1,0,0:0:0:0:
256,192,79671,1,0,0:0:0:0:
256,192,79745,1,0,0:0:0:0:
256,192,79819,1,2,0:0:0:0:
256,192,79894,1,2,0:0:0:0:
256,192,79968,1,2,0:0:0:0:
256,192,80042,1,0,0:0:0:0:
256,192,80116,1,2,0:0:0:0:
256,192,80265,1,0,0:0:0:0:
256,192,80339,1,0,0:0:0:0:
256,192,80413,1,0,0:0:0:0:
256,192,80488,1,0,0:0:0:0:
256,192,80562,1,0,0:0:0:0:
256,192,80636,1,0,0:0:0:0:
256,192,80711,1,0,0:0:0:0:
256,192,80859,1,0,0:0:0:0:
256,192,80933,1,2,0:0:0:0:
256,192,81008,1,2,0:0:0:0:
256,192,81082,1,0,0:0:0:0:
256,192,81156,1,2,0:0:0:0:
256,192,81230,1,2,0:0:0:0:
256,192,81305,1,2,0:0:0:0:
256,192,81453,1,0,0:0:0:0:
256,192,81527,1,0,0:0:0:0:
256,192,81602,1,0,0:0:0:0:
256,192,81676,1,0,0:0:0:0:
256,192,81750,1,0,0:0:0:0:
256,192,81824,1,0,0:0:0:0:
256,192,81899,1,2,0:0:0:0:
256,192,81973,1,2,0:0:0:0:
256,192,82047,1,0,0:0:0:0:
256,192,82121,1,0,0:0:0:0:
256,192,82196,1,0,0:0:0:0:
256,192,82270,1,0,0:0:0:0:
256,192,82344,1,2,0:0:0:0:
256,192,82418,1,2,0:0:0:0:
256,192,82493,1,2,0:0:0:0:
256,192,82567,1,2,0:0:0:0:
256,192,82641,1,0,0:0:0:0:
256,192,82715,1,0,0:0:0:0:
256,192,82790,1,0,0:0:0:0:
256,192,82864,1,0,0:0:0:0:
256,192,82938,1,0,0:0:0:0:
256,192,83013,1,0,0:0:0:0:
256,192,83087,1,2,0:0:0:0:
256,192,83161,1,2,0:0:0:0:
256,192,83235,1,0,0:0:0:0:
256,192,83310,1,0,0:0:0:0:
256,192,83384,1,2,0:0:0:0:
256,192,83458,1,2,0:0:0:0:
256,192,83532,1,2,0:0:0:0:
256,192,83607,1,2,0:0:0:0:
256,192,83681,1,0,0:0:0:0:
256,192,83755,1,0,0:0:0:0:
256,192,83829,1,0,0:0:0:0:
256,192,83904,1,0,0:0:0:0:
256,192,83978,1,0,0:0:0:0:
256,192,84052,1,0,0:0:0:0:
256,192,84126,1,0,0:0:0:0:
256,192,84201,1,0,0:0:0:0:
256,192,84275,1,2,0:0:0:0:
256,192,84349,1,2,0:0:0:0:
256,192,84423,1,0,0:0:0:0:
256,192,84498,1,0,0:0:0:0:
256,192,84572,1,2,0:0:0:0:
256,192,84646,1,2,0:0:0:0:
256,192,84720,1,2,0:0:0:0:
256,192,84795,1,2,0:0:0:0:
256,192,84869,1,0,0:0:0:0:
256,192,84943,1,0,0:0:0:0:
256,192,85017,1,0,0:0:0:0:
256,192,85092,1,0,0:0:0:0:
256,192,85166,1,2,0:0:0:0:
256,192,85240,1,2,0:0:0:0:
256,192,85314,1,0,0:0:0:0:
256,192,85389,1,2,0:0:0:0:
256,192,85463,12,0,85760,0:0:0:0:
256,192,86057,5,6,0:0:0:0:
256,192,86206,1,0,0:0:0:0:
256,192,86280,1,0,0:0:0:0:
256,192,86354,1,0,0:0:0:0:
256,192,86428,1,2,0:0:0:0:
256,192,86503,1,2,0:0:0:0:
256,192,86577,1,0,0:0:0:0:
256,192,86651,1,0,0:0:0:0:
256,192,86800,1,0,0:0:0:0:
256,192,86874,1,0,0:0:0:0:
256,192,86948,1,2,0:0:0:0:
256,192,87022,1,0,0:0:0:0:
256,192,87097,1,2,0:0:0:0:
256,192,87171,1,2,0:0:0:0:
256,192,87245,1,0,0:0:0:0:
256,192,87394,1,0,0:0:0:0:
256,192,87468,1,0,0:0:0:0:
256,192,87542,1,2,0:0:0:0:
256,192,87616,1,2,0:0:0:0:
256,192,87691,1,2,0:0:0:0:
256,192,87765,1,0,0:0:0:0:
256,192,87839,1,0,0:0:0:0:
256,192,87913,1,0,0:0:0:0:
256,192,88062,1,0,0:0:0:0:
256,192,88136,1,2,0:0:0:0:
256,192,88285,1,2,0:0:0:0:
256,192,88433,1,0,0:0:0:0:
256,192,88582,1,0,0:0:0:0:
256,192,88656,1,0,0:0:0:0:
256,192,88730,1,2,0:0:0:0:
256,192,88805,1,2,0:0:0:0:
256,192,88879,1,0,0:0:0:0:
256,192,88953,1,2,0:0:0:0:
256,192,89027,1,2,0:0:0:0:
256,192,89176,1,2,0:0:0:0:
256,192,89250,1,0,0:0:0:0:
256,192,89324,1,2,0:0:0:0:
256,192,89399,1,2,0:0:0:0:
256,192,89473,1,0,0:0:0:0:
256,192,89547,1,0,0:0:0:0:
256,192,89621,1,2,0:0:0:0:
256,192,89696,1,2,0:0:0:0:
256,192,89770,1,2,0:0:0:0:
256,192,89844,1,0,0:0:0:0:
256,192,89918,1,2,0:0:0:0:
256,192,89993,1,2,0:0:0:0:
256,192,90067,1,2,0:0:0:0:
256,192,90141,1,0,0:0:0:0:
256,192,90215,1,2,0:0:0:0:
256,192,90290,1,2,0:0:0:0:
256,192,90364,1,0,0:0:0:0:
256,192,90438,1,0,0:0:0:0:
256,192,90513,1,2,0:0:0:0:
256,192,90587,1,0,0:0:0:0:
256,192,90661,1,0,0:0:0:0:
256,192,90810,1,4,0:0:0:0:
256,192,90958,1,0,0:0:0:0:
256,192,91032,1,0,0:0:0:0:
256,192,91107,1,0,0:0:0:0:
256,192,91181,1,2,0:0:0:0:
256,192,91255,1,2,0:0:0:0:
256,192,91329,1,2,0:0:0:0:
256,192,91404,1,0,0:0:0:0:
256,192,91552,1,0,0:0:0:0:
256,192,91626,1,0,0:0:0:0:
256,192,91701,1,0,0:0:0:0:
256,192,91775,1,2,0:0:0:0:
256,192,91849,1,0,0:0:0:0:
256,192,91923,1,0,0:0:0:0:
256,192,91998,1,2,0:0:0:0:
256,192,92146,1,0,0:0:0:0:
256,192,92220,1,2,0:0:0:0:
256,192,92295,1,0,0:0:0:0:
256,192,92369,1,2,0:0:0:0:
256,192,92443,1,2,0:0:0:0:
256,192,92517,1,0,0:0:0:0:
256,192,92592,1,2,0:0:0:0:
256,192,92740,1,2,0:0:0:0:
256,192,92814,1,0,0:0:0:0:
256,192,92889,1,2,0:0:0:0:
256,192,92963,1,0,0:0:0:0:
256,192,93037,1,0,0:0:0:0:
256,192,93112,1,2,0:0:0:0:
256,192,93186,1,0,0:0:0:0:
256,192,93260,1,0,0:0:0:0:
256,192,93334,1,2,0:0:0:0:
256,192,93409,1,0,0:0:0:0:
256,192,93483,1,0,0:0:0:0:
256,192,93557,1,2,0:0:0:0:
256,192,93631,1,2,0:0:0:0:
256,192,93706,1,0,0:0:0:0:
256,192,93780,1,2,0:0:0:0:
256,192,93854,1,2,0:0:0:0:
256,192,94003,1,0,0:0:0:0:
256,192,94077,1,2,0:0:0:0:
256,192,94225,1,0,0:0:0:0:
256,192,94374,1,2,0:0:0:0:
256,192,94448,1,2,0:0:0:0:
256,192,94522,1,2,0:0:0:0:
256,192,94597,1,2,0:0:0:0:
256,192,94671,1,2,0:0:0:0:
256,192,94745,1,2,0:0:0:0:
256,192,94819,1,2,0:0:0:0:
256,192,94894,1,2,0:0:0:0:
256,192,94968,1,0,0:0:0:0:
256,192,95017,1,0,0:0:0:0:
256,192,95067,1,0,0:0:0:0:
256,192,95116,1,0,0:0:0:0:
256,192,95166,1,0,0:0:0:0:
256,192,95215,1,0,0:0:0:0:
256,192,95265,1,2,0:0:0:0:
256,192,95562,1,6,0:0:0:0:
256,192,95711,1,2,0:0:0:0:
256,192,95785,1,2,0:0:0:0:
256,192,95859,1,0,0:0:0:0:
256,192,95933,1,2,0:0:0:0:
256,192,96008,1,2,0:0:0:0:
256,192,96082,1,0,0:0:0:0:
256,192,96156,1,0,0:0:0:0:
256,192,96305,1,0,0:0:0:0:
256,192,96379,1,0,0:0:0:0:
256,192,96453,1,0,0:0:0:0:
256,192,96527,1,2,0:0:0:0:
256,192,96602,1,2,0:0:0:0:
256,192,96676,1,0,0:0:0:0:
256,192,96750,1,0,0:0:0:0:
256,192,96899,1,0,0:0:0:0:
256,192,96973,1,0,0:0:0:0:
256,192,97047,1,2,0:0:0:0:
256,192,97121,1,0,0:0:0:0:
256,192,97196,1,2,0:0:0:0:
256,192,97270,1,0,0:0:0:0:
256,192,97344,1,2,0:0:0:0:
256,192,97418,1,2,0:0:0:0:
256,192,97493,1,2,0:0:0:0:
256,192,97567,1,0,0:0:0:0:
256,192,97641,1,2,0:0:0:0:
256,192,97715,1,0,0:0:0:0:
256,192,97790,1,0,0:0:0:0:
256,192,97938,1,4,0:0:0:0:
256,192,98087,1,0,0:0:0:0:
256,192,98161,1,0,0:0:0:0:
256,192,98235,1,2,0:0:0:0:
256,192,98310,1,0,0:0:0:0:
256,192,98384,1,2,0:0:0:0:
256,192,98458,1,2,0:0:0:0:
256,192,98532,1,2,0:0:0:0:
256,192,98681,1,2,0:0:0:0:
256,192,98755,1,0,0:0:0:0:
256,192,98829,1,2,0:0:0:0:
256,192,98904,1,2,0:0:0:0:
256,192,98978,1,0,0:0:0:0:
256,192,99052,1,0,0:0:0:0:
256,192,99126,1,2,0:0:0:0:
256,192,99201,1,2,0:0:0:0:
256,192,99275,1,2,0:0:0:0:
256,192,99349,1,0,0:0:0:0:
256,192,99423,1,2,0:0:0:0:
256,192,99498,1,2,0:0:0:0:
256,192,99572,1,2,0:0:0:0:
256,192,99646,1,0,0:0:0:0:
256,192,99720,1,2,0:0:0:0:
256,192,99795,1,2,0:0:0:0:
256,192,99869,1,0,0:0:0:0:
256,192,99943,1,0,0:0:0:0:
256,192,100017,1,2,0:0:0:0:
256,192,100092,1,0,0:0:0:0:
256,192,100166,1,0,0:0:0:0:
256,192,100314,1,0,0:0:0:0:
256,192,100389,1,2,0:0:0:0:
256,192,100463,1,2,0:0:0:0:
256,192,100537,1,0,0:0:0:0:
256,192,100612,1,0,0:0:0:0:
256,192,100686,1,2,0:0:0:0:
256,192,100760,1,2,0:0:0:0:
256,192,100834,1,0,0:0:0:0:
256,192,100909,1,2,0:0:0:0:
256,192,100983,1,0,0:0:0:0:
256,192,101057,1,0,0:0:0:0:
256,192,101131,1,2,0:0:0:0:
256,192,101206,1,2,0:0:0:0:
256,192,101280,1,0,0:0:0:0:
256,192,101354,1,0,0:0:0:0:
256,192,101428,1,2,0:0:0:0:
256,192,101503,1,2,0:0:0:0:
256,192,101577,1,0,0:0:0:0:
256,192,101651,1,0,0:0:0:0:
256,192,101725,1,0,0:0:0:0:
256,192,101800,1,2,0:0:0:0:
256,192,101874,1,0,0:0:0:0:
256,192,101948,1,0,0:0:0:0:
256,192,102022,1,2,0:0:0:0:
256,192,102097,1,2,0:0:0:0:
256,192,102171,1,0,0:0:0:0:
256,192,102245,1,2,0:0:0:0:
256,192,102319,1,2,0:0:0:0:
256,192,102394,1,0,0:0:0:0:
256,192,102468,1,2,0:0:0:0:
256,192,102542,1,0,0:0:0:0:
256,192,102616,1,0,0:0:0:0:
256,192,102691,1,2,0:0:0:0:
256,192,102765,1,0,0:0:0:0:
256,192,102839,1,0,0:0:0:0:
256,192,102913,1,2,0:0:0:0:
256,192,102988,1,0,0:0:0:0:
256,192,103062,1,2,0:0:0:0:
256,192,103136,1,0,0:0:0:0:
256,192,103211,1,0,0:0:0:0:
256,192,103285,1,2,0:0:0:0:
256,192,103359,1,0,0:0:0:0:
256,192,103433,1,0,0:0:0:0:
256,192,103508,1,2,0:0:0:0:
256,192,103582,1,2,0:0:0:0:
256,192,103656,1,2,0:0:0:0:
256,192,103730,1,0,0:0:0:0:
256,192,103805,1,0,0:0:0:0:
256,192,103879,1,2,0:0:0:0:
256,192,103953,1,2,0:0:0:0:
256,192,104027,1,2,0:0:0:0:
256,192,104102,1,2,0:0:0:0:
256,192,104176,1,2,0:0:0:0:
256,192,104250,1,2,0:0:0:0:
256,192,104324,1,2,0:0:0:0:
256,192,104399,1,2,0:0:0:0:
256,192,104473,1,2,0:0:0:0:
256,192,104770,1,2,0:0:0:0:
256,192,104844,1,2,0:0:0:0:
256,192,104918,1,2,0:0:0:0:
256,192,104993,1,2,0:0:0:0:
256,192,105067,1,2,0:0:0:0:
256,192,105141,1,2,0:0:0:0:
256,192,105215,1,2,0:0:0:0:
256,192,105290,1,2,0:0:0:0:
256,192,105364,1,2,0:0:0:0:
256,192,105661,1,0,0:0:0:0:
256,192,105735,1,0,0:0:0:0:
256,192,105810,1,0,0:0:0:0:
256,192,105884,1,0,0:0:0:0:
256,192,105958,1,2,0:0:0:0:
256,192,106032,1,2,0:0:0:0:
256,192,106107,1,0,0:0:0:0:
256,192,106181,1,0,0:0:0:0:
256,192,106255,1,2,0:0:0:0:
256,192,106329,1,2,0:0:0:0:
256,192,106404,1,2,0:0:0:0:
256,192,106478,1,2,0:0:0:0:
256,192,106552,1,2,0:0:0:0:
256,192,106626,1,2,0:0:0:0:
256,192,106701,1,2,0:0:0:0:
256,192,106775,1,2,0:0:0:0:
256,192,106849,1,2,0:0:0:0:
256,192,107146,1,2,0:0:0:0:
256,192,107220,1,2,0:0:0:0:
256,192,107295,1,2,0:0:0:0:
256,192,107369,1,2,0:0:0:0:
256,192,107443,1,2,0:0:0:0:
256,192,107517,1,2,0:0:0:0:
256,192,107592,1,2,0:0:0:0:
256,192,107666,1,2,0:0:0:0:
256,192,107740,1,2,0:0:0:0:
256,192,108037,1,0,0:0:0:0:
256,192,108112,1,0,0:0:0:0:
256,192,108186,1,0,0:0:0:0:
256,192,108260,1,0,0:0:0:0:
256,192,108334,1,2,0:0:0:0:
256,192,108409,1,2,0:0:0:0:
256,192,108483,1,2,0:0:0:0:
256,192,108557,1,2,0:0:0:0:
256,192,108631,1,0,0:0:0:0:
256,192,109225,1,2,0:0:0:0:
256,192,109819,1,0,0:0:0:0:
256,192,110413,1,2,0:0:0:0:
256,192,111008,1,0,0:0:0:0:
256,192,111206,1,0,0:0:0:0:
256,192,111305,1,0,0:0:0:0:
256,192,111503,1,0,0:0:0:0:
256,192,111602,1,2,0:0:0:0:
256,192,111800,1,0,0:0:0:0:
256,192,111899,1,2,0:0:0:0:
256,192,112097,1,0,0:0:0:0:
256,192,112196,1,2,0:0:0:0:
256,192,112295,1,2,0:0:0:0:
256,192,112394,1,0,0:0:0:0:
256,192,112493,1,2,0:0:0:0:
256,192,112592,1,0,0:0:0:0:
256,192,112691,1,0,0:0:0:0:
256,192,112790,1,2,0:0:0:0:
256,192,112889,1,0,0:0:0:0:
256,192,112988,1,0,0:0:0:0:
256,192,113087,1,2,0:0:0:0:
256,192,113186,1,2,0:0:0:0:
256,192,113285,1,2,0:0:0:0:
256,192,113384,1,0,0:0:0:0:
256,192,113532,1,0,0:0:0:0:
256,192,113681,1,2,0:0:0:0:
256,192,113755,1,0,0:0:0:0:
256,192,113978,1,0,0:0:0:0:
256,192,114052,1,2,0:0:0:0:
256,192,114126,1,2,0:0:0:0:
256,192,114275,1,2,0:0:0:0:
256,192,114423,1,2,0:0:0:0:
256,192,114572,1,0,0:0:0:0:
256,192,114720,1,0,0:0:0:0:
256,192,114869,1,2,0:0:0:0:
256,192,114943,1,0,0:0:0:0:
256,192,115166,1,0,0:0:0:0:
256,192,115240,1,2,0:0:0:0:
256,192,115314,1,2,0:0:0:0:
256,192,115463,1,2,0:0:0:0:
256,192,115612,1,2,0:0:0:0:
256,192,115760,1,0,0:0:0:0:
256,192,115909,1,0,0:0:0:0:
256,192,116057,1,2,0:0:0:0:
256,192,116131,1,2,0:0:0:0:
256,192,116354,1,0,0:0:0:0:
256,192,116428,1,2,0:0:0:0:
256,192,116503,1,0,0:0:0:0:
256,192,116651,1,2,0:0:0:0:
256,192,116800,1,2,0:0:0:0:
256,192,116948,1,0,0:0:0:0:
256,192,117097,1,0,0:0:0:0:
256,192,117245,1,2,0:0:0:0:
256,192,117319,1,2,0:0:0:0:
256,192,117542,1,0,0:0:0:0:
256,192,117616,1,2,0:0:0:0:
256,192,117691,1,0,0:0:0:0:
256,192,117839,1,2,0:0:0:0:
256,192,117988,1,2,0:0:0:0:
256,192,118136,1,4,0:0:0:0:
