osu file format v14

[General]
AudioFilename: 12 - BonusTruck (feat. Hatsune Miku).mp3
AudioLeadIn: 1500
PreviewTime: 203943
Countdown: 0
SampleSet: Soft
StackLeniency: 0.7
Mode: 0
LetterboxInBreaks: 0
WidescreenStoryboard: 1

[Editor]
Bookmarks: 1631,12881,27850,30850,42100,54100,66850,78100,90100,102100,114100,126850,138100,150100,162100,174100,186100,198100,204100,215350,227350,239350,251350,259225,263350,275350,287350,299350
DistanceSpacing: 1
BeatDivisor: 4
GridSize: 8
TimelineZoom: 1.4

[Metadata]
Title:Good Morning * Good Bye
TitleUnicode:Good Morning * Good Bye
Artist:PowapowaP (feat. Hatsune Miku)
ArtistUnicode:PowapowaP (feat. Hatsune Miku)
Creator:Nyantiaz
Version:Bright Luminance
Source:
Tags:exkyu nyantiaz collab marathon hatsune miku append sepiarecord karent kusamarup bonustruck shiina mota
BeatmapID:1087368
BeatmapSetID:507677

[Difficulty]
HPDrainRate:6
CircleSize:4.4
OverallDifficulty:6
ApproachRate:7.5
SliderMultiplier:1.6
SliderTickRate:1

[Events]
//Background and Video events
0,0,"bg.jpg",0,0
//Break Periods
2,24330,27056
2,28081,30056
2,202456,203306
//Storyboard Layer 0 (Background)
//Storyboard Layer 1 (Fail)
//Storyboard Layer 2 (Pass)
//Storyboard Layer 3 (Foreground)
//Storyboard Sound Samples

[TimingPoints]
1631,750,4,2,1,50,1,0
55631,-100,4,2,1,50,0,1
67631,-100,4,2,1,50,0,0
115631,-100,4,2,1,50,0,1
127631,-100,4,2,1,50,0,0
198881,-100,4,2,1,40,0,0
199256,-100,4,2,1,30,0,0
199818,-100,4,2,1,20,0,0
200381,-100,4,2,1,10,0,0
202068,-100,4,2,1,5,0,0
204881,-100,4,2,1,50,0,1
240881,-100,4,2,1,50,0,0
287381,-100,4,2,1,40,0,0
298631,-100,4,2,1,30,0,0

[Colours]
Combo1 : 128,128,255
Combo2 : 255,128,255
Combo3 : 159,13,247

[HitObjects]
84,76,881,6,0,P|120:80|156:112,1,80,4|0,0:0|0:0,0:0:0:0:
88,152,1631,1,8,0:0:0:0:
144,208,2006,1,8,0:0:0:0:
200,264,2381,1,2,0:0:0:0:
256,320,2756,1,8,0:0:0:0:
336,320,3131,6,0,B|300:236|368:236|328:160,1,160,2|2,0:0|0:0,0:0:0:0:
280,104,4256,1,8,0:0:0:0:
216,56,4631,2,0,L|148:8,1,80,8|2,0:0|0:0,0:0:0:0:
96,72,5381,2,0,L|161:118,1,80,2|8,0:0|0:0,0:0:0:0:
224,168,6131,1,2,0:0:0:0:
272,320,6881,5,8,0:0:0:0:
208,280,7256,1,8,0:0:0:0:
280,240,7631,1,2,0:0:0:0:
416,160,8381,5,8,0:0:0:0:
480,208,8756,1,2,0:0:0:0:
408,240,9131,2,0,P|336:152|368:104,1,160,2|8,0:0|0:0,0:0:0:0:
188,120,10631,2,0,P|192:196|127:235,1,160,2|8,0:0|0:0,0:0:0:0:
124,156,11756,1,2,0:0:0:0:
132,76,12131,1,4,0:0:0:0:
200,178,12881,6,0,L|120:154,1,80,2|0,0:0|0:0,0:0:0:0:
248,104,13631,2,0,P|280:176|248:280,1,160,8|2,0:0|0:0,0:0:0:0:
328,312,14756,1,8,0:0:0:0:
248,336,15131,2,0,P|208:344|88:304,2,160,2|4|2,0:0|0:0|0:0,0:0:0:0:
224,168,17381,6,0,P|208:208|216:256,1,80,8|0,0:0|0:0,0:0:0:0:
288,272,18131,2,0,P|304:232|288:184,1,80
296,104,18881,1,0,0:0:0:0:
232,40,19256,1,0,0:0:0:0:
136,72,19631,6,0,L|56:104,1,80,2|0,0:0|0:0,0:0:0:0:
56,192,20381,1,8,0:0:0:0:
128,240,20756,1,8,0:0:0:0:
208,192,21131,2,0,L|344:104,2,160,8|2|8,0:0|0:0|0:0,0:0:0:0:
376,248,23381,2,0,P|424:256|464:264,2,80
160,128,27881,5,4,0:0:0:0:
108,304,30881,5,8,0:0:0:0:
64,240,31256,1,8,0:0:0:0:
144,232,31631,2,0,P|124:184|88:164,2,80,2|0|0,0:0|0:0|0:0,0:0:0:0:
108,304,32756,1,8,0:0:0:0:
176,348,33131,1,8,0:0:0:0:
248,320,33506,1,8,0:0:0:0:
332,332,33881,6,0,B|320:304|320:304|384:296|416:252|400:200,1,160,2|0,0:0|0:0,0:0:0:0:
324,224,35006,1,8,0:0:0:0:
368,156,35381,2,0,B|383:127|383:127|340:95,1,80,2|0,0:0|0:0,0:0:0:0:
276,64,36131,1,8,0:0:0:0:
256,224,36881,6,0,L|256:308,2,80,2|0|8,0:0|0:0|0:0,0:0:0:0:
256,64,38381,2,0,L|340:64,2,80,2|0|8,0:0|0:0|0:0,0:0:0:0:
96,64,39881,2,0,P|56:96|40:140,1,80,2|0,0:0|0:0,0:0:0:0:
128,144,40631,1,2,0:0:0:0:
79,219,41381,1,8,0:0:0:0:
160,256,41756,1,2,0:0:0:0:
8,184,42131,6,0,L|88:224,1,80,8|0,0:0|0:0,0:0:0:0:
160,168,42881,1,2,0:0:0:0:
79,219,43256,1,2,0:0:0:0:
168,248,43631,2,0,P|200:264|336:240,1,160,8|0,0:0|0:0,0:0:0:0:
256,144,44756,1,4,0:0:0:0:
288,24,45131,5,0,0:0:0:0:
368,72,45881,2,0,P|448:88|464:160,1,160,8|0,0:0|0:0,0:0:0:0:
264,216,47381,2,0,L|344:192,1,80,2|0,0:0|0:0,0:0:0:0:
328,288,48131,1,2,0:0:0:0:
472,184,48881,5,8,0:0:0:0:
384,208,49256,2,0,L|296:224,1,80,8|4,0:0|0:0,0:0:0:0:
168,112,50381,5,8,0:0:0:0:
120,192,50756,2,0,L|136:280,1,80,8|4,0:0|0:0,0:0:0:0:
344,184,51881,6,0,L|304:344,1,160,2|0,0:0|0:0,0:0:0:0:
408,240,53381,1,8,0:0:0:0:
360,160,53756,2,0,P|320:168|264:160,1,80,2|0,0:0|0:0,0:0:0:0:
104,96,54881,5,8,0:0:0:0:
104,184,55256,1,8,0:0:0:0:
192,136,55631,6,0,L|240:56,1,80,4|0,0:0|0:0,0:0:0:0:
296,168,56381,2,0,L|254:236,1,80,2|0,0:0|0:0,0:0:0:0:
128,240,57131,2,0,P|160:296|192:304,1,80,4|0,0:0|0:0,0:0:0:0:
264,216,57881,1,2,0:0:0:0:
288,304,58256,1,2,0:0:0:0:
384,232,58631,6,0,P|440:208|480:224,3,80
320,136,60131,1,2,0:0:0:0:
248,192,60506,1,2,0:0:0:0:
168,160,60881,1,4,0:0:0:0:
88,200,61256,1,2,0:0:0:0:
56,80,61631,6,0,P|104:88|136:88,1,80,4|0,0:0|0:0,0:0:0:0:
272,128,62381,2,0,P|232:160|223:192,1,80,2|0,0:0|0:0,0:0:0:0:
304,200,63131,2,0,P|336:232|328:280,1,80,4|0,0:0|0:0,0:0:0:0:
336,312,63693,1,2,0:0:0:0:
336,352,63881,2,0,P|376:360|416:344,1,80,4|0,0:0|0:0,0:0:0:0:
480,312,64631,5,2,0:0:0:0:
440,240,65006,1,0,0:0:0:0:
456,160,65381,2,0,P|424:128|376:112,1,80
328,176,66131,2,0,P|288:200|240:192,1,80
96,64,66881,6,0,P|128:96|168:96,1,80
56,192,67631,6,0,P|40:240|104:344,1,160,4|0,0:0|0:0,0:0:0:0:
168,296,68756,1,8,0:0:0:0:
256,264,69131,2,0,L|344:240,1,80,2|0,0:0|0:0,0:0:0:0:
384,320,69881,2,0,L|464:336,1,80,2|0,0:0|0:0,0:0:0:0:
448,184,70631,6,0,P|464:224|437:272,1,80,8|8,0:0|0:0,0:0:0:0:
384,320,71381,2,0,P|368:272|384:240,1,80
240,280,72131,2,0,L|136:296,1,80,4|0,0:0|0:0,0:0:0:0:
80,152,72881,6,0,P|72:200|88:248,1,80,2|0,0:0|0:0,0:0:0:0:
80,320,73631,1,2,0:0:0:0:
176,200,74381,6,0,P|192:152|168:96,2,80,2|0|8,0:0|0:0|0:0,0:0:0:0:
272,192,75881,1,8,0:0:0:0:
384,184,76631,6,0,L|328:264,1,80,2|0,0:0|0:0,0:0:0:0:
240,216,77381,2,0,P|224:256|272:296,1,80,8|0,0:0|0:0,0:0:0:0:
328,328,78131,1,2,0:0:0:0:
464,272,78881,5,2,0:0:0:0:
392,304,79256,6,0,B|336:284|336:284|280:288,1,80,4|0,0:0|0:0,0:0:0:0:
160,304,80381,2,0,B|112:312|112:312|64:288,1,80,2|0,0:0|0:0,0:0:0:0:
128,232,81131,1,4,0:0:0:0:
88,168,81506,2,0,P|116:124|176:108,1,80,4|0,0:0|0:0,0:0:0:0:
216,96,82256,2,0,P|188:52|128:36,1,80,2|0,0:0|0:0,0:0:0:0:
88,16,83006,1,2,0:0:0:0:
48,88,83381,2,0,L|100:164,2,80,8|0|4,0:0|0:0|0:0,0:0:0:0:
260,216,84881,5,8,0:0:0:0:
180,200,85256,2,0,P|192:162|225:141,1,80,8|0,0:0|0:0,0:0:0:0:
304,128,86381,5,8,0:0:0:0:
360,184,86756,1,2,0:0:0:0:
440,168,87131,1,8,0:0:0:0:
508,128,87506,2,0,P|472:92|420:92,3,80,2|0|2|0,0:0|0:0|0:0|0:0,0:0:0:0:
364,88,89006,1,8,0:0:0:0:
312,144,89381,2,0,P|272:176|240:192,1,80,2|0,0:0|0:0,0:0:0:0:
400,280,90131,6,0,P|408:240|392:192,1,80,4|0,0:0|0:0,0:0:0:0:
312,160,90881,1,8,0:0:0:0:
312,248,91256,1,8,0:0:0:0:
176,312,91631,6,0,P|136:344|64:256,1,160,2|0,0:0|0:0,0:0:0:0:
88,192,92756,1,8,0:0:0:0:
168,144,93131,2,0,L|248:112,1,80,2|0,0:0|0:0,0:0:0:0:
208,32,93881,2,0,L|128:64,1,80,8|0,0:0|0:0,0:0:0:0:
376,64,94631,6,0,L|456:96,1,80,8|0,0:0|0:0,0:0:0:0:
376,152,95381,2,0,L|296:168,1,80,8|0,0:0|0:0,0:0:0:0:
208,184,96131,1,2,0:0:0:0:
256,288,96881,5,8,0:0:0:0:
320,344,97256,1,8,0:0:0:0:
240,368,97631,2,0,L|160:376,1,80,4|0,0:0|0:0,0:0:0:0:
72,384,98381,2,0,P|88:328|80:296,1,80,2|0,0:0|0:0,0:0:0:0:
72,224,99131,1,8,0:0:0:0:
168,64,99881,2,0,L|240:112,1,80,8|0,0:0|0:0,0:0:0:0:
288,312,100631,6,0,P|312:264|296:224,1,80,4|0,0:0|0:0,0:0:0:0:
360,160,101381,1,4,0:0:0:0:
400,248,101756,1,8,0:0:0:0:
352,320,102131,1,2,0:0:0:0:
24,280,102881,5,8,0:0:0:0:
104,284,103256,2,0,P|164:312|196:304,1,80,2|0,0:0|0:0,0:0:0:0:
160,152,104381,2,0,P|127:128|88:125,2,80,2|0|0,0:0|0:0|0:0,0:0:0:0:
312,96,105881,1,8,0:0:0:0:
384,136,106256,1,8,0:0:0:0:
360,224,106631,1,2,0:0:0:0:
424,272,107006,1,8,0:0:0:0:
360,320,107381,2,0,P|320:344|288:352,2,80,2|0|0,0:0|0:0|0:0,0:0:0:0:
216,240,108881,5,8,0:0:0:0:
152,192,109256,2,0,P|112:176|64:192,1,80,2|0,0:0|0:0,0:0:0:0:
104,344,110381,1,8,0:0:0:0:
256,296,111131,1,8,0:0:0:0:
392,216,111881,6,0,B|432:192|432:192|488:216,1,80,2|0,0:0|0:0,0:0:0:0:
456,128,112631,2,0,B|425:114|425:114|385:138,1,80,8|0,0:0|0:0,0:0:0:0:
320,192,113381,5,2,0:0:0:0:
248,232,113756,1,8,0:0:0:0:
176,200,114131,1,4,0:0:0:0:
224,320,114881,5,8,0:0:0:0:
136,264,115256,1,8,0:0:0:0:
328,320,115631,6,0,P|376:336|416:328,1,80,4|0,0:0|0:0,0:0:0:0:
344,248,116381,2,0,P|304:232|264:240,1,80
200,184,117131,2,0,P|184:232|192:280,1,80,4|0,0:0|0:0,0:0:0:0:
248,320,117881,2,0,P|264:280|248:224,1,80
320,128,118631,5,4,0:0:0:0:
392,72,119006,1,0,0:0:0:0:
448,136,119381,1,4,0:0:0:0:
384,192,119756,1,0,0:0:0:0:
192,224,120131,5,4,0:0:0:0:
120,168,120506,1,0,0:0:0:0:
56,232,120881,1,4,0:0:0:0:
128,280,121256,1,0,0:0:0:0:
304,288,121631,6,0,P|352:304|384:296,1,80,2|0,0:0|0:0,0:0:0:0:
304,368,122381,2,0,P|264:376|224:360,1,80,4|0,0:0|0:0,0:0:0:0:
152,320,123131,2,0,P|136:280|144:240,1,80,2|0,0:0|0:0,0:0:0:0:
176,208,123693,1,4,0:0:0:0:
224,184,123881,2,0,P|240:136|216:88,1,80
312,240,124631,2,0,L|400:216,1,80,4|0,0:0|0:0,0:0:0:0:
432,296,125381,2,0,L|512:272,1,80,2|0,0:0|0:0,0:0:0:0:
464,200,126131,1,4,0:0:0:0:
256,80,126881,5,8,0:0:0:0:
216,152,127256,1,8,0:0:0:0:
144,120,127631,1,2,0:0:0:0:
152,224,128381,6,0,L|224:272,1,80,2|0,0:0|0:0,0:0:0:0:
288,312,129131,2,0,B|344:336|344:336|376:280|424:264,1,160,4|0,0:0|0:0,0:0:0:0:
480,224,130256,1,8,0:0:0:0:
416,184,130631,2,0,B|376:160|376:160|360:120,1,80,2|0,0:0|0:0,0:0:0:0:
336,56,131381,1,8,0:0:0:0:
256,72,131756,2,0,B|225:84|225:84|201:124,1,80,2|4,0:0|0:0,0:0:0:0:
256,272,132881,6,0,L|256:352,2,80,8|0|0,0:0|0:0|0:0,0:0:0:0:
400,192,134381,2,0,L|480:192,2,80,2|0|0,0:0|0:0|0:0,0:0:0:0:
320,192,135506,2,0,L|320:112,1,80,4|0,0:0|0:0,0:0:0:0:
320,32,136256,1,8,0:0:0:0:
248,64,136631,2,0,P|192:96|184:136,1,80,2|0,0:0|0:0,0:0:0:0:
176,184,137381,6,0,P|152:215|114:227,1,80,8|0,0:0|0:0,0:0:0:0:
32,224,138131,1,4,0:0:0:0:
200,168,138881,5,8,0:0:0:0:
248,240,139256,1,8,0:0:0:0:
184,296,139631,2,0,L|104:320,1,80,4|0,0:0|0:0,0:0:0:0:
320,208,140381,5,8,0:0:0:0:
240,176,140756,1,8,0:0:0:0:
272,96,141131,2,2,P|280:56|384:56,2,160
144,128,143381,6,0,L|232:152,1,80,8|0,0:0|0:0,0:0:0:0:
272,224,144131,2,0,L|360:200,1,80,4|0,0:0|0:0,0:0:0:0:
368,288,144881,1,8,0:0:0:0:
448,320,145256,1,4,0:0:0:0:
240,336,145631,6,0,P|200:344|160:336,1,80,2|0,0:0|0:0,0:0:0:0:
112,256,146381,2,0,P|144:248|192:256,1,80,4|0,0:0|0:0,0:0:0:0:
264,200,147131,2,0,P|272:152|248:32,1,160,4|0,0:0|0:0,0:0:0:0:
432,184,148631,6,0,L|520:168,1,80,8|0,0:0|0:0,0:0:0:0:
480,256,149381,1,4,0:0:0:0:
384,272,149756,1,2,0:0:0:0:
304,320,150131,5,8,0:0:0:0:
344,336,150881,5,8,0:0:0:0:
424,312,151256,1,8,0:0:0:0:
448,240,151631,1,2,0:0:0:0:
312,144,152381,2,0,B|312:208|312:208|256:176|224:216,1,160
112,336,153881,5,8,0:0:0:0:
80,264,154256,1,8,0:0:0:0:
112,192,154631,1,2,0:0:0:0:
168,136,155006,1,8,0:0:0:0:
232,96,155381,2,0,P|200:64|152:64,2,80,2|0|0,0:0|0:0|0:0,0:0:0:0:
360,184,156881,6,0,L|424:264,1,80,2|0,0:0|0:0,0:0:0:0:
456,312,157631,1,4,0:0:0:0:
296,344,158381,1,4,0:0:0:0:
136,328,159131,1,4,0:0:0:0:
240,208,159881,5,2,0:0:0:0:
304,256,160256,1,2,0:0:0:0:
352,192,160631,2,0,L|288:144,1,80,8|0,0:0|0:0,0:0:0:0:
336,80,161381,6,0,L|408:136,1,80,8|0,0:0|0:0,0:0:0:0:
104,144,162131,6,0,L|88:56,1,80,2|0,0:0|0:0,0:0:0:0:
160,24,162881,1,8,0:0:0:0:
216,88,163256,1,8,0:0:0:0:
328,160,163631,6,0,P|336:200|328:248,1,80,2|0,0:0|0:0,0:0:0:0:
232,248,164381,2,0,P|224:216|232:168,1,80
240,80,165131,1,0,0:0:0:0:
368,160,165881,2,0,P|344:192|296:192,1,80,8|0,0:0|0:0,0:0:0:0:
200,192,166631,5,8,0:0:0:0:
136,248,167006,1,8,0:0:0:0:
200,312,167381,1,2,0:0:0:0:
272,256,167756,1,8,0:0:0:0:
344,304,168131,1,8,0:0:0:0:
416,184,168881,6,0,L|448:272,1,80,4|0,0:0|0:0,0:0:0:0:
352,256,169631,2,0,P|272:240|200:288,1,160,8|0,0:0|0:0,0:0:0:0:
120,240,170756,1,8,0:0:0:0:
184,40,171131,6,0,L|208:120,1,80,2|0,0:0|0:0,0:0:0:0:
296,160,171881,2,0,L|272:80,1,80,2|0,0:0|0:0,0:0:0:0:
416,176,172631,5,2,0:0:0:0:
496,224,173006,1,2,0:0:0:0:
440,304,173381,2,0,P|408:336|360:328,2,80,4|0|0,0:0|0:0|0:0,0:0:0:0:
304,200,174881,6,0,P|248:176|200:176,2,80,8|0|0,0:0|0:0|0:0,0:0:0:0:
184,312,176381,2,0,P|120:328|88:320,1,80,8|0,0:0|0:0,0:0:0:0:
32,312,177131,1,8,0:0:0:0:
88,256,177506,1,8,0:0:0:0:
40,192,177881,1,4,0:0:0:0:
120,168,178256,1,8,0:0:0:0:
192,208,178631,2,0,P|248:240|344:192,1,160,2|0,0:0|0:0,0:0:0:0:
264,168,179756,2,0,L|264:88,1,80,2|4,0:0|0:0,0:0:0:0:
416,136,180881,6,0,L|384:216,1,80,8|0,0:0|0:0,0:0:0:0:
352,280,181631,1,4,0:0:0:0:
192,280,182381,2,0,L|160:200,1,80,8|0,0:0|0:0,0:0:0:0:
128,136,183131,1,4,0:0:0:0:
288,104,183881,6,0,P|344:104|384:128,1,80,8|0,0:0|0:0,0:0:0:0:
320,184,184631,2,0,P|312:248|296:280,1,80,4|0,0:0|0:0,0:0:0:0:
240,208,185381,5,8,0:0:0:0:
200,280,185756,1,8,0:0:0:0:
136,328,186131,1,2,0:0:0:0:
176,120,186881,1,8,0:0:0:0:
256,88,187256,1,8,0:0:0:0:
328,192,187631,6,0,P|336:232|328:272,1,80,4|0,0:0|0:0,0:0:0:0:
240,288,188381,2,0,P|232:248|240:200,1,80,8|0,0:0|0:0,0:0:0:0:
152,176,189131,2,0,P|152:232|136:264,1,80,4|0,0:0|0:0,0:0:0:0:
104,264,189693,1,2,0:0:0:0:
72,288,189881,2,0,P|64:336|80:384,1,80,4|0,0:0|0:0,0:0:0:0:
232,272,190631,5,8,0:0:0:0:
320,192,191381,2,0,P|336:144|320:104,1,80,2|0,0:0|0:0,0:0:0:0:
256,72,192131,1,8,0:0:0:0:
176,96,192506,1,8,0:0:0:0:
144,176,192881,1,2,0:0:0:0:
176,256,193256,1,8,0:0:0:0:
256,360,193631,6,0,P|304:368|352:352,1,80,2|0,0:0|0:0,0:0:0:0:
288,280,194381,1,8,0:0:0:0:
200,248,194756,1,8,0:0:0:0:
256,184,195131,2,0,P|296:168|352:176,1,80,2|0,0:0|0:0,0:0:0:0:
192,64,195881,1,8,0:0:0:0:
104,72,196256,1,8,0:0:0:0:
88,200,196631,6,0,P|80:240|104:312,1,80,2|0,0:0|0:0,0:0:0:0:
176,320,197381,2,0,P|184:272|168:216,1,80,2|0,0:0|0:0,0:0:0:0:
264,208,198131,1,8,0:0:0:0:
144,288,198881,5,0,0:0:0:0:
104,224,199256,2,0,L|72:168,1,40
152,144,199818,2,0,L|186:124,1,40
240,184,200381,2,0,L|259:218,1,40
296,288,200943,1,0,0:0:0:0:
312,320,201131,1,0,0:0:0:0:
392,328,201506,1,0,0:0:0:0:
432,312,201693,1,0,0:0:0:0:
424,232,202068,1,0,0:0:0:0:
416,192,202256,1,0,0:0:0:0:
104,80,204131,6,0,P|96:120|112:176,1,80,2|0,0:0|0:0,0:0:0:0:
256,136,204881,2,0,P|296:128|344:144,1,80,4|0,0:0|0:0,0:0:0:0:
384,216,205631,1,8,0:0:0:0:
432,296,206006,1,8,0:0:0:0:
224,288,206381,6,0,L|312:320,2,80,4|0|0,0:0|0:0|0:0,0:0:0:0:
176,296,207318,1,2,0:0:0:0:
136,304,207506,1,2,0:0:0:0:
32,112,207881,6,0,P|48:152|40:192,1,80,4|0,0:0|0:0,0:0:0:0:
144,208,208631,2,0,P|152:168|120:104,1,80,2|0,0:0|0:0,0:0:0:0:
208,64,209381,1,2,0:0:0:0:
296,104,209756,1,2,0:0:0:0:
296,192,210131,1,2,0:0:0:0:
208,232,210506,1,4,0:0:0:0:
168,256,210693,1,4,0:0:0:0:
128,280,210881,6,0,P|104:328|112:368,1,80,8|0,0:0|0:0,0:0:0:0:
192,384,211631,1,2,0:0:0:0:
208,304,212006,1,2,0:0:0:0:
152,152,212381,2,0,P|176:200|176:232,1,80,4|0,0:0|0:0,0:0:0:0:
264,224,213131,2,0,P|264:184|248:144,1,80,2|0,0:0|0:0,0:0:0:0:
368,40,213881,5,2,0:0:0:0:
416,120,214256,1,2,0:0:0:0:
376,200,214631,1,2,0:0:0:0:
296,224,215006,1,2,0:0:0:0:
224,176,215381,1,4,0:0:0:0:
112,296,216131,5,2,0:0:0:0:
184,264,216506,1,2,0:0:0:0:
256,288,216881,1,4,0:0:0:0:
384,192,217631,2,0,L|448:144,1,80,4|0,0:0|0:0,0:0:0:0:
376,104,218381,2,0,L|312:152,1,80,2|0,0:0|0:0,0:0:0:0:
248,200,219131,1,4,0:0:0:0:
184,144,219506,1,0,0:0:0:0:
232,80,219881,2,0,B|336:56|296:128|416:88,1,160,2|0,0:0|0:0,0:0:0:0:
416,24,221006,2,0,P|456:56|472:104,1,80,4|0,0:0|0:0,0:0:0:0:
472,240,222131,5,2,0:0:0:0:
424,304,222506,1,2,0:0:0:0:
376,368,222881,1,4,0:0:0:0:
256,256,223631,1,2,0:0:0:0:
192,296,224006,1,2,0:0:0:0:
128,336,224381,1,4,0:0:0:0:
32,200,225131,6,0,P|88:176|120:184,1,80
104,80,225881,2,0,B|152:80|192:128,1,80,2|0,0:0|0:0,0:0:0:0:
224,176,226631,5,2,0:0:0:0:
296,216,227006,1,2,0:0:0:0:
376,232,227381,1,4,0:0:0:0:
272,216,228131,5,2,0:0:0:0:
296,304,228506,1,2,0:0:0:0:
120,168,228881,6,0,P|104:208|128:272,1,80,8|0,0:0|0:0,0:0:0:0:
208,168,229631,2,0,P|216:120|192:72,1,80,4|0,0:0|0:0,0:0:0:0:
376,32,230381,5,2,0:0:0:0:
336,112,230756,1,2,0:0:0:0:
456,80,231131,5,2,0:0:0:0:
336,112,231506,1,4,0:0:0:0:
352,152,231693,1,4,0:0:0:0:
360,192,231881,6,0,P|368:248|360:280,1,80,8|0,0:0|0:0,0:0:0:0:
272,304,232631,2,0,P|264:256|280:208,1,80,4|0,0:0|0:0,0:0:0:0:
272,136,233381,1,2,0:0:0:0:
200,56,234131,5,8,0:0:0:0:
128,112,234506,1,8,0:0:0:0:
72,264,234881,6,0,P|120:248|168:264,1,80,2|0,0:0|0:0,0:0:0:0:
224,304,235631,2,0,P|272:312|320:296,1,80,4|0,0:0|0:0,0:0:0:0:
384,264,236381,2,0,P|392:224|376:176,1,80,2|0,0:0|0:0,0:0:0:0:
336,112,237131,1,4,0:0:0:0:
376,32,237506,1,2,0:0:0:0:
216,32,237881,6,0,L|128:56,1,80,8|0,0:0|0:0,0:0:0:0:
64,152,238631,2,0,L|144:128,1,80,8|0,0:0|0:0,0:0:0:0:
192,200,239381,5,8,0:0:0:0:
328,312,240131,6,0,L|240:312,1,80,2|0,0:0|0:0,0:0:0:0:
168,312,240881,1,4,0:0:0:0:
56,192,241631,1,2,0:0:0:0:
128,224,242006,1,2,0:0:0:0:
200,200,242381,1,2,0:0:0:0:
264,248,242756,1,2,0:0:0:0:
336,216,243131,1,2,0:0:0:0:
392,272,243506,1,4,0:0:0:0:
456,224,243881,2,0,B|504:184|504:184|432:160|432:104,1,160,2|0,0:0|0:0,0:0:0:0:
416,40,245006,1,2,0:0:0:0:
352,80,245381,1,4,0:0:0:0:
200,136,246131,5,8,0:0:0:0:
128,104,246506,2,0,P|64:128|40:160,1,80,4|0,0:0|0:0,0:0:0:0:
168,248,247631,1,8,0:0:0:0:
240,280,248005,2,0,P|278:271|311:248,1,80,4|0,0:0|0:0,0:0:0:0:
368,104,249131,5,8,0:0:0:0:
296,136,249506,1,8,0:0:0:0:
232,88,249881,1,8,0:0:0:0:
200,160,250256,1,8,0:0:0:0:
152,224,250631,6,0,L|96:296,1,80,4|0,0:0|0:0,0:0:0:0:
64,56,251381,6,0,L|152:64,1,80,2|0,0:0|0:0,0:0:0:0:
216,120,252131,1,2,0:0:0:0:
176,200,252506,1,2,0:0:0:0:
360,176,252881,6,0,P|384:208|288:272,1,160,4|0,0:0|0:0,0:0:0:0:
232,256,254006,1,2,0:0:0:0:
136,264,254381,2,0,P|104:280|48:280,1,80,4|0,0:0|0:0,0:0:0:0:
96,192,255131,2,0,P|136:176|184:192,1,80,4|0,0:0|0:0,0:0:0:0:
192,40,255881,6,0,P|208:80|168:192,1,160,2|0,0:0|0:0,0:0:0:0:
272,160,257006,1,8,0:0:0:0:
376,232,257381,5,8,0:0:0:0:
288,288,257756,1,8,0:0:0:0:
208,224,258131,1,4,0:0:0:0:
128,288,258506,1,8,0:0:0:0:
72,96,258881,6,0,P|96:144|92:198,1,80,4|0,0:0|0:0,0:0:0:0:
184,184,259631,1,8,0:0:0:0:
248,248,260006,1,8,0:0:0:0:
216,328,260381,1,4,0:0:0:0:
400,296,261131,5,4,0:0:0:0:
312,312,261506,1,4,0:0:0:0:
288,104,261881,6,0,P|304:144|296:192,1,80,2|0,0:0|0:0,0:0:0:0:
208,176,262631,2,0,P|152:168|120:184,1,80,2|0,0:0|0:0,0:0:0:0:
56,224,263381,5,8,0:0:0:0:
352,296,264131,6,0,B|400:288|400:288|432:304,1,80,4|0,0:0|0:0,0:0:0:0:
464,232,264881,1,8,0:0:0:0:
400,184,265256,1,8,0:0:0:0:
328,216,265631,2,0,B|280:208|280:208|248:224,1,80,2|0,0:0|0:0,0:0:0:0:
208,288,266381,2,0,P|184:320|144:336,1,80,2|0,0:0|0:0,0:0:0:0:
128,264,267131,2,0,P|96:232|80:200,1,80,2|0,0:0|0:0,0:0:0:0:
160,184,267881,1,0,0:0:0:0:
280,128,268631,2,0,P|312:168|312:216,2,80,4|0|0,0:0|0:0|0:0,0:0:0:0:
128,72,270131,5,8,0:0:0:0:
48,72,270506,1,8,0:0:0:0:
48,152,270881,1,4,0:0:0:0:
136,288,271631,1,8,0:0:0:0:
136,368,272006,1,8,0:0:0:0:
56,368,272381,1,4,0:0:0:0:
136,224,273131,6,0,L|216:224,1,80,8|0,0:0|0:0,0:0:0:0:
296,224,273881,2,0,L|296:136,1,80,4|0,0:0|0:0,0:0:0:0:
296,64,274631,6,0,L|384:64,1,80,8|0,0:0|0:0,0:0:0:0:
456,64,275381,1,4,0:0:0:0:
192,168,276131,2,0,L|168:80,1,80,4|0,0:0|0:0,0:0:0:0:
296,40,276881,1,0,0:0:0:0:
304,144,277631,2,0,L|360:200,1,80
200,168,278381,6,0,L|144:240,1,80,2|0,0:0|0:0,0:0:0:0:
168,328,279131,2,0,L|224:264,1,80,2|0,0:0|0:0,0:0:0:0:
376,184,279881,1,0,0:0:0:0:
264,248,280631,2,0,P|240:288|200:296,1,80
133,319,281381,2,0,L|213:295,2,80,2|0|0,0:0|0:0|0:0,0:0:0:0:
80,104,282506,6,0,P|104:152|96:200,1,80,4|0,0:0|0:0,0:0:0:0:
200,152,283631,2,0,L|232:72,2,80,2|0|0,0:0|0:0|0:0,0:0:0:0:
368,144,285131,1,4,0:0:0:0:
320,224,285506,1,8,0:0:0:0:
96,272,285881,6,0,P|144:256|184:272,1,80,4|0,0:0|0:0,0:0:0:0:
155,186,286631,2,0,P|171:234|163:290,1,80,4|0,0:0|0:0,0:0:0:0:
168,352,287381,5,4,0:0:0:0:
256,328,288131,6,0,L|256:248,2,80,4|0|0,0:0|0:0|0:0,0:0:0:0:
96,328,289631,1,8,0:0:0:0:
96,248,290006,1,8,0:0:0:0:
96,168,290381,2,0,L|168:104,1,80,2|0,0:0|0:0,0:0:0:0:
216,56,291131,1,4,0:0:0:0:
296,56,291506,1,8,0:0:0:0:
360,112,291881,2,0,L|419:165,1,80,2|0,0:0|0:0,0:0:0:0:
480,216,292631,1,8,0:0:0:0:
424,272,293006,1,8,0:0:0:0:
352,304,293381,1,4,0:0:0:0:
256,176,294131,5,8,0:0:0:0:
216,248,294506,1,8,0:0:0:0:
296,248,294881,1,4,0:0:0:0:
136,248,295631,2,0,L|72:328,1,80,2|0,0:0|0:0,0:0:0:0:
40,248,296381,1,8,0:0:0:0:
112,104,297131,5,8,0:0:0:0:
184,128,297506,1,8,0:0:0:0:
264,120,297881,2,0,P|320:136|344:160,1,80,4|0,0:0|0:0,0:0:0:0:
304,224,298631,6,0,P|336:246|375:253,1,80,6|0,0:0|0:0,0:0:0:0:
304,144,299381,2,0,L|304:56,1,80,6|0,0:0|0:0,0:0:0:0:
216,64,300131,1,6,0:0:0:0:
