osu file format v14

[General]
AudioFilename: audio.mp3
AudioLeadIn: 0
PreviewTime: 71459
Countdown: 1
SampleSet: Soft
StackLeniency: 0.3
Mode: 0
LetterboxInBreaks: 0
WidescreenStoryboard: 1

[Editor]
Bookmarks: 8774,20415,34743,41907,56235,72355,86683,102803,117131,131459,147579,161907,176235,190564,204892,219332
DistanceSpacing: 1.5
BeatDivisor: 4
GridSize: 4
TimelineZoom: 1.6

[Metadata]
Title:3-nen C-gumi 14-ban Kubozono Chiyoko no Nyuukaku
TitleUnicode:3年C組14番窪園チヨコの入閣
Artist:Powapowa-P feat. Kagamine Rin
ArtistUnicode:Powapowa-P feat. 鏡音リン
Creator:Veridian
Version:Insane
Source:
Tags:entry into the cabinet chiyoko's year three class fourteen siina mota kokegane uta ikiru
BeatmapID:2051499
BeatmapSetID:980302

[Difficulty]
HPDrainRate:6
CircleSize:4
OverallDifficulty:6
ApproachRate:7.9
SliderMultiplier:2
SliderTickRate:1

[Events]
//Background and Video events
0,0,"sddsasasdasda.PNG",0,0
Video,0,"titbouncenoise.wav.avi"
//Break Periods
2,20415,26679
2,102803,108992
//Storyboard Layer 0 (Background)
//Storyboard Layer 1 (Fail)
//Storyboard Layer 2 (Pass)
//Storyboard Layer 3 (Foreground)
//Storyboard Sound Samples

[TimingPoints]
1609,447.761194029851,4,2,0,100,1,0
18624,447.761194029851,4,2,0,100,1,0
41907,-133.333333333333,4,2,0,100,0,0
56235,-200,4,1,0,50,0,0
72355,-100,4,2,0,100,0,1
86655,-100,4,2,0,100,0,0
86683,-100,4,2,0,100,0,1
101012,-100,4,2,0,100,0,0
102355,-100,4,2,0,50,0,0
109967,-100,4,2,0,100,0,0
117131,-133.333333333333,4,2,0,100,0,0
131459,-200,4,1,0,50,0,0
147579,-100,4,2,0,100,0,1
161879,-100,4,2,0,100,0,0
161907,-100,4,2,0,100,0,1
176207,-76.9230769230769,4,2,0,100,0,0
176235,-76.9230769230769,4,3,0,100,0,1
176683,-76.9230769230769,4,3,0,100,0,0
190564,-76.9230769230769,4,2,0,100,0,0

[Colours]
Combo1 : 190,235,86
Combo2 : 112,136,143
Combo3 : 64,115,251
Combo4 : 162,179,183
Combo5 : 253,120,64
Combo6 : 225,225,225
SliderTrackOverride : 231,237,168
SliderBorder : 234,237,211

[HitObjects]
176,96,8773,5,2,0:3:0:0:
145,267,9220,1,2,0:3:0:0:
65,159,9594,1,2,0:3:0:0:
257,193,9892,1,2,0:0:0:0:
161,177,10116,1,2,0:3:0:0:
161,177,10340,1,2,0:0:0:0:
336,96,10564,21,2,0:3:0:0:
367,267,11011,1,2,0:3:0:0:
447,159,11385,1,2,0:3:0:0:
255,193,11683,1,2,0:0:0:0:
351,177,11907,1,2,0:3:0:0:
351,177,12131,1,2,0:0:0:0:
176,96,12355,21,2,0:3:0:0:
145,267,12802,1,2,0:3:0:0:
65,159,13176,1,2,0:3:0:0:
257,193,13474,1,2,0:0:0:0:
161,177,13698,1,2,0:3:0:0:
161,177,13922,1,2,0:0:0:0:
320,56,14146,21,2,0:3:0:0:
192,56,14594,1,2,0:3:0:0:
351,177,15041,1,4,0:0:0:0:
256,192,15265,12,0,18176,1:0:0:0:
256,192,27579,21,2,0:0:0:0:
384,36,28026,1,2,0:0:0:0:
480,172,28400,2,0,L|353:149,1,100,2|0,0:0|0:0,0:0:0:0:
357,178,28698,1,2,0:0:0:0:
210,260,28922,2,0,P|254:276|312:251,1,100,10|0,0:0|0:0,0:0:0:0:
256,172,29370,21,2,0:0:0:0:
348,352,29818,1,2,0:0:0:0:
497,270,30191,2,0,L|479:171,1,100,2|0,0:0|0:0,0:0:0:0:
472,140,30489,1,0,0:0:0:0:
384,192,30713,1,8,0:0:0:0:
304,40,30937,1,0,0:0:0:0:
384,100,31161,21,2,0:0:0:0:
256,252,31609,1,2,0:0:0:0:
156,120,31982,2,0,L|254:137,1,100,2|0,0:0|0:0,0:0:0:0:
278,161,32280,1,2,0:0:0:0:
172,300,32504,2,0,P|155:253|171:207,1,100,8|0,0:0|0:0,0:0:0:0:
256,252,32952,21,2,0:0:0:0:
84,352,33400,1,2,0:0:0:0:
8,204,33773,2,0,L|30:72,1,133.333333333333,2|0,0:0|0:0,0:0:0:0:
44,0,34221,21,4,2:3:0:0:
44,0,34295,1,4,1:3:0:0:
108,120,34519,1,0,1:0:0:0:
180,40,34668,1,4,0:3:0:0:
180,40,34743,22,0,P|224:24|282:49,1,100,4|0,3:2|0:0,0:0:0:0:
352,104,35191,1,2,1:2:0:0:
408,152,35340,2,0,L|392:238,1,66.6666666666667,0|0,0:0|0:0,0:0:0:0:
420,241,35564,2,0,L|400:351,1,100,2|0,0:2|0:0,0:0:0:0:
426,363,35862,1,0,0:0:0:0:
320,308,36086,2,0,P|273:291|227:307,1,100,10|0,1:2|0:0,0:0:0:0:
164,248,36534,21,2,3:2:0:0:
274,378,36758,1,0,0:0:0:0:
96,292,36982,2,0,P|79:245|96:199,1,100,2|0,1:2|0:0,0:0:0:0:
164,172,37355,2,0,L|184:57,1,100,2|0,0:2|0:0,0:0:0:0:
157,49,37653,1,2,0:3:0:0:
292,8,37877,2,0,L|274:106,1,100,8|2,1:2|0:3,0:0:0:0:
344,180,38325,22,0,P|390:196|436:180,1,100,2|0,3:2|0:0,0:0:0:0:
344,280,38773,1,2,1:2:0:0:
280,240,38922,2,0,P|245:232|200:247,1,66.6666666666667,0|0,0:2|0:0,0:0:0:0:
191,265,39146,2,0,L|72:244,1,100,2|0,0:2|0:0,0:0:0:0:
68,271,39444,1,0,0:0:0:0:
24,144,39668,2,0,L|122:162,1,100,10|0,1:2|0:0,0:0:0:0:
184,88,40116,21,2,3:2:0:0:
280,240,40340,1,0,0:0:0:0:
327,177,40564,2,0,P|280:160|234:177,1,100,2|0,1:2|0:0,0:0:0:0:
280,240,40937,2,0,P|326:256|372:240,1,100,2|0,0:2|0:0,0:0:0:0:
432,192,41235,1,2,0:3:0:0:
328,80,41459,1,8,1:0:0:0:
416,72,41683,2,0,L|341:58,1,66.6666666666667,2|0,0:3|0:0,0:0:0:0:
328,80,41907,22,0,L|164:52,1,150.000005722046,2|0,0:0|0:0,0:0:0:0:
144,90,42504,1,2,0:0:0:0:
56,44,42728,2,0,P|45:87|64:152,1,100.000003814697,2|0,0:0|3:0,0:0:0:0:
168,196,43250,1,10,0:0:0:0:
76,260,43474,1,0,3:0:0:0:
208,364,43698,21,2,0:0:0:0:
208,364,43922,1,0,3:0:0:0:
243,288,44146,2,0,P|205:280|168:288,1,75.0000028610231,2|0,0:0|3:0,0:0:0:0:
134,322,44519,1,2,0:0:0:0:
336,372,45041,1,8,1:2:0:0:
388,316,45265,22,0,L|376:249,1,50.0000019073487,2|0,3:2|0:0,0:0:0:0:
397,248,45489,1,0,0:0:0:0:
280,192,45713,1,0,3:2:0:0:
440,136,45937,2,0,P|397:145|353:127,1,75.0000028610231,2|0,0:0|3:2,0:0:0:0:
332,101,46310,1,2,0:0:0:0:
256,280,46832,1,8,1:2:0:0:
124,316,47056,22,0,L|135:249,1,50.0000019073487,2|0,3:2|0:0,0:0:0:0:
115,248,47280,1,0,0:0:0:0:
232,192,47504,1,0,3:0:0:0:
72,136,47728,2,0,P|115:145|159:127,1,75.0000028610231,2|0,0:0|3:0,0:0:0:0:
180,101,48101,1,2,0:0:0:0:
256,280,48623,1,8,1:2:0:0:
316,208,48847,2,0,P|340:204|382:218,1,50.0000019073487,0|0,3:0|0:0,0:0:0:0:
384,228,49071,22,0,L|357:78,1,150.000005722046,2|2,0:0|0:0,0:0:0:0:
393,44,49668,1,0,0:0:0:0:
468,88,49892,2,0,L|486:190,1,100.000003814697,2|0,0:0|3:2,0:0:0:0:
507,320,50415,1,10,0:0:0:0:
384,228,50638,1,0,3:0:0:0:
288,284,50862,21,2,0:0:0:0:
288,284,51086,1,0,3:0:0:0:
325,359,51310,2,0,P|287:367|250:359,1,75.0000028610231,2|0,0:0|3:0,0:0:0:0:
217,323,51683,1,2,0:0:0:0:
384,228,52206,1,8,1:2:0:0:
312,152,52429,22,0,L|323:88,1,50.0000019073487,2|0,3:2|0:0,0:0:0:0:
302,84,52653,1,0,0:0:0:0:
408,40,52877,1,0,3:0:0:0:
397,154,53101,2,0,L|381:244,1,75.0000028610231,2|0,0:0|0:0,0:0:0:0:
419,263,53474,1,2,3:2:0:0:
256,16,53997,1,8,1:2:0:0:
200,152,54221,22,0,L|188:88,1,50.0000019073487,2|0,3:2|0:0,0:0:0:0:
210,84,54445,1,0,0:0:0:0:
104,40,54668,1,0,3:2:0:0:
115,154,54892,2,0,L|130:244,1,75.0000028610231,2|0,0:0|3:2,0:0:0:0:
92,263,55265,2,0,P|75:304|104:367,1,100.000003814697,6|2,0:0|0:3,0:0:0:0:
284,228,55788,1,2,0:0:0:0:
164,308,56012,1,2,0:3:0:0:
232,356,56235,22,0,B|284:388|324:360|328:360|332:360|376:332|424:356,1,200,4|0,0:0|0:0,0:0:0:0:
502,286,57579,1,0,0:0:0:0:
422,218,58026,2,0,P|398:274|426:358,2,150,2|2|0,0:2|0:2|0:0,0:0:0:0:
472,126,59818,22,0,B|420:94|380:122|376:122|372:122|328:150|280:126,1,200,4|0,0:0|0:0,0:0:0:0:
202,196,61162,1,0,0:0:0:0:
282,264,61609,2,0,P|306:208|278:124,1,150,2|2,0:2|0:2,0:0:0:0:
200,196,62952,1,2,0:0:0:0:
124,56,63400,22,0,B|148:104|120:148|120:152|120:156|92:196|124:248,1,200,4|0,0:0|0:0,0:0:0:0:
200,196,64743,1,0,0:0:0:0:
57,314,65191,2,0,P|113:338|197:310,2,150,2|2|0,0:2|0:2|0:0,0:0:0:0:
300,276,66982,22,0,L|281:378,1,100,2|0,0:2|0:0,0:0:0:0:
220,224,67877,2,0,L|237:125,1,100,2|0,0:2|0:0,0:0:0:0:
424,20,68773,21,2,0:2:0:0:
447,153,69221,1,2,0:2:0:0:
321,176,69668,1,2,0:2:0:0:
297,42,70116,1,2,0:2:0:0:
256,192,70564,12,4,71459,1:2:0:0:
156,96,72355,6,0,L|274:75,1,100,4|0,1:1|0:0,0:0:0:0:
352,176,72803,2,0,L|253:193,1,100,0|0,1:0|0:0,0:0:0:0:
208,248,73176,2,0,P|192:296|208:348,1,100,2|0,0:2|0:0,0:0:0:0:
230,368,73474,1,8,0:0:0:0:
312,296,73698,1,2,1:2:0:0:
416,332,73922,2,0,P|422:290|409:249,1,66.6666666666667,8|0,0:0|0:0,0:0:0:0:
443,240,74146,21,2,1:2:0:0:
352,176,74370,1,8,0:0:0:0:
450,158,74594,2,0,L|335:178,1,100,2|0,1:2|0:0,0:0:0:0:
299,123,74967,2,0,L|180:143,1,100,2|0,0:2|0:0,0:0:0:0:
174,114,75265,1,8,0:0:0:0:
200,220,75489,1,2,1:2:0:0:
248,40,75713,1,8,0:0:0:0:
100,68,75937,22,0,P|84:116|101:167,1,100,6|0,1:2|0:0,0:0:0:0:
199,219,76385,2,0,P|215:266|202:314,1,100,2|0,1:2|0:0,0:0:0:0:
160,376,76758,2,0,L|282:354,1,100,2|0,0:2|0:0,0:0:0:0:
284,384,77056,1,8,0:0:0:0:
364,232,77280,1,2,1:2:0:0:
448,380,77504,1,10,0:2:0:0:
344,316,77728,22,0,L|450:297,1,100,2|0,1:2|0:0,0:0:0:0:
512,148,78176,2,0,L|405:166,1,100,0|0,1:0|0:0,0:0:0:0:
348,80,78624,1,8,0:3:0:0:
292,200,78847,1,12,0:3:0:0:
450,72,79071,1,12,0:3:0:0:
280,0,79295,1,4,0:3:0:0:
212,168,79519,22,0,L|231:57,1,100,4|8,1:0|0:0,0:0:0:0:
292,200,79967,2,0,L|274:298,1,100,2|0,1:2|0:0,0:0:0:0:
222,350,80340,2,0,P|174:363|127:349,1,100,2|0,0:2|0:0,0:0:0:0:
101,323,80638,1,8,0:0:0:0:
160,172,80862,1,2,1:2:0:0:
178,274,81086,1,8,0:0:0:0:
68,236,81310,21,2,1:2:0:0:
97,71,81534,1,8,0:0:0:0:
285,163,81758,1,0,1:0:0:0:
258,188,81907,2,0,L|135:168,2,100,2|2|0,0:2|0:2|0:0,0:0:0:0:
285,163,82429,1,8,0:0:0:0:
344,80,82653,1,2,1:2:0:0:
371,238,82877,1,2,0:2:0:0:
447,190,83101,22,0,P|460:237|446:284,1,100,6|0,1:2|0:0,0:0:0:0:
294,286,83549,2,0,P|279:238|293:191,1,100,2|0,1:2|0:0,0:0:0:0:
340,136,83922,2,0,L|319:17,1,100,2|0,0:2|0:0,0:0:0:0:
349,11,84221,1,8,0:0:0:0:
244,104,84444,1,2,1:2:0:0:
424,76,84668,1,10,0:2:0:0:
224,16,84892,22,0,P|176:40|153:95,1,100,2|0,1:2|0:0,0:0:0:0:
56,160,85340,2,0,L|170:180,1,100,0|0,1:0|0:0,0:0:0:0:
180,203,85638,1,0,0:0:0:0:
244,104,85788,1,8,0:3:0:0:
88,252,86012,1,12,0:3:0:0:
176,320,86235,1,12,0:3:0:0:
56,160,86459,1,4,0:3:0:0:
13,259,86683,22,0,P|33:308|92:326,1,100,4|0,1:1|0:2,0:0:0:0:
88,252,87019,1,0,1:2:0:0:
232,380,87243,1,2,1:2:0:0:
368,260,87467,1,2,0:3:0:0:
271,204,87691,2,0,L|252:330,1,100,2|0,0:2|0:2,0:0:0:0:
320,356,88026,1,2,0:2:0:0:
375,346,88138,1,2,0:2:0:0:
430,336,88250,1,2,0:3:0:0:
369,165,88474,22,0,P|354:212|367:259,1,100,4|0,1:2|0:2,0:0:0:0:
436,212,88810,1,0,1:2:0:0:
276,112,89034,1,2,1:2:0:0:
432,32,89258,1,2,0:3:0:0:
276,112,89482,2,0,L|156:92,1,100,2|0,0:2|0:2,0:0:0:0:
156,20,89818,1,2,0:0:0:0:
112,52,89929,1,2,1:2:0:0:
100,104,90041,1,2,0:0:0:0:
124,152,90153,1,2,0:3:0:0:
168,176,90265,22,0,P|208:224|208:284,1,100,4|0,1:2|0:0,0:0:0:0:
212,344,90601,1,0,1:0:0:0:
292,212,90825,1,2,1:2:0:0:
380,344,91049,1,2,0:3:0:0:
292,212,91273,1,2,0:0:0:0:
384,160,91497,1,0,1:0:0:0:
384,160,91609,2,0,L|486:178,1,100,2|2,0:0|0:3,0:0:0:0:
365,62,92056,22,0,P|317:102|257:102,1,100,4|0,1:2|0:0,0:0:0:0:
200,108,92392,1,0,1:0:0:0:
92,24,92616,1,2,1:2:0:0:
60,224,92840,1,2,0:3:0:0:
28,124,93064,2,0,L|130:142,1,100,2|0,0:0|1:0,0:0:0:0:
160,216,93400,2,0,L|228:228,1,50,2|0,0:0|1:0,0:0:0:0:
292,236,93624,1,2,0:3:0:0:
339,312,93847,22,0,P|291:325|244:310,1,100,4|0,1:2|0:0,0:0:0:0:
194,376,94183,1,0,1:0:0:0:
292,236,94407,1,2,1:2:0:0:
394,376,94631,1,2,0:3:0:0:
277,137,94855,2,0,L|293:249,1,100,2|0,0:0|0:0,0:0:0:0:
376,236,95191,1,2,0:0:0:0:
386,181,95303,1,2,1:2:0:0:
396,126,95415,1,2,0:3:0:0:
232,36,95638,22,0,P|278:52|326:38,1,100,4|0,1:2|0:0,0:0:0:0:
408,36,95974,1,0,1:0:0:0:
291,235,96198,1,2,1:2:0:0:
188,124,96422,1,2,0:3:0:0:
291,235,96646,2,0,L|151:256,1,100,2|0,0:0|0:0,0:0:0:0:
168,328,96982,1,2,0:0:0:0:
124,360,97094,1,2,0:2:0:0:
68,360,97206,1,2,0:0:0:0:
32,320,97318,1,2,0:3:0:0:
32,264,97429,22,0,L|51:156,1,100,4|0,1:2|0:0,0:0:0:0:
0,104,97765,1,0,1:2:0:0:
152,192,97989,1,2,1:2:0:0:
96,12,98213,1,2,0:3:0:0:
152,192,98437,1,2,0:0:0:0:
232,32,98661,1,0,1:2:0:0:
232,32,98773,2,0,P|280:72|340:72,1,100,2|2,0:0|0:3,0:0:0:0:
448,116,99221,22,0,P|399:126|364:160,1,100,4|0,1:2|0:0,0:0:0:0:
364,244,99556,1,0,1:2:0:0:
260,196,99780,1,2,1:2:0:0:
456,244,100004,21,0,0:0:0:0:
456,244,100116,1,2,1:2:0:0:
440,296,100228,1,2,0:0:0:0:
396,328,100340,1,2,0:3:0:0:
340,328,100452,1,2,1:3:0:0:
292,300,100564,1,2,0:0:0:0:
244,272,100676,1,2,1:2:0:0:
188,272,100788,1,2,0:3:0:0:
140,296,100900,1,2,0:3:0:0:
124,336,101012,6,0,L|218:319,3,83.3333333333333,0|0|0|0,3:0|3:0|1:0|3:0,0:0:0:0:
206,321,102355,1,8,0:2:0:0:
332,344,109892,21,0,0:0:0:0:
332,344,109967,2,0,P|288:360|230:335,1,100,4|0,3:2|0:0,0:0:0:0:
160,280,110415,1,2,1:2:0:0:
104,232,110564,2,0,L|120:146,1,66.6666666666667,0|0,0:0|0:0,0:0:0:0:
92,143,110788,2,0,L|112:33,1,100,2|0,0:2|0:0,0:0:0:0:
86,21,111086,1,0,0:0:0:0:
192,76,111310,2,0,P|239:93|285:77,1,100,10|0,1:2|0:0,0:0:0:0:
348,136,111758,21,2,3:2:0:0:
238,6,111982,1,0,0:0:0:0:
416,92,112206,2,0,P|433:139|416:185,1,100,2|0,1:2|0:0,0:0:0:0:
348,212,112579,2,0,L|328:327,1,100,2|0,0:2|0:0,0:0:0:0:
355,335,112877,1,2,0:3:0:0:
220,376,113101,2,0,L|238:278,1,100,8|2,1:2|0:3,0:0:0:0:
168,204,113549,22,0,P|122:188|76:204,1,100,2|0,3:2|0:0,0:0:0:0:
168,104,113997,1,2,1:2:0:0:
232,144,114146,2,0,P|267:152|312:137,1,66.6666666666667,0|0,0:2|0:0,0:0:0:0:
321,119,114370,2,0,L|440:140,1,100,2|0,0:2|0:0,0:0:0:0:
444,113,114668,1,0,0:0:0:0:
488,240,114892,2,0,L|390:222,1,100,10|0,1:2|0:0,0:0:0:0:
328,296,115340,21,2,3:2:0:0:
232,144,115564,1,0,0:0:0:0:
185,207,115788,2,0,P|232:224|278:207,1,100,2|0,1:2|0:0,0:0:0:0:
232,144,116161,2,0,P|186:128|140:144,1,100,2|0,0:2|0:0,0:0:0:0:
80,192,116459,1,2,0:3:0:0:
184,304,116683,1,8,1:0:0:0:
96,312,116907,2,0,L|171:326,1,66.6666666666667,2|0,0:3|0:0,0:0:0:0:
184,304,117131,22,0,L|344:328,1,150.000005722046,2|0,0:0|0:0,0:0:0:0:
372,292,117728,1,2,0:0:0:0:
444,344,117952,2,0,B|456:292|456:292|440:224,1,100.000003814697,2|0,0:0|0:3,0:0:0:0:
376,192,118474,1,10,0:0:0:0:
448,88,118698,1,0,0:3:0:0:
272,192,118922,21,2,0:0:0:0:
272,192,119146,1,0,0:3:0:0:
304,120,119370,2,0,P|263:112|220:128,1,75.0000028610231,2|0,0:0|0:3,0:0:0:0:
195,157,119743,1,2,0:0:0:0:
52,56,120265,1,8,1:0:0:0:
112,132,120489,22,0,L|102:187,1,50.0000019073487,2|0,3:2|0:0,0:0:0:0:
120,200,120713,2,0,L|92:360,1,150.000005722046,2|0,0:0|0:0,0:0:0:0:
136,380,121310,1,0,0:0:0:0:
16,302,121534,1,2,0:0:0:0:
460,56,122056,1,8,1:0:0:0:
400,132,122280,22,0,L|409:187,1,50.0000019073487,2|0,3:2|0:0,0:0:0:0:
392,200,122504,2,0,L|420:360,1,150.000005722046,2|0,0:0|0:0,0:0:0:0:
376,380,123101,1,2,0:0:0:0:
496,302,123325,1,2,0:0:0:0:
256,116,123847,1,8,1:0:0:0:
184,92,124071,2,0,P|179:119|196:156,1,50.0000019073487,0|0,3:2|0:0,0:0:0:0:
196,164,124295,22,0,P|224:224|184:308,1,150.000005722046,2|0,0:0|0:0,0:0:0:0:
158,335,124892,1,2,0:0:0:0:
80,384,125116,2,0,B|64:340|64:340|84:280,1,100.000003814697,2|0,0:0|3:2,0:0:0:0:
140,232,125638,1,10,0:0:0:0:
36,124,125862,1,0,3:0:0:0:
192,52,126086,21,2,0:0:0:0:
192,52,126310,1,0,3:0:0:0:
228,124,126534,2,0,P|191:134|151:123,1,75.0000028610231,2|0,0:0|3:0,0:0:0:0:
112,96,126907,1,2,0:0:0:0:
316,52,127429,1,8,0:0:0:0:
370,106,127653,22,0,L|359:165,1,50.0000019073487,0|0,3:0|0:0,0:0:0:0:
379,173,127877,1,2,0:0:0:0:
356,296,128101,1,0,3:0:0:0:
456,200,128325,2,0,P|460:172|446:133,2,50.0000019073487,2|0|0,0:0|0:0|0:0,0:0:0:0:
448,220,128698,1,2,0:0:0:0:
256,116,129221,1,8,1:0:0:0:
142,106,129444,22,0,L|152:165,1,50.0000019073487,2|0,3:2|0:0,0:0:0:0:
133,173,129668,1,0,0:0:0:0:
156,296,129892,1,0,3:2:0:0:
56,200,130116,2,0,P|52:172|66:133,2,50.0000019073487,2|0|0,0:0|0:0|0:0,0:0:0:0:
64,224,130489,2,0,P|72:264|60:304,1,75.0000028610231,6|0,0:0|0:0,0:0:0:0:
52,320,130788,1,2,3:0:0:0:
204,220,131012,1,0,0:0:0:0:
308,372,131235,1,2,0:3:0:0:
348,296,131459,22,0,B|300:272|256:300|252:300|248:300|208:328|156:296,1,200,4|0,0:0|0:0,0:0:0:0:
204,220,132803,1,0,0:0:0:0:
134,152,133250,2,0,P|202:125|271:150,2,150,2|2|0,0:2|0:2|0:0,0:0:0:0:
48,108,135041,22,0,B|24:156|52:200|52:204|52:208|80:248|48:300,1,200,4|0,0:0|0:0,0:0:0:0:
132,152,136385,1,0,0:0:0:0:
168,374,136832,2,0,P|143:305|169:236,1,150,2|2,0:2|0:2,0:0:0:0:
244,308,138176,1,2,0:0:0:0:
436,307,138624,22,0,B|384:339|344:311|340:311|336:311|292:283|244:307,1,200,4|0,0:0|0:0,0:0:0:0:
384,232,139967,1,0,0:0:0:0:
316,160,140415,2,0,P|384:134|453:160,2,150,2|2|0,0:2|0:2|0:0,0:0:0:0:
252,72,142206,22,0,L|145:90,1,100,2|0,0:2|0:0,0:0:0:0:
96,200,143101,2,0,L|194:182,1,100,2|0,0:2|0:0,0:0:0:0:
388,144,143997,21,2,0:2:0:0:
364,276,144445,1,2,0:2:0:0:
237,255,144892,1,2,0:2:0:0:
261,121,145340,1,2,0:2:0:0:
256,192,145788,12,4,146683,1:2:0:0:
340,296,147131,21,0,0:0:0:0:
172,296,147355,1,0,0:0:0:0:
356,108,147579,6,0,L|336:220,1,100,4|0,1:1|0:0,0:0:0:0:
173,206,148026,2,0,L|144:68,1,133.333333333333,0|0,1:0|0:0,0:0:0:0:
188,36,148400,2,0,L|205:117,1,66.6666666666667
256,164,148698,1,8,0:0:0:0:
92,4,148922,1,2,0:0:0:0:
173,206,149146,1,8,1:2:0:0:
48,80,149370,22,0,P|40:116|52:152,1,66.6666666666667,2|0,1:2|0:0,0:0:0:0:
71,168,149594,1,8,0:0:0:0:
68,356,149818,1,2,1:2:0:0:
119,304,149967,2,0,L|209:319,1,66.6666666666667,0|0,0:0|0:0,0:0:0:0:
210,289,150191,2,0,L|336:311,1,100,2|0,0:2|0:0,0:0:0:0:
334,280,150489,1,8,0:0:0:0:
264,208,150713,1,2,1:2:0:0:
336,384,150937,1,8,0:0:0:0:
416,328,151161,22,0,B|432:280|432:280|412:220,1,100,6|0,1:2|0:0,0:0:0:0:
432,24,151609,2,0,B|416:70|416:70|432:118,1,100,2|0,1:2|0:0,0:0:0:0:
478,177,151982,2,0,P|434:153|348:188,1,133.333333333333,2|8,0:2|0:0,0:0:0:0:
256,264,152504,1,2,1:2:0:0:
180,80,152728,1,10,0:2:0:0:
108,192,152952,22,0,L|198:176,1,66.6666666666667,2|0,1:2|0:0,0:0:0:0:
199,206,153176,1,0,0:0:0:0:
278,62,153400,2,0,L|179:79,1,100,0|0,1:0|0:0,0:0:0:0:
80,96,153847,1,8,0:3:0:0:
280,232,154071,1,12,0:3:0:0:
212,356,154295,1,12,0:3:0:0:
173,180,154519,1,4,0:3:0:0:
347,278,154743,22,0,P|363:232|349:185,1,100,4|8,1:0|0:0,0:0:0:0:
433,20,155191,2,0,P|418:67|434:113,1,100,2|0,1:2|0:0,0:0:0:0:
473,176,155564,2,0,L|356:155,1,100,2|0,0:2|0:0,0:0:0:0:
348,184,155862,1,8,0:0:0:0:
256,52,156086,1,2,1:2:0:0:
164,184,156310,1,8,0:0:0:0:
72,80,156534,22,0,L|146:92,1,66.6666666666667,2|0,1:2|0:0,0:0:0:0:
176,96,156758,1,8,0:0:0:0:
212,256,156982,2,0,P|157:270|96:237,1,100,0|0,1:0|0:0,0:0:0:0:
56,216,157355,2,0,L|74:322,1,100,2|0,0:2|0:0,0:0:0:0:
84,352,157653,1,8,0:0:0:0:
164,184,157877,1,2,1:2:0:0:
240,352,158101,1,2,0:2:0:0:
164,184,158325,22,0,P|150:129|183:68,1,100,6|0,1:2|0:0,0:0:0:0:
393,86,158773,2,2,B|333:96|333:96|310:124|310:124|227:139,1,166.666666666667,2|2,0:2|0:2,0:1:0:0:
272,248,159370,1,0,0:0:0:0:
292,218,159444,2,0,L|385:203,1,66.6666666666667,8|0,0:0|0:0,0:0:0:0:
381,179,159668,1,2,1:2:0:0:
484,356,159892,1,10,0:2:0:0:
512,264,160116,22,0,L|401:283,1,100,2|0,1:2|0:0,0:0:0:0:
344,356,160564,1,0,1:0:0:0:
272,248,160788,1,2,0:0:0:0:
200,356,161012,1,8,0:3:0:0:
357,207,161235,1,12,0:3:0:0:
200,136,161459,1,12,0:3:0:0:
413,280,161683,1,4,0:3:0:0:
499,125,161907,22,0,P|479:76|420:58,1,100,4|0,1:1|0:2,0:0:0:0:
424,132,162243,1,0,1:2:0:0:
280,4,162467,1,2,1:2:0:0:
144,124,162691,1,2,0:3:0:0:
241,180,162915,2,0,L|260:54,1,100,2|0,0:2|0:2,0:0:0:0:
192,28,163250,1,2,0:2:0:0:
137,38,163362,1,2,0:2:0:0:
82,48,163474,1,2,0:3:0:0:
143,219,163698,22,0,P|158:172|145:125,1,100,4|0,1:2|0:2,0:0:0:0:
76,172,164034,1,0,1:2:0:0:
236,272,164258,1,2,1:2:0:0:
80,352,164482,1,2,0:3:0:0:
236,272,164706,2,0,L|356:292,1,100,2|0,0:2|0:2,0:0:0:0:
356,364,165042,1,2,0:0:0:0:
400,332,165153,1,2,1:2:0:0:
412,280,165265,1,2,0:0:0:0:
388,232,165377,1,2,0:3:0:0:
344,208,165489,22,0,P|304:160|304:100,1,100,4|0,1:2|0:0,0:0:0:0:
300,40,165825,1,0,1:0:0:0:
220,172,166049,1,2,1:2:0:0:
132,40,166273,1,2,0:3:0:0:
220,172,166497,1,2,0:0:0:0:
128,224,166721,1,0,1:0:0:0:
128,224,166833,2,0,L|26:206,1,100,2|2,0:0|0:3,0:0:0:0:
147,322,167280,22,0,P|195:282|255:282,1,100,4|0,1:2|0:0,0:0:0:0:
312,276,167616,1,0,1:0:0:0:
420,360,167840,1,2,1:2:0:0:
452,160,168064,1,2,0:3:0:0:
484,260,168288,2,0,L|382:242,1,100,2|0,0:0|1:0,0:0:0:0:
352,168,168624,2,0,L|284:156,1,50,2|0,0:0|1:0,0:0:0:0:
220,148,168848,1,2,0:3:0:0:
173,72,169071,22,0,P|221:59|268:74,1,100,4|0,1:2|0:0,0:0:0:0:
318,8,169407,1,0,1:0:0:0:
220,148,169631,1,2,1:2:0:0:
118,8,169855,1,2,0:3:0:0:
235,247,170079,2,0,L|219:135,1,100,2|0,0:0|0:0,0:0:0:0:
136,148,170415,1,2,0:0:0:0:
126,203,170527,1,2,1:2:0:0:
116,258,170639,1,2,0:3:0:0:
280,348,170862,22,0,P|234:332|186:346,1,100,4|0,1:2|0:0,0:0:0:0:
104,348,171198,1,0,1:0:0:0:
221,149,171422,1,2,1:2:0:0:
324,260,171646,1,2,0:3:0:0:
221,149,171870,2,0,L|361:128,1,100,2|0,0:0|0:0,0:0:0:0:
344,56,172206,1,2,0:0:0:0:
388,24,172318,1,2,0:2:0:0:
444,24,172430,1,2,0:0:0:0:
480,64,172542,1,2,0:3:0:0:
480,120,172653,22,0,L|461:228,1,100,4|0,1:2|0:0,0:0:0:0:
512,280,172989,1,0,1:2:0:0:
360,192,173213,1,2,1:2:0:0:
416,372,173437,1,2,0:3:0:0:
360,192,173661,1,2,0:0:0:0:
280,352,173885,1,0,1:2:0:0:
280,352,173997,2,0,P|232:312|172:312,1,100,2|2,0:0|0:3,0:0:0:0:
64,268,174445,22,0,P|113:258|148:224,1,100,4|0,1:2|0:0,0:0:0:0:
148,140,174780,1,0,1:2:0:0:
252,188,175004,1,2,1:2:0:0:
56,140,175228,21,0,0:0:0:0:
56,140,175340,1,2,1:2:0:0:
72,88,175452,1,2,0:0:0:0:
116,56,175564,1,2,0:3:0:0:
172,56,175676,1,2,1:3:0:0:
220,84,175788,1,2,0:0:0:0:
268,112,175900,1,2,1:2:0:0:
324,112,176012,1,2,0:3:0:0:
372,88,176124,1,2,0:3:0:0:
428,32,176235,6,0,L|397:205,1,129.999994049073,4|8,1:3|0:2,0:0:0:0:
384,256,176571,2,0,P|430:257|470:230,1,64.9999970245363,4|0,0:3|1:0,0:0:0:0:
320,188,176795,2,2,P|293:232|305:308,1,129.999994049073,4|0,0:3|0:0,0:1:0:0:
372,380,177131,2,0,P|328:353|252:365,1,129.999994049073,4|8,1:3|0:2,0:0:0:0:
176,304,177467,2,0,L|191:213,1,64.9999970245363,4|0,0:3|1:0,0:0:0:0:
88,240,177691,2,2,L|60:82,1,129.999994049073,4|0,0:3|0:0,0:1:0:0:
48,16,178026,6,0,P|104:20|160:100,1,129.999994049073,8|8,1:3|0:2,0:0:0:0:
208,152,178362,2,0,L|290:166,1,64.9999970245363,8|0,0:3|1:0,0:0:0:0:
368,144,178586,2,2,P|364:200|284:256,1,129.999994049073,8|0,0:3|0:0,0:1:0:0:
216,252,178922,2,0,P|224:296|256:328,1,64.9999970245363,8|0,1:3|0:0,0:0:0:0:
328,348,179146,1,8,0:2:0:0:
328,348,179258,2,0,P|373:334|400:288,1,64.9999970245363,8|0,0:3|1:0,0:0:0:0:
472,368,179482,1,8,0:3:0:0:
472,368,179594,2,0,P|486:323|464:274,1,64.9999970245363,8|0,0:2|0:0,0:0:0:0:
420,232,179818,6,0,L|447:74,1,129.999994049073,4|8,1:3|0:2,0:0:0:0:
512,32,180153,2,2,P|468:5|392:17,1,129.999994049073,4|0,0:0|0:0,0:1:0:0:
336,96,180489,2,0,L|232:76,1,64.9999970245363,4|0,0:3|0:0,0:0:0:0:
272,184,180713,2,0,L|126:209,1,129.999994049073,4|8,1:3|0:2,0:0:0:0:
160,304,181049,2,2,P|96:296|54:249,1,129.999994049073,4|0,0:3|0:0,0:1:0:0:
68,152,181385,2,0,L|83:61,1,64.9999970245363,4|0,0:3|0:0,0:0:0:0:
92,0,181609,5,8,1:3:0:0:
272,84,181832,1,8,0:2:0:0:
464,52,182056,2,2,L|373:67,1,64.9999970245363,8|0,1:3|0:0,0:1:0:0:
420,160,182280,2,0,L|355:171,1,64.9999970245363,8|0,0:2|0:0,0:0:0:0:
260,184,182504,1,8,1:3:0:0:
164,352,182728,1,8,0:2:0:0:
356,384,182952,2,2,L|265:368,1,64.9999970245363,8|0,1:3|0:0,0:1:0:0:
312,276,183176,2,0,L|247:264,1,64.9999970245363,8|0,0:2|0:0,0:0:0:0:
152,248,183400,6,0,P|80:224|56:168,1,129.999994049073,4|8,1:3|0:2,0:0:0:0:
152,152,183735,2,2,L|126:10,1,129.999994049073,4|0,0:3|0:0,0:1:0:0:
228,40,184071,2,0,L|241:118,1,64.9999970245363,8|0,0:2|0:0,0:0:0:0:
324,152,184295,2,0,P|396:176|420:232,1,129.999994049073,4|8,1:3|0:2,0:0:0:0:
440,316,184631,2,2,L|306:292,1,129.999994049073,4|0,0:3|0:0,0:1:0:0:
256,372,184967,2,0,L|153:390,1,64.9999970245363,8|0,0:2|0:0,0:0:0:0:
124,312,185191,6,2,P|52:288|28:232,1,129.999994049073,8|8,1:3|0:2,0:1:0:0:
124,216,185526,2,2,L|146:87,1,129.999994049073,8|0,0:3|0:0,0:1:0:0:
230,36,185862,2,0,L|248:138,1,64.9999970245363,8|0,0:2|0:0,0:0:0:0:
244,200,186086,2,0,P|288:192|320:160,1,64.9999970245363,8|0,1:3|0:0,0:0:0:0:
400,160,186310,1,8,0:2:0:0:
400,160,186422,2,0,P|384:202|396:245,1,64.9999970245363,8|0,0:3|1:0,0:0:0:0:
364,316,186646,1,0,0:0:0:0:
364,316,186758,2,0,P|335:281|291:270,1,64.9999970245363,8|0,0:3|0:0,0:0:0:0:
280,364,186982,6,2,L|130:337,1,129.999994049073,4|8,1:3|0:2,0:1:0:0:
151,243,187318,1,0,0:0:0:0:
151,243,187429,2,2,L|64:227,1,64.9999970245363,4|0,1:3|0:0,0:1:0:0:
0,216,187653,1,8,0:2:0:0:
44,28,187877,5,4,1:3:0:0:
44,28,187989,1,0,0:0:0:0:
44,28,188101,2,2,P|72:92|172:68,1,129.999994049073,8|4,0:2|1:3,0:1:0:0:
195,33,188437,2,2,L|309:53,2,64.9999970245363,0|8|0,0:0|0:2|0:0,0:1:0:0:
125,103,188773,2,2,L|154:272,1,129.999994049073,8|8,1:3|0:2,0:1:0:0:
92,312,189109,2,0,P|119:328|152:331,1,64.9999970245363,8|0,0:3|1:0,0:0:0:0:
240,368,189332,2,2,P|280:312|368:312,1,129.999994049073,8|0,0:3|0:0,0:1:0:0:
436,316,189668,2,0,L|526:331,2,64.9999970245363,8|0|8,1:3|0:0|0:2,0:0:0:0:
320,155,190116,2,0,L|229:139,2,64.9999970245363,8|0|8,1:3|0:0|0:2,0:0:0:0:
376,380,190564,5,0,0:0:0:0:
256,144,191012,1,8,1:2:0:0:
172,292,191795,1,8,0:0:0:0:
84,272,192131,1,8,1:2:0:0:
256,144,192803,21,8,1:2:0:0:
340,292,193586,1,8,0:0:0:0:
428,272,193922,1,8,1:2:0:0:
256,240,194594,21,8,1:2:0:0:
340,92,195377,1,8,0:0:0:0:
428,112,195713,1,8,1:2:0:0:
256,240,196385,1,8,1:2:0:0:
172,92,197168,1,8,0:0:0:0:
84,112,197504,1,8,1:2:0:0:
108,280,198176,21,8,0:0:0:0:
256,48,198959,1,8,0:0:0:0:
256,48,199295,1,8,0:0:0:0:
404,280,199967,1,8,0:0:0:0:
256,48,200750,1,8,0:0:0:0:
256,48,201086,1,8,0:0:0:0:
108,104,201758,21,8,0:0:0:0:
256,336,202541,1,8,0:0:0:0:
256,336,202877,1,8,0:0:0:0:
404,104,203549,1,8,0:0:0:0:
256,336,204332,1,8,0:0:0:0:
256,336,204668,1,8,0:0:0:0:
256,192,204892,21,2,0:0:0:0:
