osu file format v14

[General]
AudioFilename: audio.mp3
AudioLeadIn: 0
PreviewTime: 71459
Countdown: 1
SampleSet: None
StackLeniency: 0.7
Mode: 0
LetterboxInBreaks: 0
WidescreenStoryboard: 1

[Editor]
Bookmarks: 8774,20415,34743,41907,56235,72355,86683,102803,117131,131459,147579,161907,176235,190564,204892,219332
DistanceSpacing: 1
BeatDivisor: 4
GridSize: 4
TimelineZoom: 1

[Metadata]
Title:3-nen C-gumi 14-ban Kubozono Chiyoko no Nyuukaku
TitleUnicode:3年C組14番窪園チヨコの入閣
Artist:Powapowa-P feat. Kagamine Rin
ArtistUnicode:Powapowa-P feat. 鏡音リン
Creator:Veridian
Version:Hard
Source:
Tags:entry into the cabinet chiyoko's year three class fourteen siina mota kokegane uta ikiru
BeatmapID:2103457
BeatmapSetID:980302

[Difficulty]
HPDrainRate:5
CircleSize:4.1
OverallDifficulty:6
ApproachRate:7
SliderMultiplier:1.6
SliderTickRate:1

[Events]
//Background and Video events
0,0,"sddsasasdasda.PNG",0,0
Video,0,"titbouncenoise.wav.avi"
//Break Periods
2,20415,26679
2,102555,109067
//Storyboard Layer 0 (Background)
//Storyboard Layer 1 (Fail)
//Storyboard Layer 2 (Pass)
//Storyboard Layer 3 (Foreground)
//Storyboard Sound Samples

[TimingPoints]
1609,447.761194029851,4,2,0,100,1,0
8773,-133.333333333333,4,2,0,100,0,0
18624,447.761194029851,4,2,0,100,1,0
56235,-200,4,1,0,50,0,0
70862,-200,4,1,0,5,0,0
70974,-200,4,1,0,50,0,0
71385,-200,4,1,0,5,0,0
71459,-200,4,1,0,50,0,0
72355,-100,4,2,0,100,0,1
86655,-100,4,2,0,100,0,0
86683,-100,4,2,0,100,0,1
101012,-100,4,2,0,100,0,0
102355,-100,4,2,0,50,0,0
109967,-100,4,2,0,100,0,0
131459,-200,4,1,0,50,0,0
147579,-100,4,2,0,100,0,1
161879,-100,4,2,0,100,0,0
161907,-100,4,2,0,100,0,1
176207,-100,4,2,0,100,0,0
176235,-100,4,3,0,100,0,1
176683,-100,4,3,0,100,0,0
190564,-100,4,2,0,100,0,0

[Colours]
Combo1 : 190,235,86
Combo2 : 112,136,143
Combo3 : 64,115,251
Combo4 : 162,179,183
Combo5 : 253,120,64
Combo6 : 225,225,225
SliderTrackOverride : 231,237,168
SliderBorder : 234,237,211

[HitObjects]
256,192,8773,5,2,0:3:0:0:
256,192,9220,1,2,0:3:0:0:
344,124,9594,2,0,P|368:192|344:252,1,140.000005340576,2|2,0:3|0:3,0:0:0:0:
256,192,10564,21,2,0:3:0:0:
256,192,11011,1,2,0:3:0:0:
168,260,11385,2,0,P|144:192|168:132,1,140.000005340576,2|2,0:3|0:3,0:0:0:0:
256,192,12355,21,2,0:3:0:0:
256,192,12802,1,2,0:3:0:0:
324,280,13176,2,0,P|256:304|196:280,1,140.000005340576,2|2,0:3|0:3,0:0:0:0:
328,48,14146,21,2,0:3:0:0:
256,192,14594,1,2,0:3:0:0:
184,48,15041,1,4,0:0:0:0:
256,192,15265,12,0,18176,1:0:0:0:
328,192,27579,22,0,L|410:206,2,80,2|0|2,0:0|0:0|0:0,0:0:0:0:
208,276,28400,2,0,P|172:216|208:108,1,186.666666666667,2|10,0:0|0:0,0:0:0:0:
267,48,29146,1,0,0:0:0:0:
348,84,29370,2,0,P|359:43|340:0,2,80,2|0|2,0:0|0:0|0:0,0:0:0:0:
248,192,30191,2,0,L|433:224,1,186.666666666667,2|8,0:0|0:0,0:0:0:0:
344,376,31161,22,0,P|331:338|343:300,2,80,2|0|2,0:0|0:0|0:0,0:0:0:0:
264,252,31982,2,0,P|299:168|260:86,1,186.666666666667,2|8,0:0|0:0,0:0:0:0:
198,24,32728,1,0,0:0:0:0:
136,88,32952,2,0,L|41:71,2,80,2|0|2,0:0|0:0|0:0,0:0:0:0:
212,216,33773,2,0,L|105:197,1,106.666666666667,2|0,0:0|0:0,0:0:0:0:
24,164,34295,2,0,P|12:201|24:239,1,80,4|0,1:3|1:0,0:0:0:0:
32,328,34743,22,0,P|70:318|96:289,1,80,4|0,3:2|0:0,0:0:0:0:
172,244,35191,2,0,P|144:215|106:207,1,80,2|0,1:2|0:0,0:0:0:0:
106,207,35564,2,0,P|89:157|115:98,1,106.666666666667,2|0,0:2|0:0,0:0:0:0:
168,44,36086,1,10,1:2:0:0:
208,120,36310,1,0,0:0:0:0:
288,80,36534,22,0,L|370:94,1,80,2|0,3:2|0:0,0:0:0:0:
478,189,36982,2,0,L|400:176,1,80,2|0,1:2|0:0,0:0:0:0:
400,176,37355,2,0,P|382:225|399:275,1,106.666666666667,2|2,0:2|0:3,0:0:0:0:
468,328,37877,1,8,1:2:0:0:
400,380,38101,1,2,0:3:0:0:
328,328,38325,22,0,P|290:317|252:327,1,80,2|0,3:2|0:0,0:0:0:0:
172,364,38773,2,0,P|133:374|95:364,1,80,2|0,1:2|0:0,0:0:0:0:
96,368,39146,2,0,L|119:237,1,106.666666666667,2|0,0:2|0:0,0:0:0:0:
132,176,39668,1,10,1:2:0:0:
76,108,39892,1,0,0:0:0:0:
164,92,40116,22,0,L|246:77,1,80,2|0,3:2|0:0,0:0:0:0:
378,130,40564,2,0,L|300:144,1,80,2|0,1:2|0:0,0:0:0:0:
300,144,40937,2,0,P|282:193|299:243,1,106.666666666667,2|2,0:2|0:3,0:0:0:0:
368,300,41459,1,8,1:0:0:0:
300,356,41683,1,2,0:3:0:0:
232,300,41907,22,0,B|176:276|176:276|80:304,1,160,2|0,0:0|0:0,0:0:0:0:
16,172,42728,1,2,0:0:0:0:
108,100,43026,2,0,P|118:62|108:24,2,80,0|10|0,3:0|0:0|3:0,0:0:0:0:
28,64,43698,21,2,0:0:0:0:
28,64,43922,1,0,3:0:0:0:
48,152,44146,2,0,P|88:132|184:164,1,133.333333333333,2|2,0:0|0:0,0:0:0:0:
254,234,44818,1,0,0:0:0:0:
315,172,45041,2,0,L|300:89,1,80,8|2,1:2|3:2,0:0:0:0:
376,44,45489,22,0,L|406:217,1,160,0|2,0:0|0:0,0:0:0:0:
432,348,46310,1,2,0:0:0:0:
332,288,46609,2,0,P|294:277|256:287,2,80,0|8|0,0:0|1:2|0:0,0:0:0:0:
292,368,47280,22,0,P|244:376|172:288,1,160,0|2,0:0|0:0,0:0:0:0:
256,184,48101,1,2,0:0:0:0:
172,100,48400,2,0,L|187:13,2,80,0|8|0,0:0|1:2|3:0,0:0:0:0:
96,56,49071,22,0,L|64:237,1,160,2|2,0:0|0:0,0:0:0:0:
40,360,49892,1,2,0:0:0:0:
128,284,50191,1,0,3:2:0:0:
190,346,50415,2,0,P|228:356|266:345,1,80,10|0,0:0|3:0,0:0:0:0:
328,283,50862,21,2,0:0:0:0:
265,220,51086,1,0,3:0:0:0:
327,157,51310,2,0,P|295:137|191:171,1,133.333333333333,2|2,0:0|0:0,0:0:0:0:
122,72,51982,1,0,0:0:0:0:
44,32,52206,2,0,P|33:70|44:108,1,80,8|2,1:2|3:2,0:0:0:0:
116,160,52653,22,0,P|126:198|115:236,1,80,0|0,0:0|3:0,0:0:0:0:
36,196,53101,1,2,0:0:0:0:
116,320,53474,1,2,3:2:0:0:
216,256,53773,2,0,L|294:242,2,80,0|8|2,0:0|1:2|3:2,0:0:0:0:
264,332,54444,2,0,L|354:316,1,80,0|0,0:0|3:2,0:0:0:0:
405,380,54892,1,2,0:0:0:0:
485,252,55265,2,0,P|501:203|479:144,1,106.666666666667,6|2,0:0|0:3,0:0:0:0:
400,140,55788,2,0,P|389:101|399:63,1,80,2|2,0:0|0:3,0:0:0:0:
468,24,56235,22,0,B|352:84|352:-8|232:28,1,240,4|0,0:0|0:0,0:0:0:0:
212,184,58026,2,0,P|236:196|284:136,2,120,2|2|0,0:2|0:2|0:0,0:0:0:0:
68,116,59818,22,0,B|8:232|112:232|64:348,1,240,4|0,0:0|0:0,0:0:0:0:
224,348,61609,2,0,P|236:312|316:276,2,120,2|2|2,0:2|0:2|0:0,0:0:0:0:
384,328,63400,22,0,B|431:213|327:213|387:97,1,240,4|0,0:0|0:0,0:0:0:0:
492,216,65191,2,0,P|500:243|488:340,2,120,2|2|0,0:2|0:2|0:0,0:0:0:0:
388,96,66982,22,0,L|301:111,1,80,2|0,0:2|0:0,0:0:0:0:
185,277,67877,2,0,L|264:264,1,80,2|0,0:2|0:0,0:0:0:0:
124,188,68773,2,0,L|37:203,3,80,2|2|2|2,0:2|0:2|0:2|0:2,0:0:0:0:
256,192,70564,12,4,71459,1:2:0:0:
44,192,72355,6,0,P|83:203|128:188,1,80,4|0,1:1|0:0,0:0:0:0:
188,124,72803,2,0,P|225:113|264:122,1,80,0|0,1:0|0:0,0:0:0:0:
264,122,73176,2,0,L|242:245,1,106.666666666667,2|8,0:2|0:0,0:0:0:0:
313,294,73698,1,2,1:2:0:0:
313,294,73922,1,8,0:0:0:0:
400,332,74146,22,0,P|410:294|401:255,1,80,2|8,1:2|0:0,0:0:0:0:
448,172,74594,2,0,P|426:105|452:42,1,133.333333333333,2|2,1:2|0:2,0:0:0:0:
336,112,75265,1,8,0:0:0:0:
256,60,75489,2,0,L|153:41,1,80,2|8,1:2|0:0,0:0:0:0:
88,8,75937,22,0,P|78:46|89:84,1,80,6|0,1:2|0:0,0:0:0:0:
168,140,76385,2,0,P|177:178|166:216,1,80,2|0,1:2|0:0,0:0:0:0:
166,216,76758,2,0,P|149:266|166:316,1,106.666666666667,2|8,0:2|0:0,0:0:0:0:
248,264,77280,1,2,1:2:0:0:
300,344,77504,1,10,0:2:0:0:
376,288,77728,22,0,L|458:302,1,80,2|0,1:2|0:0,0:0:0:0:
508,220,78176,2,0,L|429:206,1,80,0|0,1:0|0:0,0:0:0:0:
412,112,78624,1,8,0:3:0:0:
395,17,78847,1,12,0:3:0:0:
300,34,79071,1,12,0:3:0:0:
317,128,79294,1,4,0:3:0:0:
228,96,79519,22,0,P|190:85|151:94,1,80,4|8,1:0|0:0,0:0:0:0:
112,184,79967,2,0,P|149:194|188:185,1,80,2|0,1:2|0:0,0:0:0:0:
188,185,80340,2,0,L|167:302,1,106.666666666667,2|8,0:2|0:0,0:0:0:0:
232,360,80862,1,2,1:2:0:0:
232,360,81086,1,8,0:0:0:0:
320,320,81310,22,0,L|334:237,1,80,2|8,1:2|0:0,0:0:0:0:
265,172,81758,2,0,L|288:40,1,133.333333333333,0|2,1:0|0:2,0:0:0:0:
380,128,82429,1,8,0:0:0:0:
468,88,82653,2,0,P|477:126|466:164,1,80,2|2,1:2|0:2,0:0:0:0:
384,212,83101,22,0,P|374:250|385:288,1,80,6|0,1:2|0:0,0:0:0:0:
428,372,83549,2,0,P|390:382|351:373,1,80,2|0,1:2|0:0,0:0:0:0:
351,373,83922,2,0,P|300:360|232:384,1,106.666666666667,2|8,0:2|0:0,0:0:0:0:
180,305,84444,1,2,1:2:0:0:
247,237,84668,1,10,0:2:0:0:
156,212,84892,22,0,L|65:227,1,80,2|0,1:2|0:0,0:0:0:0:
1,141,85340,2,0,L|80:128,1,80,0|0,1:0|0:0,0:0:0:0:
176,112,85788,1,8,0:3:0:0:
193,17,86011,1,12,0:3:0:0:
288,34,86235,1,12,0:3:0:0:
271,128,86458,1,4,0:3:0:0:
364,100,86683,22,0,B|420:120|416:68|492:104,1,120,4|0,1:1|1:2,0:0:0:0:
448,188,87243,1,2,1:2:0:0:
488,276,87467,2,0,P|440:288|392:260,1,80,2|2,0:3|0:2,0:0:0:0:
332,224,87915,1,0,0:2:0:0:
332,224,88026,2,0,P|284:212|236:240,1,80,2|2,0:2|0:3,0:0:0:0:
188,289,88474,22,0,B|132:309|136:257|60:293,1,120,4|0,1:2|1:2,0:0:0:0:
3,219,89034,1,2,1:2:0:0:
96,188,89258,1,2,0:3:0:0:
120,96,89482,1,2,0:2:0:0:
48,32,89706,2,0,L|-17:44,4,40,0|2|2|2|2,0:2|0:0|1:2|0:0|0:3,0:0:0:0:
81,65,90265,22,0,L|207:42,1,120,4|0,1:2|1:0,0:0:0:0:
267,112,90825,1,2,1:2:0:0:
356,152,91049,2,0,P|367:114|357:76,1,80,2|2,0:3|0:0,0:0:0:0:
267,112,91497,1,0,1:0:0:0:
267,112,91609,2,0,P|256:150|268:187,1,80,2|2,0:0|0:3,0:0:0:0:
288,280,92056,22,0,B|232:300|236:248|160:284,1,120,4|0,1:2|1:0,0:0:0:0:
103,347,92616,1,2,1:2:0:0:
35,279,92840,1,2,0:3:0:0:
102,211,93064,1,2,0:0:0:0:
44,136,93288,1,0,1:0:0:0:
44,136,93400,2,0,P|110:117|170:145,1,120,2|0,0:0|0:0,0:0:0:0:
190,167,93847,22,0,L|316:144,1,120,4|0,1:2|1:0,0:0:0:0:
376,77,94407,1,2,1:2:0:0:
464,40,94631,2,0,P|475:77|465:115,1,80,2|2,0:3|0:0,0:0:0:0:
396,184,95079,1,0,0:0:0:0:
396,184,95191,2,0,P|384:221|394:259,1,80,2|2,0:0|0:3,0:0:0:0:
432,348,95638,22,0,L|313:327,1,120,4|0,1:2|1:0,0:0:0:0:
245,258,96198,1,2,1:2:0:0:
177,325,96422,1,2,0:3:0:0:
109,257,96646,1,2,0:0:0:0:
176,189,96870,1,0,0:0:0:0:
176,189,96982,2,0,L|168:144,3,40,2|2|2|2,0:0|0:2|0:0|0:3,0:0:0:0:
136,116,97429,22,0,L|254:136,1,120,4|0,1:2|1:2,0:0:0:0:
322,68,97989,1,2,1:2:0:0:
412,32,98213,2,0,P|423:69|413:107,1,80,2|2,0:3|0:0,0:0:0:0:
356,184,98661,1,0,1:2:0:0:
356,184,98773,2,0,P|344:221|354:259,1,80,2|2,0:0|0:3,0:0:0:0:
412,336,99221,22,0,P|348:356|284:316,1,120,4|0,1:2|1:2,0:0:0:0:
233,268,99780,1,2,1:2:0:0:
165,335,100004,1,0,0:0:0:0:
165,335,100116,2,0,L|100:324,3,40,2|2|2|2,1:2|0:0|0:3|1:3,0:0:0:0:
91,362,100564,2,0,L|26:351,3,40,2|2|2|2,0:0|1:2|0:3|0:3,0:0:0:0:
4,372,101012,5,0,3:0:0:0:
256,192,102355,1,8,0:2:0:0:
480,56,109967,22,0,P|442:66|416:95,1,80,4|0,3:2|0:0,0:0:0:0:
340,140,110415,2,0,P|368:169|406:177,1,80,2|0,1:2|0:0,0:0:0:0:
406,177,110788,2,0,P|423:227|397:286,1,106.666666666667,2|0,0:2|0:0,0:0:0:0:
344,340,111310,1,10,1:2:0:0:
304,264,111534,1,0,0:0:0:0:
224,304,111758,22,0,L|142:290,1,80,2|0,3:2|0:0,0:0:0:0:
34,195,112206,2,0,L|112:208,1,80,2|0,1:2|0:0,0:0:0:0:
112,208,112579,2,0,P|130:159|113:109,1,106.666666666667,2|2,0:2|0:3,0:0:0:0:
44,56,113101,1,8,1:2:0:0:
112,4,113325,1,2,0:3:0:0:
184,56,113549,22,0,P|222:67|260:57,1,80,2|0,3:2|0:0,0:0:0:0:
340,20,113997,2,0,P|379:10|417:20,1,80,2|0,1:2|0:0,0:0:0:0:
416,16,114370,2,0,L|393:147,1,106.666666666667,2|0,0:2|0:0,0:0:0:0:
380,208,114892,1,10,1:2:0:0:
436,276,115116,1,0,0:0:0:0:
348,292,115340,22,0,L|266:307,1,80,2|0,3:2|0:0,0:0:0:0:
134,254,115788,2,0,L|212:240,1,80,2|0,1:2|0:0,0:0:0:0:
212,240,116161,2,0,P|230:191|213:141,1,106.666666666667,2|2,0:2|0:3,0:0:0:0:
144,84,116683,1,8,1:0:0:0:
212,28,116907,1,2,0:3:0:0:
280,84,117131,22,0,B|336:108|336:108|432:80,1,160,2|0,0:0|0:0,0:0:0:0:
496,212,117952,1,2,0:0:0:0:
404,284,118250,2,0,P|394:322|404:360,2,80,0|10|0,0:3|0:0|0:3,0:0:0:0:
332,220,118922,2,0,P|342:181|332:143,1,80,2|0,0:0|0:0,0:0:0:0:
244,180,119370,2,0,P|204:200|108:168,1,133.333333333333,2|2,0:0|0:0,0:0:0:0:
184,72,120042,1,0,0:0:0:0:
260,12,120265,2,0,L|275:95,1,80,8|2,1:0|3:2,0:0:0:0:
211,229,120713,22,0,L|184:72,1,160,2|0,0:0|0:0,0:0:0:0:
44,0,121534,1,2,0:0:0:0:
4,120,121833,2,0,P|42:131|80:121,2,80,0|8|2,0:0|1:0|3:2,0:0:0:0:
4,216,122504,22,0,P|52:208|124:296,1,160,2|0,0:0|0:0,0:0:0:0:
260,200,123325,1,2,0:0:0:0:
352,288,123624,2,0,L|337:375,2,80,0|8|0,0:0|1:0|3:2,0:0:0:0:
436,336,124295,22,0,L|468:155,1,160,2|0,0:0|0:0,0:0:0:0:
492,20,125116,1,2,0:0:0:0:
388,92,125415,1,0,3:2:0:0:
320,24,125639,2,0,P|282:14|244:25,1,80,10|0,0:0|3:0,0:0:0:0:
175,93,126086,21,2,0:0:0:0:
242,160,126310,1,0,3:0:0:0:
181,235,126534,2,0,P|213:255|317:221,1,133.333333333333,2|2,0:0|0:0,0:0:0:0:
400,320,127206,1,0,0:0:0:0:
488,360,127430,2,0,P|499:322|488:284,1,80,8|0,0:0|3:0,0:0:0:0:
408,228,127877,22,0,P|398:190|409:152,1,80,2|0,0:0|3:0,0:0:0:0:
496,192,128325,1,2,0:0:0:0:
412,56,128698,1,2,0:0:0:0:
304,128,128997,2,0,L|226:142,2,80,0|8|2,0:0|1:0|3:2,0:0:0:0:
248,48,129668,22,0,L|158:64,1,80,0|0,0:0|3:2,0:0:0:0:
107,4,130116,1,2,0:0:0:0:
27,132,130489,2,0,P|11:181|33:240,1,106.666666666667,6|2,0:0|3:0,0:0:0:0:
112,244,131012,2,0,P|123:283|113:321,1,80,0|2,0:0|0:3,0:0:0:0:
44,360,131459,22,0,B|160:300|160:392|280:356,1,240,4|0,0:0|0:0,0:0:0:0:
300,200,133250,2,0,P|276:188|228:248,2,120,2|2|0,0:2|0:2|0:0,0:0:0:0:
444,268,135042,22,0,B|504:152|400:152|448:36,1,240,4|0,0:0|0:0,0:0:0:0:
288,36,136833,2,0,P|276:72|196:108,2,120,2|0|0,0:2|0:0|0:0,0:0:0:0:
128,56,138624,22,0,B|81:171|185:171|125:287,1,240,4|0,0:0|0:0,0:0:0:0:
20,168,140415,2,0,P|12:141|24:44,2,120,2|2|0,0:2|0:2|0:0,0:0:0:0:
124,288,142206,22,0,L|211:273,1,80,2|0,0:2|0:0,0:0:0:0:
327,107,143101,2,0,L|248:120,1,80,2|0,0:2|0:0,0:0:0:0:
388,196,143997,2,0,L|475:181,3,80,2|2|2|2,0:2|0:2|0:2|0:2,0:0:0:0:
256,192,145788,12,4,146683,1:2:0:0:
468,192,147579,6,0,P|429:181|384:196,1,80,4|0,1:1|0:0,0:0:0:0:
324,260,148027,2,0,P|287:271|248:262,1,80,2|0,1:2|0:0,0:0:0:0:
248,262,148400,2,0,L|270:139,1,106.666666666667,0|8,0:0|0:0,0:0:0:0:
199,90,148922,1,2,0:0:0:0:
199,90,149146,1,8,1:2:0:0:
112,52,149370,22,0,P|102:90|111:129,1,80,2|8,1:2|0:0,0:0:0:0:
64,212,149818,2,0,P|86:279|60:342,1,133.333333333333,2|2,1:2|0:2,0:0:0:0:
176,272,150489,1,8,0:0:0:0:
256,324,150713,2,0,L|359:343,1,80,2|8,1:2|0:0,0:0:0:0:
424,376,151161,22,0,P|434:338|423:300,1,80,6|0,1:2|0:0,0:0:0:0:
344,244,151609,2,0,P|335:206|346:168,1,80,2|0,1:2|0:0,0:0:0:0:
346,168,151982,2,0,P|363:118|346:68,1,106.666666666667,2|8,0:2|0:0,0:0:0:0:
264,120,152504,1,2,1:2:0:0:
212,40,152728,1,10,0:2:0:0:
136,96,152952,22,0,L|54:82,1,80,2|0,1:2|0:0,0:0:0:0:
4,164,153400,2,0,L|83:178,1,80,0|0,1:0|0:0,0:0:0:0:
100,272,153848,1,8,0:3:0:0:
117,367,154071,1,12,0:3:0:0:
212,350,154295,1,12,0:3:0:0:
195,256,154518,1,4,0:3:0:0:
284,288,154743,22,0,P|322:299|361:290,1,80,4|8,1:0|0:0,0:0:0:0:
400,200,155191,2,0,P|363:190|324:199,1,80,2|0,1:2|0:0,0:0:0:0:
324,199,155564,2,0,L|345:82,1,106.666666666667,2|8,0:2|0:0,0:0:0:0:
280,24,156086,1,2,1:2:0:0:
280,24,156310,1,8,0:0:0:0:
192,64,156534,22,0,L|178:147,1,80,2|8,1:2|0:0,0:0:0:0:
247,212,156982,2,0,L|224:344,1,133.333333333333,0|2,1:0|0:2,0:0:0:0:
132,256,157653,1,8,0:0:0:0:
44,296,157877,2,0,P|35:258|46:220,1,80,2|2,1:2|0:2,0:0:0:0:
128,172,158325,22,0,P|138:134|127:96,1,80,6|0,1:2|0:0,0:0:0:0:
84,12,158773,2,0,P|122:2|161:11,1,80,2|0,0:2|0:0,0:0:0:0:
161,11,159146,2,0,P|212:24|280:0,1,106.666666666667,0|8,0:0|0:0,0:0:0:0:
332,79,159668,1,2,1:2:0:0:
265,147,159892,1,10,0:2:0:0:
356,172,160116,22,0,L|447:157,1,80,2|0,1:2|0:0,0:0:0:0:
511,243,160564,2,0,L|432:256,1,80,0|2,1:0|0:0,0:0:0:0:
336,272,161012,1,8,0:3:0:0:
319,367,161235,1,12,0:3:0:0:
224,350,161459,1,12,0:3:0:0:
241,256,161682,1,4,0:3:0:0:
148,284,161907,22,0,B|92:264|96:316|20:280,1,120,4|0,1:1|1:2,0:0:0:0:
64,196,162467,1,2,1:2:0:0:
24,108,162691,2,0,P|72:96|120:124,1,80,2|2,0:3|0:2,0:0:0:0:
180,160,163139,1,0,0:2:0:0:
180,160,163250,2,0,P|228:172|276:144,1,80,2|2,0:2|0:3,0:0:0:0:
324,95,163698,22,0,B|380:75|376:127|452:91,1,120,4|0,1:2|1:2,0:0:0:0:
509,165,164258,1,2,1:2:0:0:
416,196,164482,1,2,0:3:0:0:
392,288,164706,1,2,0:2:0:0:
464,352,164930,2,0,L|529:340,4,40,0|2|2|2|2,0:2|0:0|1:2|0:0|0:3,0:0:0:0:
431,319,165489,22,0,L|305:342,1,120,4|0,1:2|1:0,0:0:0:0:
245,272,166049,1,2,1:2:0:0:
156,232,166273,2,0,P|145:270|155:308,1,80,2|2,0:3|0:0,0:0:0:0:
245,272,166721,1,0,1:0:0:0:
245,272,166833,2,0,P|256:234|244:197,1,80,2|2,0:0|0:3,0:0:0:0:
224,104,167280,22,0,B|280:84|276:136|352:100,1,120,4|0,1:2|1:0,0:0:0:0:
409,37,167840,1,2,1:2:0:0:
477,105,168064,1,2,0:3:0:0:
410,173,168288,1,2,0:0:0:0:
468,248,168512,1,0,1:0:0:0:
468,248,168624,2,0,P|402:267|342:239,1,120,2|0,0:0|0:0,0:0:0:0:
322,217,169071,22,0,L|196:240,1,120,4|0,1:2|1:0,0:0:0:0:
136,307,169631,1,2,1:2:0:0:
48,344,169855,2,0,P|37:307|47:269,1,80,2|2,0:3|0:0,0:0:0:0:
116,200,170303,1,0,0:0:0:0:
116,200,170415,2,0,P|128:163|118:125,1,80,2|2,0:0|0:3,0:0:0:0:
80,36,170862,22,0,L|199:57,1,120,4|0,1:2|1:0,0:0:0:0:
267,126,171422,1,2,1:2:0:0:
335,59,171646,1,2,0:3:0:0:
403,127,171870,1,2,0:0:0:0:
336,195,172094,1,0,0:0:0:0:
336,195,172206,2,0,L|344:240,3,40,2|2|2|2,0:0|0:2|0:0|0:3,0:0:0:0:
376,268,172653,22,0,L|258:248,1,120,4|0,1:2|1:2,0:0:0:0:
190,316,173213,1,2,1:2:0:0:
100,352,173437,2,0,P|89:315|99:277,1,80,2|2,0:3|0:0,0:0:0:0:
156,200,173885,1,0,1:2:0:0:
156,200,173997,2,0,P|168:163|158:125,1,80,2|2,0:0|0:3,0:0:0:0:
100,48,174445,22,0,P|164:28|228:68,1,120,4|0,1:2|1:2,0:0:0:0:
279,116,175004,1,2,1:2:0:0:
347,49,175228,1,0,0:0:0:0:
347,49,175340,2,0,L|412:60,3,40,2|2|2|2,1:2|0:0|0:3|1:3,0:0:0:0:
421,22,175788,2,0,L|486:33,3,40,2|2|2|2,0:0|1:2|0:3|0:3,0:0:0:0:
508,12,176236,5,4,1:3:0:0:
440,136,176571,2,0,P|432:194|465:237,2,80,4|4|0,0:3|0:3|0:0,0:0:0:0:
468,108,177131,1,4,1:3:0:0:
352,76,177467,2,0,P|360:18|327:-25,2,80,4|4|0,0:3|0:3|0:0,0:0:0:0:
320,100,178026,5,8,1:3:0:0:
224,28,178362,2,0,L|129:44,2,80,8|8|0,0:3|0:3|0:0,0:0:0:0:
264,40,178922,1,8,1:3:0:0:
188,180,179370,2,0,L|97:195,1,80,0|8,0:0|0:2,0:0:0:0:
52,250,179818,5,4,1:3:0:0:
164,362,180265,1,0,0:0:0:0:
277,248,180713,1,4,1:3:0:0:
204,280,180937,1,8,0:2:0:0:
268,328,181161,2,0,P|312:324|344:288,1,80,0|4,0:0|0:3,0:0:0:0:
416,296,181609,5,8,1:3:0:0:
304,184,182056,1,8,1:3:0:0:
418,71,182504,1,8,1:3:0:0:
386,144,182728,1,8,0:2:0:0:
338,80,182952,2,0,P|342:36|378:4,1,80,8|8,1:3|0:2,0:0:0:0:
418,71,183400,5,4,1:3:0:0:
292,168,183847,1,0,0:0:0:0:
181,61,184295,2,0,L|114:49,2,40,4|0|8,1:3|0:0|0:2,0:0:0:0:
192,140,184743,2,0,L|97:123,1,80,0|0,0:0|0:0,0:0:0:0:
56,182,185191,5,8,1:3:0:0:
172,292,185638,1,0,0:0:0:0:
24,368,186086,2,0,L|12:304,2,40,8|0|8,1:3|0:0|0:2,0:0:0:0:
100,344,186534,2,0,L|83:249,1,80,0|8,1:0|0:3,0:0:0:0:
72,188,186982,5,4,1:3:0:0:
108,116,187206,1,8,0:2:0:0:
152,180,187429,2,0,P|204:200|242:189,1,80,4|8,1:3|0:2,0:0:0:0:
204,120,187877,2,0,L|194:68,2,40,4|0|8,1:3|0:0|0:2,0:0:0:0:
284,136,188325,2,0,L|300:41,1,80,4|8,1:3|0:2,0:0:0:0:
385,9,188773,6,0,L|372:88,1,80,8|8,1:3|0:2,0:0:0:0:
428,144,189221,2,0,L|414:222,1,80,0|0,1:0|0:0,0:0:0:0:
396,300,189668,2,0,P|424:303|447:294,2,40,8|0|8,1:3|0:0|0:2,0:0:0:0:
336,244,190116,1,8,1:3:0:0:
279,300,190340,1,8,0:2:0:0:
131,130,191012,5,8,1:2:0:0:
388,130,191795,2,0,L|369:232,1,80,8|0,0:0|0:0,0:0:0:0:
367,248,192131,1,8,1:2:0:0:
367,248,192803,5,8,1:2:0:0:
152,248,193586,6,0,L|133:145,1,80,8|0,0:0|0:0,0:0:0:0:
131,130,193922,1,8,1:2:0:0:
131,130,194594,21,8,1:2:0:0:
388,130,195377,2,0,L|369:232,1,80,8|0,0:0|0:0,0:0:0:0:
367,248,195713,1,8,1:2:0:0:
367,248,196385,21,8,1:2:0:0:
152,248,197168,2,0,L|133:145,1,80,8|0,0:0|0:0,0:0:0:0:
131,130,197504,1,8,1:2:0:0:
336,24,198176,21,8,0:0:0:0:
256,256,199295,1,8,0:0:0:0:
176,24,199967,21,8,0:0:0:0:
256,256,201086,1,8,0:0:0:0:
336,24,201758,21,8,0:0:0:0:
256,256,202877,1,8,0:0:0:0:
256,68,203549,21,8,0:0:0:0:
300,136,204332,21,8,0:0:0:0:
212,136,204668,1,8,0:0:0:0:
