osu file format v14

[General]
AudioFilename: audio.mp3
AudioLeadIn: 0
PreviewTime: 71459
Countdown: 1
SampleSet: Soft
StackLeniency: 0.3
Mode: 0
LetterboxInBreaks: 0
WidescreenStoryboard: 1

[Editor]
Bookmarks: 8774,20415,34743,41907,56235,72355,86683,102803,117131,131459,147579,161907,176235,190564,204892,219332
DistanceSpacing: 0.6
BeatDivisor: 12
GridSize: 4
TimelineZoom: 1.6

[Metadata]
Title:3-nen C-gumi 14-ban Kubozono Chiyoko no Nyuukaku
TitleUnicode:3年C組14番窪園チヨコの入閣
Artist:Powapowa-P feat. Kagamine Rin
ArtistUnicode:Powapowa-P feat. 鏡音リン
Creator:Veridian
Version:Extreme
Source:
Tags:entry into the cabinet chiyoko's year three class fourteen siina mota kokegane uta ikiru
BeatmapID:2063652
BeatmapSetID:980302

[Difficulty]
HPDrainRate:6
CircleSize:4.5
OverallDifficulty:7.5
ApproachRate:8.6
SliderMultiplier:2.4
SliderTickRate:1

[Events]
//Background and Video events
0,0,"sddsasasdasda.PNG",0,0
Video,0,"titbouncenoise.wav.avi"
//Break Periods
2,20415,26829
2,102803,109217
//Storyboard Layer 0 (Background)
//Storyboard Layer 1 (Fail)
//Storyboard Layer 2 (Pass)
//Storyboard Layer 3 (Foreground)
//Storyboard Sound Samples

[TimingPoints]
1609,447.761194029851,4,2,0,100,1,0
18624,447.761194029851,4,2,0,100,1,0
41907,-133.333333333333,4,2,0,100,0,0
56235,-333.333333333333,4,1,0,50,0,0
70564,-66.6666666666667,4,1,0,50,0,0
70862,-66.6666666666667,4,1,0,5,0,0
70974,-66.6666666666667,4,1,0,50,0,0
71086,-66.6666666666667,4,1,0,50,0,0
71161,-66.6666666666667,4,1,0,50,0,0
71235,-66.6666666666667,4,1,0,50,0,0
71385,-66.6666666666667,4,1,0,5,0,0
71459,-66.6666666666667,4,1,0,50,0,0
71571,-66.6666666666667,4,1,0,50,0,0
71832,-66.6666666666667,4,1,0,50,0,0
71907,-333.333333333333,4,1,0,50,0,0
72280,-333.333333333333,4,1,0,50,0,0
72355,-90.9090909090909,4,2,0,100,0,1
86655,-100,4,2,0,100,0,0
86683,-83.3333333333333,4,2,0,100,0,1
101012,-100,4,2,0,100,0,0
102355,-100,4,2,0,50,0,0
109967,-100,4,2,0,100,0,0
117131,-133.333333333333,4,2,0,100,0,0
131459,-333.333333333333,4,1,0,50,0,0
145788,-66.6666666666667,4,1,0,50,0,0
146086,-66.6666666666667,4,1,0,50,0,0
146198,-66.6666666666667,4,1,0,50,0,0
146310,-66.6666666666667,4,1,0,50,0,0
146385,-66.6666666666667,4,1,0,50,0,0
146459,-66.6666666666667,4,1,0,50,0,0
146609,-66.6666666666667,4,1,0,50,0,0
146683,-66.6666666666667,4,1,0,50,0,0
146795,-66.6666666666667,4,1,0,50,0,0
147056,-66.6666666666667,4,1,0,50,0,0
147131,-333.333333333333,4,1,0,50,0,0
147504,-333.333333333333,4,1,0,50,0,0
147579,-90.9090909090909,4,2,0,100,0,1
161879,-100,4,2,0,100,0,0
161907,-83.3333333333333,4,2,0,100,0,1
176207,-76.9230769230769,4,2,0,100,0,0
176235,-71.4285714285714,4,3,0,100,0,1
176683,-71.4285714285714,4,3,0,100,0,0
190564,-133.333333333333,4,2,0,100,0,0
191795,-66.6666666666667,4,2,0,100,0,0
192131,-33.3333333333333,4,2,0,100,0,0
192803,-133.333333333333,4,2,0,100,0,0
193586,-66.6666666666667,4,2,0,100,0,0
193922,-33.3333333333333,4,2,0,100,0,0
194594,-133.333333333333,4,2,0,100,0,0
195377,-66.6666666666667,4,2,0,100,0,0
195713,-33.3333333333333,4,2,0,100,0,0
196385,-133.333333333333,4,2,0,100,0,0
197168,-66.6666666666667,4,2,0,100,0,0
197504,-33.3333333333333,4,2,0,100,0,0

[Colours]
Combo1 : 190,235,86
Combo2 : 112,136,143
Combo3 : 64,115,251
Combo4 : 162,179,183
Combo5 : 253,120,64
Combo6 : 225,225,225
SliderTrackOverride : 231,237,168
SliderBorder : 234,237,211

[HitObjects]
140,72,8773,5,2,0:3:0:0:
109,243,9220,1,2,0:3:0:0:
29,135,9594,1,2,0:3:0:0:
221,169,9892,1,2,0:0:0:0:
125,153,10116,1,2,0:3:0:0:
125,153,10340,1,2,0:0:0:0:
300,72,10564,21,2,0:3:0:0:
331,243,11011,1,2,0:3:0:0:
411,135,11385,1,2,0:3:0:0:
219,169,11683,1,2,0:0:0:0:
315,153,11907,1,2,0:3:0:0:
315,153,12131,1,2,0:0:0:0:
140,72,12355,21,2,0:3:0:0:
109,243,12802,1,2,0:3:0:0:
29,135,13176,1,2,0:3:0:0:
221,169,13474,1,2,0:0:0:0:
125,153,13698,1,2,0:3:0:0:
125,153,13922,1,2,0:0:0:0:
284,32,14146,21,2,0:3:0:0:
156,32,14594,1,2,0:3:0:0:
315,153,15041,1,4,0:0:0:0:
256,192,15265,12,0,18176,1:0:0:0:
164,232,27579,21,2,0:0:0:0:
106,74,27803,1,0,0:0:0:0:
81,217,28026,1,2,0:0:0:0:
81,217,28176,1,0,0:0:0:0:
189,88,28400,21,2,0:0:0:0:
52,138,28624,1,0,0:0:0:0:
32,135,28698,1,2,0:0:0:0:
217,167,28922,1,10,0:0:0:0:
131,153,29146,1,0,0:0:0:0:
287,105,29370,21,2,0:0:0:0:
239,257,29594,1,0,0:0:0:0:
135,61,29818,1,2,0:0:0:0:
135,61,29967,1,0,0:0:0:0:
308,204,30191,22,0,B|329:254|329:254|304:319,1,120,2|0,0:0|0:0,0:0:0:0:
298,334,30489,1,0,0:0:0:0:
160,255,30713,2,0,B|136:194|136:194|157:143,1,120,8|0,0:0|0:0,0:0:0:0:
308,204,31161,21,2,0:0:0:0:
366,46,31385,1,0,0:0:0:0:
391,189,31608,1,2,0:0:0:0:
391,189,31758,1,0,0:0:0:0:
283,60,31982,21,2,0:0:0:0:
420,110,32206,1,0,0:0:0:0:
440,107,32280,1,2,0:0:0:0:
255,139,32504,1,8,0:0:0:0:
341,125,32728,1,0,0:0:0:0:
185,77,32952,21,2,0:0:0:0:
233,229,33176,1,0,0:0:0:0:
337,33,33400,1,2,0:0:0:0:
337,33,33549,1,0,0:0:0:0:
131,179,33773,22,0,L|151:297,1,120,2|0,0:0|0:0,0:0:0:0:
156,316,34071,1,0,0:0:0:0:
280,280,34221,1,4,2:3:0:0:
260,280,34295,1,4,1:3:0:0:
362,241,34444,1,0,0:0:0:0:
372,224,34518,1,0,1:0:0:0:
354,326,34668,1,4,0:3:0:0:
364,344,34743,22,0,P|404:356|456:328,1,80,4|0,3:2|0:0,0:0:0:0:
453,330,34967,1,0,0:0:0:0:
452,172,35191,1,2,1:2:0:0:
480,96,35340,2,0,L|373:114,1,80,0|0,0:0|0:0,0:0:0:0:
387,95,35564,22,0,L|260:117,1,120,2|0,0:2|0:0,0:0:0:0:
254,101,35862,1,0,0:0:0:0:
252,212,36086,1,10,1:2:0:0:
322,24,36310,1,0,0:0:0:0:
176,64,36534,22,0,P|164:104|192:156,1,80,2|0,3:2|0:0,0:0:0:0:
188,156,36758,1,0,0:0:0:0:
188,348,36982,1,2,1:2:0:0:
226,282,37131,2,0,P|188:269|150:281,1,80,0|0,0:0|0:0,0:0:0:0:
136,295,37355,22,0,L|2:318,1,120,2|0,0:2|0:0,0:0:0:0:
3,330,37653,1,2,0:3:0:0:
72,216,37877,1,8,1:2:0:0:
188,348,38101,1,2,0:3:0:0:
308,284,38250,1,0,0:0:0:0:
322,269,38325,22,0,L|412:253,1,80,2|0,3:2|0:0,0:0:0:0:
414,240,38549,1,0,0:0:0:0:
328,108,38773,1,2,1:2:0:0:
396,68,38922,2,0,B|408:108|408:108|388:172,1,80,0|0,0:2|0:0,0:0:0:0:
382,158,39146,22,0,P|332:182|264:143,1,120,2|0,0:2|0:0,0:0:0:0:
261,144,39444,1,0,0:0:0:0:
328,8,39668,1,10,1:2:0:0:
260,232,39892,1,0,0:0:0:0:
208,84,40116,22,0,P|170:71|132:83,1,80,2|0,3:2|0:0,0:0:0:0:
118,96,40340,2,0,L|134:190,1,80,0|0,0:0|0:0,0:0:0:0:
117,188,40564,1,2,1:2:0:0:
52,248,40713,2,0,L|65:326,1,80,0|0,0:0|0:0,0:0:0:0:
68,348,40937,21,2,0:2:0:0:
172,292,41161,1,0,0:0:0:0:
168,272,41235,1,2,0:3:0:0:
188,376,41459,1,8,1:0:0:0:
256,144,41683,1,2,0:3:0:0:
308,216,41907,22,0,B|366:232|366:232|436:212,1,120.000004577637,2|0,0:0|0:0,0:0:0:0:
480,160,42355,1,0,0:0:0:0:
509,93,42504,2,0,P|475:86|439:99,1,60.0000022888184,2|0,0:0|0:0,0:0:0:0:
440,103,42728,2,0,L|333:84,1,90.0000034332277,2|0,0:0|0:0,0:0:0:0:
338,95,43026,1,0,3:0:0:0:
256,16,43250,1,10,0:0:0:0:
256,16,43474,1,0,3:0:0:0:
256,148,43698,21,2,0:0:0:0:
367,9,43922,1,0,3:0:0:0:
176,96,44146,2,0,L|164:32,2,60.0000022888184,2|0|0,0:0|0:0|0:0,0:0:0:0:
165,106,44519,2,0,L|183:212,1,90.0000034332277,2|0,0:0|0:0,0:0:0:0:
184,208,44818,1,0,0:0:0:0:
232,284,45041,2,0,P|191:298|132:274,1,90.0000034332277,8|2,1:2|3:2,0:0:0:0:
312,188,45489,21,0,0:0:0:0:
384,320,45713,1,0,3:2:0:0:
456,240,45937,1,2,0:0:0:0:
483,235,46086,1,0,0:0:0:0:
320,380,46310,2,0,B|300:324|300:324|320:260,1,120.000004577637,2|0,0:0|0:0,0:0:0:0:
452,380,46832,1,8,1:2:0:0:
200,188,47280,21,0,0:0:0:0:
128,320,47504,1,0,3:0:0:0:
56,240,47728,1,2,0:0:0:0:
29,235,47877,1,0,0:0:0:0:
192,380,48101,2,0,B|212:324|212:324|192:260,1,120.000004577637,2|0,0:0|0:0,0:0:0:0:
60,380,48624,1,8,1:2:0:0:
193,266,48847,2,0,L|263:279,1,60.0000022888184,0|0,3:0|0:0,0:0:0:0:
262,266,49071,22,0,L|376:286,1,90.0000034332277,2|0,0:0|0:0,0:0:0:0:
400,340,49519,1,2,0:0:0:0:
472,372,49668,2,0,P|479:338|466:302,1,60.0000022888184,0|0,0:0|0:0,0:0:0:0:
468,300,49892,2,0,P|448:252|484:172,1,120.000004577637,2|0,0:0|3:2,0:0:0:0:
368,112,50415,1,10,0:0:0:0:
368,112,50638,1,0,3:0:0:0:
444,40,50862,21,2,0:0:0:0:
368,188,51086,1,0,3:0:0:0:
228,88,51310,2,0,L|302:101,2,60.0000022888184,2|0|0,0:0|0:0|0:0,0:0:0:0:
217,98,51683,2,0,L|106:78,1,90.0000034332277,2|0,0:0|0:0,0:0:0:0:
112,80,51982,1,0,0:0:0:0:
48,200,52206,1,8,1:2:0:0:
168,328,52429,2,0,L|152:241,1,60.0000022888184,2|0,3:2|0:0,0:0:0:0:
145,266,52653,21,0,0:0:0:0:
131,187,52877,1,0,3:0:0:0:
117,108,53101,1,2,0:0:0:0:
112,80,53250,1,0,0:0:0:0:
48,200,53474,2,0,L|70:326,1,120.000004577637,2|0,3:2|0:0,0:0:0:0:
256,192,53997,1,8,1:2:0:0:
344,328,54221,2,0,L|359:241,1,60.0000022888184,2|0,3:2|0:0,0:0:0:0:
367,266,54444,21,0,0:0:0:0:
381,187,54668,1,0,3:2:0:0:
395,108,54892,1,2,0:0:0:0:
400,80,55041,1,0,0:0:0:0:
412,4,55265,2,0,P|449:19|472:100,1,120.000004577637,6|2,0:0|0:3,0:0:0:0:
476,180,55788,1,2,0:0:0:0:
324,36,56012,1,2,0:3:0:0:
260,96,56235,22,0,B|217:123|178:96|174:88|170:80|131:60|80:92,1,179.999994506836,4|0,0:0|0:0,0:0:0:0:
24,144,57579,1,0,0:0:0:0:
24,144,58026,2,0,L|42:250,2,107.999996704102,2|2|0,0:2|0:2|0:0,0:0:0:0:
8,316,59818,22,0,B|48:341|85:316|89:308|93:301|130:282|178:312,1,179.999994506836,4|0,0:0|0:0,0:0:0:0:
256,348,61161,1,0,0:0:0:0:
364,248,61609,1,2,0:2:0:0:
345,337,62280,1,2,0:2:0:0:
280,272,62952,1,2,0:0:0:0:
404,208,63400,22,0,B|362:234|325:208|321:200|318:193|280:174|232:204,1,179.999994506836,4|0,0:0|0:0,0:0:0:0:
164,248,64743,1,0,0:0:0:0:
164,248,65191,2,0,L|57:229,2,107.999996704102,2|2|0,0:2|0:2|0:0,0:0:0:0:
306,301,66982,22,0,P|322:265|354:245,1,71.9999978027344,2|0,0:2|0:0,0:0:0:0:
206,301,67877,2,0,P|190:265|158:245,1,71.9999978027344,2|0,0:2|0:0,0:0:0:0:
336,36,68773,1,2,0:2:0:0:
256,192,69221,1,2,0:2:0:0:
176,36,69668,1,2,0:2:0:0:
256,192,70116,1,2,0:2:0:0:
488,208,70564,22,0,B|440:248|384:204|380:196|376:188|328:144|264:188,1,240.000009155274,0|0,0:0|0:2,0:0:0:0:
256,192,70937,2,2,B|222:215|178:293|242:384|309:374|341:314|278:223|186:240|144:269,1,360.000013732911,0|0,0:0|0:0,0:0:0:0:
80,280,71459,22,0,B|92:350|92:350|107:368|107:368|98:317|98:317|89:310|89:310|80:259|80:259|85:242|85:242|69:220|69:220|58:157,1,300.000011444092,4|0,1:2|0:0,0:0:0:0:
72,168,71907,22,0,L|61:108,1,59.9999981689454,4|0,0:3|0:0,0:0:0:0:
8,12,72355,6,0,L|149:37,1,132.00000402832,4|0,1:1|0:0,0:0:0:0:
328,200,72803,2,0,L|198:177,1,132.00000402832,0|0,1:0|0:0,0:0:0:0:
392,140,73176,1,2,0:2:0:0:
408,156,73250,2,0,P|421:211|392:264,1,88.000002685547,0|0,0:0|0:0,0:0:0:0:
396,255,73474,2,0,P|383:310|412:363,1,88.000002685547,8|0,0:0|0:0,0:0:0:0:
407,354,73698,1,2,1:2:0:0:
296,304,73922,2,0,L|209:319,1,88.000002685547,8|0,0:0|0:0,0:0:0:0:
188,324,74146,21,2,1:2:0:0:
128,144,74370,1,8,0:0:0:0:
64,216,74594,21,2,1:2:0:0:
216,144,74743,1,0,0:0:0:0:
64,76,74967,21,2,0:2:0:0:
84,72,75041,2,0,L|186:53,1,88.000002685547,0|0,0:0|0:0,0:0:0:0:
186,72,75265,1,8,0:0:0:0:
292,108,75489,2,0,L|394:89,1,88.000002685547,2|0,1:2|0:0,0:0:0:0:
392,104,75713,2,0,P|405:152|368:212,1,88.000002685547,8|0,0:0|0:0,0:0:0:0:
384,208,75937,22,0,B|360:248|360:248|376:360,1,132.00000402832,6|0,1:2|0:0,0:0:0:0:
468,380,76310,1,0,0:0:0:0:
483,364,76385,2,0,L|465:261,1,88.000002685547,2|0,1:2|0:0,0:0:0:0:
484,261,76609,1,0,0:0:0:0:
372,332,76758,2,0,P|308:344|276:284,1,132.00000402832,2|0,0:2|0:0,0:0:0:0:
280,272,77056,1,8,0:0:0:0:
188,188,77280,2,0,P|201:229|189:271,1,88.000002685547,2|0,1:2|0:0,0:0:0:0:
173,286,77504,2,0,L|70:267,1,88.000002685547,10|0,0:2|0:0,0:0:0:0:
70,286,77728,21,2,1:2:0:0:
0,160,77952,2,0,L|126:182,1,88.000002685547,0|0,0:0|0:0,0:0:0:0:
102,159,78176,1,0,1:0:0:0:
24,24,78325,2,0,P|24:64|108:52,1,132.00000402832,0|0,0:0|0:0,0:0:0:0:
116,56,78624,21,8,0:3:0:0:
189,271,78847,1,12,0:3:0:0:
260,144,79071,1,12,0:3:0:0:
187,359,79294,1,4,0:3:0:0:
272,324,79444,1,0,0:0:0:0:
292,316,79519,22,0,P|337:304|414:366,1,132.00000402832,4|8,1:0|0:0,0:0:0:0:
346,88,79967,2,0,L|371:233,1,132.00000402832,2|0,1:2|0:0,0:0:0:0:
472,280,80340,1,2,0:2:0:0:
487,264,80415,2,0,L|469:157,1,88.000002685547,0|0,0:0|0:0,0:0:0:0:
487,161,80638,1,8,0:0:0:0:
429,87,80862,2,0,P|386:75|345:87,1,88.000002685547,2|0,1:2|0:0,0:0:0:0:
329,103,81086,2,0,P|287:115|245:103,1,88.000002685547,8|0,0:0|0:0,0:0:0:0:
229,88,81310,21,2,1:2:0:0:
148,196,81534,1,8,0:0:0:0:
60,144,81758,21,0,1:0:0:0:
240,200,81907,1,2,0:2:0:0:
80,304,82131,21,2,0:2:0:0:
95,288,82206,2,0,L|202:306,1,88.000002685547,0|0,0:0|0:0,0:0:0:0:
197,287,82429,1,8,0:0:0:0:
272,364,82653,2,0,P|312:332|372:336,1,88.000002685547,2|0,1:2|0:0,0:0:0:0:
368,328,82877,2,0,P|408:360|468:356,1,88.000002685547,2|0,0:2|0:0,0:0:0:0:
464,360,83101,22,0,B|488:320|488:320|472:208,1,132.00000402832,6|0,1:2|0:0,0:0:0:0:
392,96,83474,1,0,0:0:0:0:
378,113,83549,2,0,L|395:212,1,88.000002685547,2|0,1:2|0:0,0:0:0:0:
380,217,83773,1,0,0:0:0:0:
469,84,83922,2,0,P|449:36|349:28,1,132.00000402832,2|0,0:2|0:0,0:0:0:0:
363,30,84221,2,0,L|260:48,1,88.000002685547,8|0,0:0|0:0,0:0:0:0:
260,60,84444,1,2,1:2:0:0:
104,144,84668,2,0,L|206:125,1,88.000002685547,10|0,0:2|0:0,0:0:0:0:
208,140,84892,22,0,P|220:188|204:232,1,88.000002685547,2|0,1:2|0:0,0:0:0:0:
193,239,85116,2,0,P|181:287|197:331,1,88.000002685547,0|0,0:0|0:0,0:0:0:0:
207,338,85340,1,0,1:0:0:0:
368,240,85489,2,0,P|356:292|284:296,1,132.00000402832,0|0,0:0|0:0,0:0:0:0:
270,282,85788,21,8,0:3:0:0:
368,88,86012,1,12,0:3:0:0:
468,196,86235,1,12,0:3:0:0:
370,2,86459,1,4,0:3:0:0:
280,144,86683,22,0,P|220:173|140:125,1,143.999995605469,4|0,1:1|0:2,0:0:0:0:
76,100,87019,2,0,L|61:182,1,71.9999978027344,0|0,1:2|0:0,0:0:0:0:
119,294,87243,2,0,L|132:224,1,71.9999978027344,2|0,1:2|0:0,0:0:0:0:
44,280,87467,2,0,P|47:323|72:355,1,71.9999978027344,2|0,0:3|0:0,0:0:0:0:
155,364,87691,2,0,P|182:340|195:307,1,71.9999978027344,2|0,0:2|0:0,0:0:0:0:
256,248,87915,1,0,0:2:0:0:
304,320,88026,2,0,L|410:338,1,71.9999978027344,2|2,0:2|0:2,0:0:0:0:
498,276,88250,2,0,L|428:264,1,71.9999978027344,2|0,0:3|0:0,0:0:0:0:
376,196,88474,22,0,P|347:136|395:56,1,143.999995605469,4|0,1:2|0:2,0:0:0:0:
432,136,88810,2,0,L|518:151,1,71.9999978027344,0|0,1:2|0:0,0:0:0:0:
375,68,89034,2,0,L|304:55,1,71.9999978027344,2|0,1:2|0:0,0:0:0:0:
236,112,89258,2,0,P|235:147|217:178,1,71.9999978027344,2|0,0:3|0:0,0:0:0:0:
124,195,89482,2,0,P|96:171|83:138,1,71.9999978027344,2|0,0:2|0:0,0:0:0:0:
160,124,89706,1,0,0:2:0:0:
80,260,89818,21,2,0:0:0:0:
164,260,89929,1,2,1:2:0:0:
236,308,90041,21,2,0:0:0:0:
272,380,90153,1,2,0:3:0:0:
324,312,90265,22,0,L|481:339,1,143.999995605469,4|0,1:2|0:0,0:0:0:0:
440,252,90601,2,0,L|337:233,1,71.9999978027344,0|0,1:0|0:0,0:0:0:0:
304,184,90825,2,0,P|285:153|284:117,1,71.9999978027344,2|0,1:2|0:0,0:0:0:0:
391,65,91049,2,0,P|390:101|372:132,1,71.9999978027344,2|0,0:3|0:0,0:0:0:0:
284,117,91273,2,0,L|181:98,1,71.9999978027344,2|0,0:0|0:0,0:0:0:0:
128,88,91497,1,0,1:0:0:0:
44,72,91609,2,0,P|45:107|63:138,1,71.9999978027344,2|0,0:0|0:0,0:0:0:0:
128,196,91832,2,0,P|126:231|108:262,1,71.9999978027344,2|0,0:3|0:0,0:0:0:0:
44,320,92056,22,0,P|104:291|184:339,1,143.999995605469,4|0,1:2|0:0,0:0:0:0:
256,336,92392,2,0,L|326:348,1,71.9999978027344,0|0,1:0|0:0,0:0:0:0:
474,316,92616,2,0,L|404:304,1,71.9999978027344,2|0,1:2|0:0,0:0:0:0:
328,260,92840,2,0,P|309:229|308:193,1,71.9999978027344,2|0,0:3|0:0,0:0:0:0:
344,57,93064,2,0,P|362:88|364:124,1,71.9999978027344,2|0,0:0|0:0,0:0:0:0:
276,112,93288,1,0,1:0:0:0:
208,168,93400,2,0,P|189:137|188:101,2,71.9999978027344,2|0|2,0:0|1:0|0:3,0:0:0:0:
96,300,93847,22,0,P|124:236|95:172,1,143.999995605469,4|0,1:2|0:0,0:0:0:0:
36,240,94183,2,0,L|19:145,1,71.9999978027344,0|0,1:0|0:0,0:0:0:0:
96,300,94407,2,0,L|108:370,1,71.9999978027344,2|0,1:2|0:0,0:0:0:0:
180,324,94631,2,0,P|215:325|246:343,1,71.9999978027344,2|0,0:3|0:0,0:0:0:0:
332,344,94855,2,0,P|367:342|398:324,1,71.9999978027344,2|0,0:0|0:0,0:0:0:0:
340,260,95079,1,0,0:0:0:0:
392,192,95191,2,0,P|361:173|325:172,1,71.9999978027344,2|2,0:0|1:2,0:0:0:0:
248,212,95415,2,0,P|217:230|181:231,1,71.9999978027344,2|0,0:3|0:0,0:0:0:0:
192,144,95638,22,0,L|217:-1,1,143.999995605469,4|0,1:2|0:0,0:0:0:0:
292,44,95974,2,0,L|386:27,1,71.9999978027344,0|0,1:0|0:0,0:0:0:0:
502,71,96198,2,0,L|432:84,1,71.9999978027344,2|0,1:2|0:0,0:0:0:0:
364,140,96422,2,0,P|346:171|345:207,1,71.9999978027344,2|0,0:3|0:0,0:0:0:0:
412,260,96646,2,0,P|430:291|431:327,1,71.9999978027344,2|0,0:0|0:0,0:0:0:0:
344,308,96870,1,0,0:0:0:0:
264,208,96982,21,2,0:0:0:0:
244,292,97094,1,2,0:2:0:0:
168,332,97206,21,2,0:0:0:0:
84,308,97318,1,2,0:3:0:0:
28,372,97429,22,0,L|58:198,1,143.999995605469,4|0,1:2|0:0,0:0:0:0:
132,192,97765,2,0,L|113:85,1,71.9999978027344,0|0,1:2|0:0,0:0:0:0:
183,9,97989,2,0,L|196:80,1,71.9999978027344,2|0,1:2|0:0,0:0:0:0:
212,164,98213,2,0,P|243:183|279:184,1,71.9999978027344,2|0,0:3|0:0,0:0:0:0:
336,116,98437,2,0,P|367:97|403:96,1,71.9999978027344,2|0,0:0|0:0,0:0:0:0:
392,184,98661,1,0,1:2:0:0:
444,252,98773,2,0,P|413:271|377:272,1,71.9999978027344,2|0,0:0|0:0,0:0:0:0:
312,328,98997,2,0,P|281:309|245:308,1,71.9999978027344,2|0,0:3|0:0,0:0:0:0:
192,376,99221,22,0,L|10:344,1,143.999995605469,4|0,1:2|0:0,0:0:0:0:
36,264,99556,2,0,L|130:280,1,71.9999978027344,0|0,1:2|0:0,0:0:0:0:
234,220,99780,2,0,L|164:208,1,71.9999978027344,2|0,1:2|0:0,0:0:0:0:
108,144,100004,1,0,0:0:0:0:
156,72,100116,21,2,1:2:0:0:
208,48,100228,1,2,0:0:0:0:
264,64,100340,1,2,0:3:0:0:
284,116,100452,1,2,1:3:0:0:
308,168,100564,21,2,0:0:0:0:
360,192,100676,1,2,1:2:0:0:
416,180,100788,1,2,0:3:0:0:
444,132,100900,1,2,0:3:0:0:
372,116,101012,6,0,B|356:84|356:84|384:8,3,100,0|0|0|0,3:0|3:0|1:0|3:0,0:0:0:0:
256,332,102355,1,8,0:2:0:0:
148,40,109967,22,0,P|108:28|56:56,1,80,4|0,3:2|0:0,0:0:0:0:
59,54,110191,1,0,0:0:0:0:
60,212,110415,1,2,1:2:0:0:
32,288,110564,2,0,L|139:270,1,80,0|0,0:0|0:0,0:0:0:0:
125,289,110788,22,0,L|252:267,1,120,2|0,0:2|0:0,0:0:0:0:
258,283,111086,1,0,0:0:0:0:
260,172,111310,1,10,1:2:0:0:
190,360,111534,1,0,0:0:0:0:
336,320,111758,22,0,P|348:280|320:228,1,80,2|0,3:2|0:0,0:0:0:0:
324,228,111982,1,0,0:0:0:0:
324,36,112206,1,2,1:2:0:0:
286,102,112355,2,0,P|324:115|362:103,1,80,0|0,0:0|0:0,0:0:0:0:
376,89,112579,22,0,L|510:66,1,120,2|0,0:2|0:0,0:0:0:0:
509,54,112877,1,2,0:3:0:0:
440,168,113101,1,8,1:2:0:0:
324,36,113325,1,2,0:3:0:0:
204,100,113474,1,0,0:0:0:0:
190,115,113549,22,0,L|100:131,1,80,2|0,3:2|0:0,0:0:0:0:
98,144,113773,1,0,0:0:0:0:
184,276,113997,1,2,1:2:0:0:
116,316,114146,2,0,B|104:276|104:276|124:212,1,80,0|0,0:2|0:0,0:0:0:0:
130,226,114370,22,0,P|180:202|248:241,1,120,2|0,0:2|0:0,0:0:0:0:
251,240,114668,1,0,0:0:0:0:
184,376,114892,1,10,1:2:0:0:
252,152,115116,1,0,0:0:0:0:
304,300,115340,22,0,P|342:313|380:301,1,80,2|0,3:2|0:0,0:0:0:0:
394,288,115564,2,0,L|378:194,1,80,0|0,0:0|0:0,0:0:0:0:
395,196,115788,1,2,1:2:0:0:
460,136,115937,2,0,L|447:58,1,80,0|0,0:0|0:0,0:0:0:0:
444,36,116161,21,2,0:2:0:0:
340,92,116385,1,0,0:0:0:0:
344,112,116459,1,2,0:3:0:0:
324,8,116683,1,8,1:0:0:0:
256,240,116907,1,2,0:3:0:0:
196,176,117131,22,0,P|144:156|72:188,1,120.000004577637,2|0,0:0|0:0,0:0:0:0:
4,252,117579,1,0,0:0:0:0:
44,308,117728,2,0,L|126:287,1,60.0000022888184,2|0,0:0|0:0,0:0:0:0:
112,303,117952,2,0,L|206:286,1,90.0000034332277,2|0,0:0|0:0,0:0:0:0:
211,298,118250,1,0,0:3:0:0:
280,188,118474,1,10,0:0:0:0:
360,300,118698,1,0,0:3:0:0:
356,156,118922,22,0,P|322:116|242:118,1,120.000004577637,2|0,0:0|0:0,0:0:0:0:
172,136,119370,2,0,P|166:108|181:62,2,60.0000022888184,2|0|0,0:0|0:0|0:0,0:0:0:0:
180,148,119743,2,0,P|192:188|168:248,1,90.0000034332277,2|0,0:0|0:0,0:0:0:0:
172,248,120041,1,0,0:0:0:0:
12,208,120265,2,0,L|118:189,1,90.0000034332277,8|2,1:0|3:2,0:0:0:0:
184,320,120638,1,0,0:0:0:0:
168,320,120713,22,0,P|125:308|100:258,1,90.0000034332277,2|0,0:0|0:0,0:0:0:0:
105,165,121161,1,0,0:0:0:0:
100,192,121310,1,0,0:0:0:0:
172,248,121534,2,0,L|194:118,1,120.000004577637,2|0,0:0|0:0,0:0:0:0:
256,68,122056,1,8,1:0:0:0:
280,290,122280,2,0,P|306:317|339:318,1,60.0000022888184,2|0,3:2|0:0,0:0:0:0:
340,321,122504,22,0,P|383:309|408:259,1,90.0000034332277,2|0,0:0|0:0,0:0:0:0:
407,165,122952,1,0,0:0:0:0:
412,192,123101,1,2,0:0:0:0:
340,248,123325,2,0,L|317:118,1,120.000004577637,2|0,0:0|0:0,0:0:0:0:
256,68,123847,1,8,1:0:0:0:
352,16,124071,1,0,3:2:0:0:
240,148,124295,22,0,B|198:161|198:161|140:144,1,90.0000034332277,2|0,0:0|0:0,0:0:0:0:
84,64,124743,1,0,0:0:0:0:
44,136,124892,2,0,L|52:183,1,30.0000011444092,2|0,0:0|0:0,0:0:0:0:
174,266,125116,2,0,L|150:132,1,120.000004577637,2|0,0:0|3:2,0:0:0:0:
88,268,125638,1,10,0:0:0:0:
248,312,125862,1,0,3:0:0:0:
176,360,126086,21,2,0:0:0:0:
336,312,126310,1,0,3:0:0:0:
280,188,126534,2,0,P|273:228|291:260,2,60.0000022888184,2|0|0,0:0|0:0|0:0,0:0:0:0:
288,176,126907,2,0,P|304:132|280:80,1,90.0000034332277,2|0,0:0|0:0,0:0:0:0:
280,80,127206,1,0,0:0:0:0:
132,116,127429,2,0,L|238:134,1,90.0000034332277,8|0,0:0|3:0,0:0:0:0:
132,36,127877,21,2,0:0:0:0:
76,180,128101,1,0,3:0:0:0:
24,108,128325,1,2,0:0:0:0:
32,80,128474,1,0,0:0:0:0:
148,208,128698,2,0,P|128:240|44:248,1,120.000004577637,2|0,0:0|0:0,0:0:0:0:
132,36,129221,1,8,1:0:0:0:
380,108,129444,2,0,L|367:37,1,60.0000022888184,2|0,3:2|0:0,0:0:0:0:
380,36,129668,21,0,0:0:0:0:
436,180,129892,1,0,3:2:0:0:
488,108,130116,1,2,0:0:0:0:
480,80,130265,1,0,0:0:0:0:
364,208,130489,2,0,P|384:240|468:248,1,120.000004577637,6|2,0:0|3:0,0:0:0:0:
380,36,131012,1,0,0:0:0:0:
308,140,131235,1,2,0:3:0:0:
252,0,131459,22,0,B|278:41|258:80|250:84|242:88|215:127|242:170,1,179.999994506836,4|0,0:0|0:0,0:0:0:0:
292,232,132803,1,0,0:0:0:0:
292,232,133250,2,0,L|272:342,2,107.999996704102,2|2|0,0:2|0:2|0:0,0:0:0:0:
424,120,135041,22,0,B|381:93|342:120|338:128|334:136|295:156|254:130,1,179.999994506836,4|0,0:0|0:0,0:0:0:0:
192,80,136385,1,0,0:0:0:0:
64,192,136832,1,2,0:2:0:0:
83,281,137503,1,2,0:2:0:0:
148,216,138175,1,2,0:0:0:0:
44,344,138624,22,0,B|85:370|124:350|128:342|132:334|171:307|213:333,1,179.999994506836,4|0,0:0|0:0,0:0:0:0:
280,380,139967,1,0,0:0:0:0:
280,380,140415,2,0,L|390:360,1,107.999996704102,2|2,0:2|0:2,0:0:0:0:
256,244,141758,1,0,0:0:0:0:
312,156,142206,22,0,P|328:192|360:208,1,71.9999978027344,2|0,0:2|0:0,0:0:0:0:
200,156,143101,2,0,P|184:192|152:208,1,71.9999978027344,2|0,0:2|0:0,0:0:0:0:
336,56,143997,1,2,0:2:0:0:
256,244,144444,1,2,0:2:0:0:
176,56,144892,1,2,0:2:0:0:
256,244,145340,1,2,0:2:0:0:
332,284,145788,22,0,P|336:216|188:188,1,240.000009155274,0|0,0:0|0:0,0:0:0:0:
184,188,146198,2,0,B|143:214|70:236|-3:213|-20:81|69:56|148:108|94:174|84:188,1,330.000012588501,0|0,0:0|0:0,0:0:0:0:
16,264,146683,22,0,B|60:271|60:271|82:287|82:287|99:282|99:282|150:291|150:291|157:300|157:300|208:309|208:309|190:294|190:294|120:282,1,300.000011444092,4|0,1:2|0:0,0:0:0:0:
124,296,147131,22,0,L|130:335,1,35.9999989013672,0|0,0:0|0:0,0:0:0:0:
280,372,147579,6,0,P|300:324|256:228,1,132.00000402832,4|0,1:1|0:0,0:0:0:0:
204,88,148026,2,0,P|208:136|304:152,1,132.00000402832,2|0,1:2|0:0,0:0:0:0:
352,132,148400,2,0,L|501:158,1,132.00000402832,0|0,0:0|0:0,0:0:0:0:
497,139,148698,1,8,0:0:0:0:
448,52,148922,2,0,L|345:33,1,88.000002685547,2|0,0:0|0:0,0:0:0:0:
345,21,149146,1,8,1:2:0:0:
256,196,149370,21,2,1:2:0:0:
188,116,149594,1,8,0:0:0:0:
256,280,149818,21,2,1:2:0:0:
324,116,149967,1,0,0:0:0:0:
176,208,150191,21,2,0:2:0:0:
156,196,150265,2,0,P|108:184|68:196,1,88.000002685547,0|0,0:0|0:0,0:0:0:0:
56,208,150489,1,8,0:0:0:0:
72,344,150713,2,0,P|116:324|104:280,1,88.000002685547,2|0,1:2|0:0,0:0:0:0:
112,268,150937,2,0,L|129:366,1,88.000002685547,8|0,0:0|0:0,0:0:0:0:
142,370,151161,22,0,B|176:384|204:372|208:368|212:364|242:350|276:368,1,132.00000402832,6|0,1:2|0:0,0:0:0:0:
344,296,151534,1,0,0:0:0:0:
364,308,151608,2,0,P|412:320|452:308,1,88.000002685547,2|0,1:2|0:0,0:0:0:0:
464,296,151832,1,0,0:0:0:0:
397,93,151982,2,0,B|373:137|373:137|405:233,1,132.00000402832,2|0,0:2|0:0,0:0:0:0:
406,235,152280,1,8,0:0:0:0:
480,148,152504,1,2,1:2:0:0:
256,296,152728,1,10,0:2:0:0:
184,240,152952,22,0,L|201:141,1,88.000002685547,2|0,1:2|0:0,0:0:0:0:
183,137,153176,2,0,P|141:124|98:134,1,88.000002685547,0|0,0:0|0:0,0:0:0:0:
83,150,153400,1,0,1:0:0:0:
0,40,153624,2,0,P|41:52|84:42,1,88.000002685547,0|0,0:0|0:0,0:0:0:0:
99,26,153847,21,8,0:3:0:0:
184,240,154071,1,12,0:3:0:0:
268,108,154295,1,12,0:3:0:0:
183,322,154519,1,4,0:3:0:0:
83,220,154743,22,0,L|98:133,1,88.000002685547,4|0,1:0|0:0,0:0:0:0:
104,112,154967,1,8,0:0:0:0:
328,168,155191,2,0,P|284:192|195:148,1,132.00000402832,2|0,1:2|0:0,0:0:0:0:
268,36,155564,1,2,0:2:0:0:
283,51,155638,2,0,L|379:34,1,88.000002685547,0|0,0:0|0:0,0:0:0:0:
385,52,155862,1,8,0:0:0:0:
496,152,156086,2,0,P|460:120|413:125,1,88.000002685547,2|0,1:2|0:0,0:0:0:0:
408,140,156310,2,0,L|425:238,1,88.000002685547,8|0,0:0|0:0,0:0:0:0:
428,248,156534,21,2,1:2:0:0:
304,304,156758,1,8,0:0:0:0:
432,352,156982,21,0,1:0:0:0:
220,304,157131,1,0,0:0:0:0:
320,208,157355,21,2,0:2:0:0:
304,223,157429,2,0,L|201:204,1,88.000002685547,0|0,0:0|0:0,0:0:0:0:
201,223,157653,1,8,0:0:0:0:
148,80,157877,2,0,P|160:121|150:164,1,88.000002685547,2|0,1:2|0:0,0:0:0:0:
134,179,158101,2,0,P|122:220|132:263,1,88.000002685547,2|0,0:2|0:0,0:0:0:0:
140,284,158325,22,0,P|148:328|72:324,1,132.00000402832,6|0,1:2|0:0,0:0:0:0:
272,268,158773,2,0,P|264:344|348:320,2,176.000005371094,2|0|0,0:2|0:0|0:0,0:0:0:0:
287,252,159444,1,8,0:0:0:0:
388,64,159668,2,0,L|370:162,1,88.000002685547,2|0,1:2|0:0,0:0:0:0:
388,166,159892,2,0,L|371:260,1,88.000002685547,10|0,0:2|0:0,0:0:0:0:
388,268,160116,21,2,1:2:0:0:
466,211,160340,2,0,P|478:163|466:123,1,88.000002685547,0|0,0:0|0:0,0:0:0:0:
483,111,160564,1,0,1:0:0:0:
284,168,160788,1,2,0:0:0:0:
496,292,161012,21,8,0:3:0:0:
208,168,161235,1,12,0:3:0:0:
384,64,161459,1,12,0:3:0:0:
132,168,161683,1,4,0:3:0:0:
232,240,161907,22,0,P|292:211|372:259,1,143.999995605469,4|0,1:1|0:2,0:0:0:0:
436,284,162243,2,0,L|451:202,1,71.9999978027344,0|0,1:2|0:0,0:0:0:0:
393,90,162467,2,0,L|380:160,1,71.9999978027344,2|0,1:2|0:0,0:0:0:0:
468,104,162691,2,0,P|465:61|440:29,1,71.9999978027344,2|0,0:3|0:0,0:0:0:0:
357,20,162915,2,0,P|330:44|317:77,1,71.9999978027344,2|0,0:2|0:0,0:0:0:0:
256,136,163139,1,0,0:2:0:0:
208,64,163250,2,0,L|102:46,1,71.9999978027344,2|2,0:2|0:2,0:0:0:0:
14,108,163474,2,0,L|84:120,1,71.9999978027344,2|0,0:3|0:0,0:0:0:0:
136,188,163698,54,0,P|165:248|117:328,1,143.999995605469,4|0,1:2|0:2,0:0:0:0:
80,248,164034,2,0,L|-6:233,1,71.9999978027344,0|0,1:2|0:0,0:0:0:0:
137,316,164258,2,0,L|208:329,1,71.9999978027344,2|0,1:2|0:0,0:0:0:0:
276,272,164482,2,0,P|277:237|295:206,1,71.9999978027344,2|0,0:3|0:0,0:0:0:0:
388,189,164706,2,0,P|416:213|429:246,1,71.9999978027344,2|0,0:2|0:0,0:0:0:0:
352,260,164930,1,0,0:2:0:0:
432,124,165042,53,2,0:0:0:0:
348,124,165153,1,2,1:2:0:0:
276,76,165265,53,2,0:0:0:0:
240,4,165377,1,2,0:3:0:0:
188,72,165489,54,0,L|31:45,1,143.999995605469,4|0,1:2|0:0,0:0:0:0:
72,132,165825,2,0,L|175:151,1,71.9999978027344,0|0,1:0|0:0,0:0:0:0:
208,200,166049,2,0,P|227:231|228:267,1,71.9999978027344,2|0,1:2|0:0,0:0:0:0:
121,319,166273,2,0,P|122:283|140:252,1,71.9999978027344,2|0,0:3|0:0,0:0:0:0:
228,267,166497,2,0,L|331:286,1,71.9999978027344,2|0,0:0|0:0,0:0:0:0:
384,296,166721,1,0,1:0:0:0:
468,312,166833,2,0,P|467:277|449:246,1,71.9999978027344,2|0,0:0|0:0,0:0:0:0:
384,188,167056,2,0,P|386:153|404:122,1,71.9999978027344,2|0,0:3|0:0,0:0:0:0:
468,64,167280,54,0,P|408:93|328:45,1,143.999995605469,4|0,1:2|0:0,0:0:0:0:
256,48,167616,2,0,L|186:36,1,71.9999978027344,0|0,1:0|0:0,0:0:0:0:
38,68,167840,2,0,L|108:80,1,71.9999978027344,2|0,1:2|0:0,0:0:0:0:
184,124,168064,2,0,P|203:155|204:191,1,71.9999978027344,2|0,0:3|0:0,0:0:0:0:
168,327,168288,2,0,P|150:296|148:260,1,71.9999978027344,2|0,0:0|0:0,0:0:0:0:
236,272,168512,1,0,1:0:0:0:
304,216,168624,2,0,P|323:247|324:283,2,71.9999978027344,2|0|2,0:0|1:0|0:3,0:0:0:0:
416,84,169071,54,0,P|388:148|417:212,1,143.999995605469,4|0,1:2|0:0,0:0:0:0:
476,144,169407,2,0,L|493:239,1,71.9999978027344,0|0,1:0|0:0,0:0:0:0:
416,84,169631,2,0,L|404:14,1,71.9999978027344,2|0,1:2|0:0,0:0:0:0:
332,60,169855,2,0,P|297:59|266:41,1,71.9999978027344,2|0,0:3|0:0,0:0:0:0:
180,40,170079,2,0,P|145:42|114:60,1,71.9999978027344,2|0,0:0|0:0,0:0:0:0:
172,124,170303,1,0,0:0:0:0:
120,192,170415,2,0,P|151:211|187:212,1,71.9999978027344,2|2,0:0|1:2,0:0:0:0:
264,172,170639,2,0,P|295:154|331:153,1,71.9999978027344,2|0,0:3|0:0,0:0:0:0:
320,240,170862,54,0,L|295:385,1,143.999995605469,4|0,1:2|0:0,0:0:0:0:
220,340,171198,2,0,L|126:357,1,71.9999978027344,0|0,1:0|0:0,0:0:0:0:
10,313,171422,2,0,L|80:300,1,71.9999978027344,2|0,1:2|0:0,0:0:0:0:
148,244,171646,2,0,P|166:213|167:177,1,71.9999978027344,2|0,0:3|0:0,0:0:0:0:
100,124,171870,2,0,P|82:93|81:57,1,71.9999978027344,2|0,0:0|0:0,0:0:0:0:
168,76,172094,1,0,0:0:0:0:
248,176,172206,53,2,0:0:0:0:
268,92,172318,1,2,0:2:0:0:
344,52,172430,53,2,0:0:0:0:
428,76,172542,1,2,0:3:0:0:
484,12,172653,54,0,L|454:186,1,143.999995605469,4|0,1:2|0:0,0:0:0:0:
380,192,172989,2,0,L|399:299,1,71.9999978027344,0|0,1:2|0:0,0:0:0:0:
329,375,173213,2,0,L|316:304,1,71.9999978027344,2|0,1:2|0:0,0:0:0:0:
300,220,173437,2,0,P|269:201|233:200,1,71.9999978027344,2|0,0:3|0:0,0:0:0:0:
176,268,173661,2,0,P|145:287|109:288,1,71.9999978027344,2|0,0:0|0:0,0:0:0:0:
120,200,173885,1,0,1:2:0:0:
68,132,173997,2,0,P|99:113|135:112,1,71.9999978027344,2|0,0:0|0:0,0:0:0:0:
200,56,174221,2,0,P|231:75|267:76,1,71.9999978027344,2|0,0:3|0:0,0:0:0:0:
320,8,174445,54,0,L|502:40,1,143.999995605469,4|0,1:2|0:0,0:0:0:0:
476,120,174780,2,0,L|382:104,1,71.9999978027344,0|0,1:2|0:0,0:0:0:0:
278,164,175004,2,0,L|348:176,1,71.9999978027344,2|0,1:2|0:0,0:0:0:0:
404,240,175228,1,0,0:0:0:0:
356,312,175340,53,2,1:2:0:0:
304,336,175452,1,2,0:0:0:0:
248,320,175564,1,2,0:3:0:0:
220,272,175676,1,2,1:3:0:0:
179,235,175788,21,2,0:0:0:0:
128,260,175900,1,2,1:2:0:0:
140,316,176012,1,2,0:3:0:0:
196,324,176124,1,2,0:3:0:0:
173,281,176235,6,0,L|141:100,1,167.999994873047,4|8,1:3|0:2,0:0:0:0:
64,76,176571,2,0,B|52:116|52:116|76:192,1,83.9999974365235,4|0,0:3|1:0,0:0:0:0:
144,28,176795,1,4,0:3:0:0:
144,28,176907,2,0,L|254:47,1,83.9999974365235,0|0,0:0|0:0,0:0:0:0:
408,160,177131,6,0,L|195:122,1,167.999994873047,4|8,1:3|0:2,0:0:0:0:
480,120,177467,2,0,B|492:159|492:159|470:236,1,83.9999974365235,4|0,0:3|1:0,0:0:0:0:
408,80,177691,1,4,0:3:0:0:
408,80,177803,2,0,B|395:39|395:39|408:0,1,83.9999974365235,0|0,0:0|0:0,0:0:0:0:
512,288,178026,6,0,P|464:236|356:280,1,167.999994873047,8|8,1:3|0:2,0:0:0:0:
384,376,178362,2,0,P|424:348|412:280,1,83.9999974365235,8|0,0:3|1:0,0:0:0:0:
284,232,178586,1,8,0:3:0:0:
284,232,178698,2,0,L|302:334,1,83.9999974365235,0|0,0:0|0:0,0:0:0:0:
324,156,178922,6,0,B|232:108|236:224|108:140,1,167.999994873047,8|8,1:3|0:2,0:0:0:0:
64,28,179258,2,0,P|112:12|192:96,1,167.999994873047,8|8,0:3|0:3,0:0:0:0:
76,167,179594,2,0,P|87:123|140:81,1,83.9999974365235,8|0,0:2|0:0,0:0:0:0:
160,256,179818,6,0,P|112:240|32:324,1,167.999994873047,4|8,1:3|0:2,0:0:0:0:
196,348,180153,2,0,L|101:331,1,83.9999974365235,4|0,0:0|0:0,0:0:0:0:
212,208,180377,1,0,0:0:0:0:
232,256,180489,1,4,0:3:0:0:
280,272,180601,1,0,0:0:0:0:
328,256,180713,6,0,L|501:286,1,167.999994873047,4|8,1:3|0:2,0:0:0:0:
284,112,181049,2,0,B|272:153|272:153|284:192,1,83.9999974365235,4|0,0:3|0:0,0:0:0:0:
472,176,181273,1,0,0:0:0:0:
432,204,181385,1,4,0:3:0:0:
384,196,181497,1,0,0:0:0:0:
364,152,181609,6,0,L|381:53,1,83.9999974365235,8|0,1:3|0:0,0:0:0:0:
456,0,181832,2,0,L|470:82,1,83.9999974365235,8|0,0:2|0:0,0:0:0:0:
284,192,182056,2,0,L|320:-16,1,167.999994873047,8|8,1:3|0:2,0:0:0:0:
216,108,182392,1,0,0:0:0:0:
216,108,182504,6,0,P|164:136|116:124,1,83.9999974365235,8|0,1:3|0:0,0:0:0:0:
92,0,182728,2,0,P|142:31|155:78,1,83.9999974365235,8|0,0:2|0:0,0:0:0:0:
118,217,182952,2,0,P|62:165|82:77,1,167.999994873047,8|8,1:3|0:2,0:0:0:0:
204,200,183288,1,0,0:0:0:0:
204,200,183400,6,0,P|188:271|77:291,1,167.999994873047,4|8,1:3|0:2,0:0:0:0:
35,231,183735,1,4,0:3:0:0:
35,231,183847,2,0,L|133:213,1,83.9999974365235,0|0,0:0|0:0,0:0:0:0:
296,284,184071,1,8,0:2:0:0:
296,284,184183,1,0,0:0:0:0:
296,284,184295,6,0,P|306:209|350:180,1,83.9999974365235,4|0,1:3|0:0,0:0:0:0:
459,231,184519,2,0,P|447:305|402:333,1,83.9999974365235,8|4,0:2|0:3,0:0:0:0:
375,261,184743,1,0,0:0:0:0:
375,261,184855,2,0,L|406:79,1,167.999994873047,0|0,0:0|0:0,0:0:0:0:
203,27,185191,6,0,P|227:95|319:83,1,167.999994873047,8|8,1:3|0:2,0:0:0:0:
430,11,185526,1,8,0:3:0:0:
430,11,185638,2,0,P|358:15|312:107,1,167.999994873047,0|8,0:0|0:2,0:0:0:0:
264,188,185974,1,0,0:0:0:0:
264,188,186086,1,8,1:3:0:0:
315,178,186198,1,0,0:0:0:0:
366,169,186310,2,0,L|452:153,1,83.9999974365235,8|8,0:2|0:3,0:0:0:0:
375,261,186534,2,0,L|178:295,1,167.999994873047,0|8,1:0|0:3,0:0:0:0:
76,204,186870,1,0,0:0:0:0:
76,204,186982,6,0,P|132:212|166:257,1,83.9999974365235,4|0,1:3|0:0,0:0:0:0:
180,368,187206,2,0,P|136:336|136:280,1,83.9999974365235,8|0,0:2|0:0,0:0:0:0:
238,124,187429,2,0,L|201:328,1,167.999994873047,4|8,1:3|0:2,0:0:0:0:
148,116,187765,1,0,0:0:0:0:
148,116,187877,5,4,1:3:0:0:
164,68,187989,1,0,0:0:0:0:
206,40,188101,2,0,P|238:32|314:80,1,83.9999974365235,8|0,0:2|0:0,0:0:0:0:
333,219,188325,2,0,P|253:199|245:107,1,167.999994873047,4|8,1:3|0:2,0:0:0:0:
400,124,188661,1,0,0:0:0:0:
400,124,188773,6,0,L|301:141,1,83.9999974365235,8|0,1:3|0:0,0:0:0:0:
396,316,188997,1,8,0:2:0:0:
405,264,189109,1,8,0:3:0:0:
414,213,189221,2,0,L|447:37,1,167.999994873047,0|0,1:0|0:0,0:0:0:0:
508,156,189556,1,0,0:0:0:0:
508,156,189668,6,0,L|486:270,1,83.9999974365235,8|0,1:3|0:0,0:0:0:0:
396,316,189892,1,8,0:2:0:0:
360,280,190004,1,0,0:0:0:0:
312,272,190116,2,0,P|272:284|232:332,1,83.9999974365235,8|0,1:3|0:0,0:0:0:0:
320,360,190340,1,8,0:2:0:0:
120,312,190564,53,0,0:0:0:0:
260,200,191012,2,0,B|212:208|188:253|188:253|149:219|94:229,1,180.000006866455,8|0,1:2|0:0,0:0:0:0:
260,176,191795,2,0,B|212:184|188:229|188:229|149:195|94:205,1,180.000006866455,8|0,0:0|0:0,0:0:0:0:
104,184,192131,6,0,B|146:175|184:209|184:209|209:164|256:156,1,180.000006866455,8|0,1:2|0:0,0:0:0:0:
420,99,192803,38,0,B|378:91|339:125|339:125|315:80|268:72,1,180.000006866455,8|0,1:2|0:0,0:0:0:0:
420,75,193586,2,0,B|378:67|339:101|339:101|315:56|268:48,1,180.000006866455,8|0,0:0|0:0,0:0:0:0:
271,28,193922,6,0,B|318:36|343:81|343:81|381:47|424:56,1,180.000006866455,8|0,1:2|0:0,0:0:0:0:
504,176,194594,6,0,B|491:105|491:105|510:73|510:73|496:-5,1,180.000006866455,8|0,1:2|0:0,0:0:0:0:
488,180,195377,2,0,B|475:109|475:109|494:77|494:77|481:7,1,180.000006866455,8|0,0:0|0:0,0:0:0:0:
466,10,195713,38,0,B|478:80|478:80|459:111|459:111|472:182,1,180.000006866455,8|0,1:2|0:0,0:0:0:0:
336,264,196385,70,0,B|348:193|348:193|329:161|329:161|343:82,1,180.000006866455,8|0,1:2|0:0,0:0:0:0:
352,268,197168,2,0,B|364:197|364:197|345:165|345:165|358:95,1,180.000006866455,8|0,0:0|0:0,0:0:0:0:
374,98,197504,70,0,B|361:168|361:168|380:199|380:199|367:270,1,180.000006866455,8|0,1:2|0:0,0:0:0:0:
256,344,198176,37,8,0:0:0:0:
160,88,198959,21,8,0:0:0:0:
44,244,199295,1,8,0:0:0:0:
256,344,199967,21,8,0:0:0:0:
352,88,200750,21,8,0:0:0:0:
468,244,201086,1,8,0:0:0:0:
256,40,201758,21,8,0:0:0:0:
160,296,202541,21,8,0:0:0:0:
44,140,202877,1,8,0:0:0:0:
256,40,203549,21,8,0:0:0:0:
352,296,204332,21,8,0:0:0:0:
468,140,204668,1,8,0:0:0:0:
352,296,204892,21,2,0:0:0:0:
