osu file format v14

[General]
AudioFilename: audio.mp3
AudioLeadIn: 0
PreviewTime: 71459
Countdown: 1
SampleSet: Soft
StackLeniency: 0.7
Mode: 0
LetterboxInBreaks: 0
WidescreenStoryboard: 1

[Editor]
Bookmarks: 8774,20415,34743,41907,56235,72355,86683,102803,117131,131459,147579,161907,176235,190564,204892,219332
DistanceSpacing: 1.1
BeatDivisor: 1
GridSize: 32
TimelineZoom: 1

[Metadata]
Title:3-nen C-gumi 14-ban Kubozono Chiyoko no Nyuukaku
TitleUnicode:3年C組14番窪園チヨコの入閣
Artist:Powapowa-P feat. Kagamine Rin
ArtistUnicode:Powapowa-P feat. 鏡音リン
Creator:Veridian
Version:Beginner
Source:
Tags:entry into the cabinet chiyoko's year three class fourteen siina mota kokegane uta ikiru
BeatmapID:2051497
BeatmapSetID:980302

[Difficulty]
HPDrainRate:0
CircleSize:2
OverallDifficulty:0
ApproachRate:0
SliderMultiplier:0.699999999999999
SliderTickRate:1

[Events]
//Background and Video events
0,0,"sddsasasdasda.png",0,0
Video,0,"titbouncenoise.wav.avi"
//Break Periods
2,102803,115331
//Storyboard Layer 0 (Background)
//Storyboard Layer 1 (Fail)
//Storyboard Layer 2 (Pass)
//Storyboard Layer 3 (Foreground)
//Storyboard Sound Samples

[TimingPoints]
1609,447.761194029851,4,2,0,100,1,0
18624,447.761194029851,4,2,0,100,1,0
56235,-100,4,1,0,50,0,0
72355,-100,4,2,0,100,0,1
86655,-100,4,2,0,100,0,0
86683,-100,4,2,0,100,0,1
101012,-100,4,2,0,100,0,0
102355,-100,4,2,0,50,0,0
109967,-100,4,2,0,100,0,0
131459,-100,4,1,0,50,0,0
147579,-100,4,2,0,100,0,1
161879,-100,4,2,0,100,0,0
161907,-100,4,2,0,100,0,1
176207,-100,4,2,0,100,0,0
176235,-100,4,3,0,100,0,1
176683,-100,4,3,0,100,0,0
190564,-100,4,2,0,100,0,0

[Colours]
Combo1 : 190,235,86
Combo2 : 112,136,143
Combo3 : 64,115,251
Combo4 : 162,179,183
Combo5 : 253,120,64
Combo6 : 225,225,225
SliderTrackOverride : 231,237,168
SliderBorder : 234,237,211

[HitObjects]
40,208,8773,5,2,0:3:0:0:
139,307,9594,1,2,0:3:0:0:
256,192,10564,21,2,0:3:0:0:
355,89,11385,1,2,0:3:0:0:
472,206,12355,21,2,0:3:0:0:
372,305,13176,1,2,0:3:0:0:
256,192,14146,21,2,0:3:0:0:
256,192,15041,12,0,18176,1:0:0:0:
256,192,20415,21,2,0:0:0:0:
355,92,21235,1,2,0:0:0:0:
473,210,22206,1,2,0:0:0:0:
373,309,23026,1,2,0:0:0:0:
254,190,23997,21,2,0:0:0:0:
154,90,24818,1,2,0:0:0:0:
36,207,25788,1,2,0:0:0:0:
135,306,26609,1,2,0:0:0:0:
256,192,27579,22,0,P|308:168|388:196,2,140,2|0|2,0:0|0:0|0:0,0:0:0:0:
156,291,30191,1,2,0:0:0:0:
20,192,31161,22,0,L|44:54,2,140,2|0|2,0:0|0:0|0:0,0:0:0:0:
119,291,33773,1,2,0:0:0:0:
236,173,34743,21,4,3:2:0:0:
344,281,35638,1,0,0:0:0:0:
452,172,36534,1,2,3:2:0:0:
343,63,37429,1,0,0:0:0:0:
234,171,38325,21,2,3:2:0:0:
125,62,39221,1,0,0:0:0:0:
16,170,40116,1,2,3:2:0:0:
124,278,41012,1,0,0:0:0:0:
232,169,41907,22,0,B|276:145|316:169|316:169|360:201|402:178,1,175,2|0,0:0|3:0,0:0:0:0:
489,250,43698,2,0,P|503:188|487:120,1,128.333333333333,2|2,0:0|0:0,0:0:0:0:
340,48,45489,22,0,P|279:66|228:114,1,128.333333333333,0|2,0:0|0:0,0:0:0:0:
244,276,47280,2,0,P|290:319|357:339,1,128.333333333333,0|2,0:0|0:0,0:0:0:0:
287,188,49071,22,0,B|243:168|203:188|203:188|158:215|117:196,1,175,2|0,0:0|3:2,0:0:0:0:
20,260,50862,2,0,P|4:200|19:135,1,128.333333333333,2|2,0:0|0:0,0:0:0:0:
136,20,52653,21,0,0:0:0:0:
220,136,53474,1,2,3:2:0:0:
337,18,54444,21,0,0:0:0:0:
416,136,55265,1,6,0:0:0:0:
492,284,56235,22,0,B|536:216|485:147|485:147|444:88|492:24,3,280,4|2|4|2,0:0|0:2|0:0|0:2,0:0:0:0:
20,24,63400,22,0,B|68:88|26:147|26:147|-24:216|20:284,1,280,4|2,0:0|0:2,0:0:0:0:
256,84,66982,53,2,0:2:0:0:
364,192,67877,1,2,0:2:0:0:
255,300,68773,1,2,0:2:0:0:
146,191,69668,1,2,0:2:0:0:
408,356,71459,21,4,1:2:0:0:
512,247,72355,6,0,L|489:120,1,128.333333333333,4|2,1:1|0:2,0:0:0:0:
332,64,74146,2,0,L|355:197,1,128.333333333333,2|2,1:2|0:2,0:0:0:0:
256,324,75937,22,0,P|228:336|136:296,1,128.333333333333,6|2,1:2|0:2,0:0:0:0:
259,185,77728,1,2,1:2:0:0:
124,112,78624,1,4,0:3:0:0:
260,40,79519,22,0,L|393:63,1,128.333333333333,4|2,1:0|0:2,0:0:0:0:
448,216,81310,2,0,L|314:192,1,128.333333333333,2|2,1:2|0:2,0:0:0:0:
203,311,83101,21,6,1:2:0:0:
103,211,83922,1,2,0:2:0:0:
204,76,84892,1,2,1:2:0:0:
280,212,85788,21,8,0:3:0:0:
344,148,86235,1,4,0:3:0:0:
408,212,86683,1,4,1:1:0:0:
256,192,87131,12,4,92056,1:2:0:0:
376,380,93847,22,0,B|328:316|369:256|369:256|420:188|376:120,1,280,4|4,1:2|1:2,0:0:0:0:
256,24,96534,1,0,0:0:0:0:
136,120,97429,22,0,B|92:188|142:256|142:256|184:316|136:380,2,280,4|4|2,1:2|1:2|3:0,0:0:0:0:
280,168,117131,6,0,B|236:144|196:168|196:168|152:200|110:177,1,175,2|0,0:0|0:0,0:0:0:0:
23,249,118922,2,0,P|9:187|25:119,1,128.333333333333,2|2,0:0|0:0,0:0:0:0:
172,47,120713,22,0,P|233:65|284:113,1,128.333333333333,2|2,0:0|0:0,0:0:0:0:
268,275,122504,2,0,P|222:318|155:338,1,128.333333333333,2|2,0:0|0:0,0:0:0:0:
225,187,124295,22,0,B|269:167|309:187|309:187|354:214|395:195,1,175,2|0,0:0|0:0,0:0:0:0:
492,259,126086,2,0,P|508:199|493:134,1,128.333333333333,2|2,0:0|0:0,0:0:0:0:
376,19,127877,21,2,0:0:0:0:
292,135,128698,1,2,0:0:0:0:
175,17,129668,21,0,0:0:0:0:
96,135,130489,1,2,0:0:0:0:
20,283,131459,22,0,B|-24:215|27:146|27:146|68:87|20:23,3,280,4|2|4|2,0:0|0:2|0:0|0:2,0:0:0:0:
492,23,138624,22,0,B|444:87|486:146|486:146|536:215|492:283,1,280,4|2,0:0|0:2,0:0:0:0:
256,83,142206,53,2,0:2:0:0:
148,191,143101,1,2,0:2:0:0:
257,299,143997,1,2,0:2:0:0:
366,190,144892,1,2,0:2:0:0:
104,355,146683,21,4,1:2:0:0:
0,246,147579,6,0,L|23:119,1,128.333333333333,4|2,1:1|0:2,0:0:0:0:
180,63,149370,2,0,L|157:196,1,128.333333333333,2|2,1:2|0:2,0:0:0:0:
256,323,151161,22,0,P|284:335|376:295,1,128.333333333333,6|2,1:2|0:2,0:0:0:0:
253,184,152952,1,2,1:2:0:0:
388,111,153848,1,4,0:3:0:0:
252,39,154743,22,0,L|119:62,1,128.333333333333,4|2,1:0|0:2,0:0:0:0:
64,215,156534,2,0,L|198:191,1,128.333333333333,2|2,1:2|0:2,0:0:0:0:
309,310,158325,21,6,1:2:0:0:
409,210,159146,1,2,0:2:0:0:
308,75,160116,1,2,1:2:0:0:
232,211,161012,21,8,0:3:0:0:
168,147,161459,1,4,0:3:0:0:
104,211,161907,1,4,1:1:0:0:
256,192,162355,12,4,167280,1:2:0:0:
136,379,169071,22,0,B|184:315|143:255|143:255|92:187|136:119,1,280,4|4,1:2|1:2,0:0:0:0:
256,23,171758,1,0,0:0:0:0:
376,119,172653,22,0,B|420:187|370:255|370:255|328:315|376:379,2,280,4|4|4,1:2|1:2|1:1,0:0:0:0:
256,20,177131,21,4,1:3:0:0:
147,128,178026,1,4,1:2:0:0:
255,236,178922,1,8,1:3:0:0:
146,344,179818,22,0,P|93:354|25:306,2,140,4|4|4,1:3|1:3|1:2,0:0:0:0:
255,236,182504,1,4,1:3:0:0:
366,344,183400,22,0,P|419:354|487:306,2,140,0|0|0,1:2|1:2|1:2,0:0:0:0:
255,236,186086,1,0,1:2:0:0:
320,96,186982,22,0,B|255:65|255:65|188:98,2,140,2|0|0,1:2|1:2|1:2,0:0:0:0:
255,236,189668,1,0,1:2:0:0:
112,176,190564,6,0,P|96:220|116:300,1,128.333333333333,0|0,0:0|0:0,0:0:0:0:
228,172,192355,2,0,P|244:128|224:48,1,128.333333333333,0|0,0:0|0:0,0:0:0:0:
72,112,194146,2,0,L|-6:98,2,69.9999999999999,0|8|0,0:0|1:2|0:0,0:0:0:0:
180,220,195937,1,0,0:0:0:0:
288,111,196832,1,0,0:0:0:0:
396,219,197728,22,0,L|474:232,2,69.9999999999999,0|8|0,0:0|0:0|0:0,0:0:0:0:
287,327,199519,2,0,P|226:346|165:329,1,128.333333333333,0|0,0:0|0:0,0:0:0:0:
47,211,201310,2,0,L|60:132,2,69.9999999999999,0|8|0,0:0|0:0|0:0,0:0:0:0:
155,319,203101,1,0,0:0:0:0:
256,204,203997,21,0,0:0:0:0:
304,128,204444,1,0,0:0:0:0:
208,128,204892,1,2,0:0:0:0:
