osu file format v14

[General]
AudioFilename: VY1V4Uta+wo+Utau+Hito.mp3
AudioLeadIn: 0
PreviewTime: 67951
Countdown: 0
SampleSet: Soft
StackLeniency: 0.7
Mode: 0
LetterboxInBreaks: 1
WidescreenStoryboard: 1
SamplesMatchPlaybackRate: 1

[Editor]
Bookmarks: 1201,4801,9001,12601,16801,33001,36901,53701,68101,84301,100501,104401,121201,133801,138301,154801,155701,172201,189001,205201
DistanceSpacing: 1
BeatDivisor: 1
GridSize: 8
TimelineZoom: 2.899999

[Metadata]
Title:Uta o Utau Hito
TitleUnicode:うたをうたうひと
Artist:PowaPowaP feat. VY1v4
ArtistUnicode:ぽわぽわP feat. VY1v4
Creator:Veridian
Version:Extra
Source:
Tags:vocaloid vy1 椎名もた shiina siina mota Ryo Mizoguchi 溝口遼 GINGA Hatsune Miku Kokegane no Uta Fulkawa Noro Nioudachi highcolor_sunz
BeatmapID:1284716
BeatmapSetID:368592

[Difficulty]
HPDrainRate:8
CircleSize:4.5
OverallDifficulty:8
ApproachRate:9
SliderMultiplier:1.8
SliderTickRate:1

[Events]
//Background and Video events
0,0,"bgg.png",0,0
Video,0,"video.avi"
//Break Periods
2,17001,24001
2,68301,75601
2,138263,150900
2,189200,196500
//Storyboard Layer 0 (Background)
//Storyboard Layer 1 (Fail)
//Storyboard Layer 2 (Pass)
//Storyboard Layer 3 (Foreground)
//Storyboard Sound Samples

[TimingPoints]
1,300,4,1,2,70,1,0
1,-100,4,1,2,70,0,0
751,-133.333333333333,4,2,2,70,0,0
1201,-100,4,1,2,70,0,0
6901,300,4,1,2,70,1,0
9001,300,4,1,2,70,1,0
14701,300,4,1,2,70,1,0
16801,300,4,2,2,70,1,0
16801,-133.333333333333,4,2,2,70,0,0
18601,300,4,1,2,70,1,0
22801,300,4,2,2,70,1,0
24901,300,4,2,2,70,1,0
24901,-133.333333333333,4,2,2,70,0,0
26701,300,4,2,2,70,1,0
26701,-133.333333333333,4,2,2,70,0,0
31201,300,4,1,2,70,1,0
31201,-133.333333333333,4,2,2,70,0,0
33001,300,3,1,2,70,1,0
33001,-181.818181818181,4,2,2,70,0,0
35701,-133.333333333333,4,1,4,70,0,0
35776,-133.333333333333,4,2,2,70,0,0
36301,-117.647058823529,4,2,2,70,0,0
36601,-105.263157894737,4,2,2,70,0,0
36901,300,4,1,2,70,1,1
36901,-90.9090909090909,4,1,3,70,0,1
37051,-90.9090909090909,4,1,2,70,0,1
46201,-90.9090909090909,4,1,2,70,0,0
46501,-90.9090909090909,4,1,3,70,0,1
46651,-90.9090909090909,4,1,2,70,0,1
53701,-100,4,1,2,70,0,0
68101,-133.333333333333,4,2,2,70,0,0
69901,300,4,1,2,70,1,0
74101,300,4,1,2,70,1,0
76201,300,4,2,2,70,1,0
76201,-133.333333333333,4,2,2,70,0,0
78001,300,4,2,2,70,1,0
78001,-133.333333333333,4,2,2,70,0,0
82201,300,4,2,2,70,1,0
82201,-133.333333333333,4,2,2,70,0,0
84301,300,4,1,2,70,1,0
84301,-100,4,1,2,70,0,0
88501,300,4,1,2,70,1,0
90301,300,4,1,2,70,1,0
92401,300,4,1,2,70,1,0
94201,300,4,1,2,70,1,0
100501,300,3,2,2,70,1,0
100501,-181.818181818181,4,2,2,70,0,0
103201,-153.846153846153,4,1,4,70,0,0
103276,-153.846153846153,4,2,2,70,0,0
103801,-133.333333333333,4,2,2,70,0,0
104101,-117.647058823529,4,2,2,70,0,0
104401,300,4,1,2,70,1,1
104401,-90.9090909090909,4,1,3,70,0,1
104476,-90.9090909090909,4,1,2,70,0,1
113701,-90.9090909090909,4,1,2,70,0,0
114001,-90.9090909090909,4,1,3,70,0,1
114151,-90.9090909090909,4,1,2,70,0,1
121201,-100,4,1,2,70,0,0
133801,300,4,2,2,70,1,0
133801,-133.333333333333,4,2,2,70,0,0
138263,300,4,1,2,70,1,0
138263,-100,3,1,2,70,0,0
151500,300,4,1,2,70,1,0
153899,300,4,1,2,70,1,0
153899,-133.333333333333,4,1,2,70,0,0
154499,-133.333333333333,4,1,2,70,0,0
154500,300,4,1,2,70,1,0
154799,-100,4,1,2,70,0,0
155399,-181.818181818181,4,1,2,70,0,0
155699,-71.4285714285714,4,1,3,70,0,1
155999,-83.3333333333333,4,1,2,70,0,1
157800,300,4,1,2,70,1,1
157800,-83.3333333333333,4,1,2,70,0,1
164699,-83.3333333333333,4,1,2,70,0,0
164999,-83.3333333333333,4,1,3,70,0,1
165149,-83.3333333333333,4,1,2,70,0,1
171449,-100,4,1,2,70,0,0
171899,-200,4,1,2,70,0,0
172125,-200,4,1,2,5,0,0
172199,-83.3333333333333,4,1,3,70,0,1
172499,-83.3333333333333,4,1,2,70,0,0
179399,-83.3333333333333,4,1,2,70,0,1
179662,-83.3333333333333,4,1,2,5,0,1
179700,-83.3333333333333,4,1,2,70,0,1
179962,-83.3333333333333,4,1,2,5,0,1
180000,-83.3333333333333,4,1,2,70,0,1
180262,-83.3333333333333,4,1,2,5,0,1
180300,-83.3333333333333,4,1,2,70,0,1
180562,-83.3333333333333,4,1,2,5,0,1
180600,-83.3333333333333,4,1,2,70,0,1
180862,-83.3333333333333,4,1,2,5,0,1
180900,-83.3333333333333,4,1,2,70,0,1
181162,-83.3333333333333,4,1,2,5,0,1
181200,-83.3333333333333,4,1,2,70,0,1
181462,-83.3333333333333,4,1,2,5,0,1
181499,-83.3333333333333,4,1,2,70,0,0
181762,-83.3333333333333,4,1,2,5,0,0
181799,-83.3333333333333,4,1,2,70,0,1
182099,-83.3333333333333,4,1,2,70,0,0
188999,-133.333333333333,4,2,2,70,0,0
190800,300,4,1,2,70,1,0
197100,300,4,2,2,70,1,0
197100,-133.333333333333,4,2,2,70,0,0
201300,300,4,1,2,70,1,0
201300,-133.333333333333,4,2,2,70,0,0
205200,300,4,1,2,70,1,0
205200,-153.846153846153,4,2,2,70,0,0
209400,300,4,1,2,70,1,0
209400,-153.846153846153,4,2,2,70,0,0
213299,-133.333333333333,4,1,2,70,0,0
213300,300,4,2,2,70,1,0
215699,-133.333333333333,4,1,2,70,0,0
217500,300,4,1,2,70,1,0
218099,-133.333333333333,4,2,2,70,0,0

[Colours]
Combo1 : 255,51,0
Combo2 : 255,111,147
Combo3 : 251,171,4
Combo4 : 129,254,207
SliderBorder : 53,53,53
SliderTrackOverride : 255,255,255

[HitObjects]
156,88,751,6,0,B|188:104|236:64|292:88|292:88|272:100|232:96,1,185.625007081032,0|0,0:0|0:0,0:0:0:0:
246,96,1201,2,0,L|252:320,1,180,4|4,0:0|0:0,0:0:0:0:
440,176,1801,1,8,0:0:0:0:
440,176,1951,2,0,L|436:64,1,90,4|0,0:0|0:0,0:0:0:0:
400,252,2251,22,0,P|452:260|504:236,1,90,4|0,0:0|0:0,0:0:0:0:
340,176,2551,1,8,0:0:0:0:
340,176,2701,2,0,L|228:180,1,90,4|0,0:0|0:0,0:0:0:0:
156,224,3001,22,0,P|164:172|140:120,1,90,4|0,0:0|0:0,0:0:0:0:
236,264,3301,1,8,0:0:0:0:
236,264,3451,2,0,P|228:316|252:368,1,90,4|0,0:0|0:0,0:0:0:0:
404,296,3751,2,0,L|304:300,1,90,4|0,0:0|0:0,0:0:0:0:
476,352,4051,21,8,0:0:0:0:
348,216,4201,2,0,B|336:172|336:172|352:116,1,90,0|0,0:0|0:0,0:0:0:0:
480,124,4501,2,0,B|492:168|492:168|476:224,1,90,0|0,0:0|0:0,0:0:0:0:
412,68,4726,1,0,0:0:0:0:
440,32,4801,22,0,L|548:28,1,90,4|0,0:0|0:0,0:0:0:0:
344,132,5101,2,0,L|228:136,1,90,8|0,0:0|0:0,0:0:0:0:
140,224,5401,1,4,0:0:0:0:
172,192,5476,1,0,0:0:0:0:
180,148,5551,1,4,0:0:0:0:
172,104,5626,1,0,0:0:0:0:
136,80,5701,2,0,P|92:72|24:96,1,90,8|0,0:0|0:0,0:0:0:0:
252,136,6001,22,0,L|268:36,1,90,4|0,0:0|0:0,0:0:0:0:
92,168,6301,2,0,L|112:272,1,90,8|0,0:0|0:0,0:0:0:0:
208,292,6601,2,0,L|188:224,1,45,4|0,0:0|0:0,0:0:0:0:
32,296,6751,2,0,L|48:360,1,45,4|0,0:0|0:0,0:0:0:0:
192,372,6901,22,0,P|244:365|280:328,1,90,4|0,0:0|0:0,0:0:0:0:
368,200,7201,2,0,L|260:196,1,90,8|0,0:0|0:0,0:0:0:0:
396,296,7501,1,4,0:0:0:0:
436,280,7576,1,0,0:0:0:0:
464,244,7651,1,4,0:0:0:0:
472,200,7726,1,0,0:0:0:0:
460,156,7801,1,8,0:0:0:0:
344,56,7951,2,0,L|340:116,1,45,0|0,0:0|0:0,0:0:0:0:
436,24,8101,21,4,0:0:0:0:
256,20,8251,1,0,0:0:0:0:
460,156,8401,1,8,0:0:0:0:
428,124,8476,1,0,0:0:0:0:
384,108,8551,1,8,0:0:0:0:
340,116,8626,1,0,0:0:0:0:
312,152,8701,21,8,0:0:0:0:
276,180,8776,1,0,0:0:0:0:
232,180,8851,1,8,0:0:0:0:
188,164,8926,1,0,0:0:0:0:
164,124,9001,22,0,L|40:120,1,90,0|0,0:0|0:0,0:0:0:0:
248,172,9301,1,4,0:0:0:0:
248,172,9451,2,0,P|260:124|248:76,1,90,8|0,0:0|0:0,0:0:0:0:
156,224,9751,2,0,P|144:272|156:320,1,90,4|0,0:0|0:0,0:0:0:0:
328,276,10051,21,4,0:0:0:0:
328,276,10201,2,0,L|224:272,1,90,8|0,0:0|0:0,0:0:0:0:
408,340,10501,2,0,L|432:240,1,90,4|0,0:0|0:0,0:0:0:0:
340,100,10801,2,0,L|364:212,1,90,4|0,0:0|0:0,0:0:0:0:
440,124,11101,21,4,0:0:0:0:
440,124,11251,2,0,P|448:64|432:24,1,90,8|0,0:0|0:0,0:0:0:0:
256,36,11551,2,0,P|248:96|264:136,1,90,4|0,0:0|0:0,0:0:0:0:
340,196,11851,1,4,0:0:0:0:
164,72,12001,2,0,L|48:68,1,90,8|0,0:0|0:0,0:0:0:0:
136,192,12301,2,0,L|260:196,1,90,8|0,0:0|0:0,0:0:0:0:
344,200,12526,1,0,0:0:0:0:
344,200,12601,22,0,P|352:256|336:296,1,90,4|0,0:0|0:0,0:0:0:0:
300,104,12901,2,0,P|344:96|408:116,1,90,8|0,0:0|0:0,0:0:0:0:
472,28,13201,1,4,0:0:0:0:
500,60,13276,1,0,0:0:0:0:
508,104,13351,1,0,0:0:0:0:
500,148,13426,1,0,0:0:0:0:
476,188,13501,2,0,L|472:292,1,90,8|4,0:0|0:0,0:0:0:0:
284,96,13801,21,4,0:0:0:0:
420,100,13951,1,4,0:0:0:0:
328,192,14101,2,0,P|274:202|224:180,1,90,8|0,0:0|0:0,0:0:0:0:
204,168,14326,1,0,0:0:0:0:
204,168,14401,2,0,L|208:96,1,45,4|0,0:0|0:0,0:0:0:0:
280,280,14551,2,0,L|276:344,1,45,4|0,0:0|0:0,0:0:0:0:
164,184,14701,22,0,L|176:64,1,90,4|0,0:0|0:0,0:0:0:0:
180,292,15001,2,0,B|144:276|144:276|112:296|60:280,1,90,8|0,0:0|0:0,0:0:0:0:
264,220,15301,1,4,0:0:0:0:
300,248,15376,1,0,0:0:0:0:
344,256,15451,1,4,0:0:0:0:
388,252,15526,1,0,0:0:0:0:
424,228,15601,2,0,L|420:152,1,45,8|0,0:0|0:0,0:0:0:0:
336,72,15751,2,0,L|344:152,1,45,0|0,0:0|0:0,0:0:0:0:
412,16,15901,21,4,0:0:0:0:
248,28,16051,1,4,0:0:0:0:
484,120,16201,1,8,0:0:0:0:
444,96,16276,1,0,0:0:0:0:
400,96,16351,1,8,0:0:0:0:
364,124,16426,1,0,0:0:0:0:
328,152,16501,21,8,0:0:0:0:
284,164,16576,1,0,0:0:0:0:
240,164,16651,1,8,0:0:0:0:
196,148,16726,1,0,0:0:0:0:
176,120,16801,1,4,0:0:0:0:
132,72,24601,21,0,0:0:0:0:
124,204,24751,1,0,0:0:0:0:
332,144,24901,2,0,L|184:140,1,135.000005149842,4|0,0:0|0:0,0:0:0:0:
80,276,25351,2,0,P|116:288|204:216,1,135.000005149842,2|0,0:0|0:0,0:0:0:0:
240,64,25951,2,0,P|204:52|116:124,1,135.000005149842,2|0,0:0|0:0,0:0:0:0:
196,136,26401,1,2,0:0:0:0:
36,40,26701,22,0,L|32:184,1,135.000005149842,0|0,0:0|0:0,0:0:0:0:
116,328,27151,2,0,L|119:193,2,135.000005149842,2|0|0,0:0|0:0|0:0,0:0:0:0:
28,256,27901,1,2,0:0:0:0:
184,120,28201,22,0,P|216:100|264:96,1,67.5000025749208,0|0,0:0|0:0,0:0:0:0:
244,180,28501,2,0,P|285:184|320:212,1,67.5000025749208,0|2,0:0|0:0,0:0:0:0:
252,268,28801,2,0,P|280:304|284:352,1,67.5000025749208,2|0,0:0|0:0,0:0:0:0:
200,344,29101,22,0,P|168:312|176:212,1,135.000005149842,6|0,0:0|0:0,0:0:0:0:
246,45,29551,2,0,L|243:192,1,135.000005149842,2|0,0:0|0:0,0:0:0:0:
63,299,30151,2,0,L|66:152,1,135.000005149842,2|0,0:0|0:0,0:0:0:0:
243,179,30601,2,0,L|241:252,1,67.5000025749208,2|0,0:0|0:0,0:0:0:0:
156,168,30901,2,0,L|158:95,1,67.5000025749208,0|0,0:0|0:0,0:0:0:0:
336,184,31201,21,0,0:0:0:0:
336,184,31351,2,0,P|392:204|472:176,2,135.000005149842,2|0|2,0:0|0:0|0:0,0:0:0:0:
400,28,32251,1,0,0:0:0:0:
504,16,32401,2,0,L|472:104,1,67.5000025749208,2|0,0:0|0:0,0:0:0:0:
324,76,32701,2,0,L|292:-4,1,67.5000025749208,2|0,0:0|0:0,0:0:0:0:
400,136,33001,22,0,L|397:249,2,99.0000030212403,4|0|0,0:0|0:0|0:0,0:0:0:0:
292,212,33901,2,0,L|248:312,2,99.0000030212403,2|0|0,0:0|0:0|0:0,0:0:0:0:
160,216,34801,2,0,L|52:260,2,99.0000030212403,2|0|0,0:0|0:0|0:0,0:0:0:0:
68,136,35701,21,0,0:0:0:0:
68,136,36151,1,0,0:0:0:0:
305,167,36301,1,0,0:0:0:0:
56,257,36451,1,0,0:0:0:0:
220,87,36601,1,0,0:0:0:0:
252,60,36676,1,0,0:0:0:0:
292,48,36751,1,0,0:0:0:0:
336,52,36826,1,0,0:0:0:0:
376,80,36901,22,0,L|492:83,1,99.0000030212403,4|0,0:0|0:0,0:0:0:0:
305,167,37201,1,0,0:0:0:0:
372,260,37351,2,0,L|504:264,1,99.0000030212403,6|0,0:0|0:0,0:0:0:0:
305,167,37651,1,6,0:0:0:0:
240,256,37801,1,8,0:0:0:0:
408,164,37951,1,2,0:0:0:0:
256,92,38101,21,4,0:0:0:0:
240,256,38251,2,0,P|228:316|244:368,1,99.0000030212403,0|8,0:0|0:0,0:0:0:0:
448,356,38551,2,0,P|460:296|444:244,1,99.0000030212403,6|0,0:0|0:0,0:0:0:0:
344,304,38851,1,6,0:0:0:0:
352,168,39001,1,8,0:0:0:0:
344,324,39151,1,2,0:0:0:0:
352,140,39301,22,0,L|356:24,1,99.0000030212403,4|0,0:0|0:0,0:0:0:0:
464,96,39601,1,8,0:0:0:0:
256,88,39751,2,0,P|208:76|156:88,1,99.0000030212403,6|0,0:0|0:0,0:0:0:0:
304,228,40051,2,0,P|352:240|404:228,1,99.0000030212403,6|8,0:0|0:0,0:0:0:0:
390,48,40351,22,0,L|346:152,1,99.0000030212403,2|4,0:0|0:0,0:0:0:0:
452,320,40651,2,0,L|496:204,1,99.0000030212403,0|8,0:0|0:0,0:0:0:0:
368,12,40951,2,0,L|288:224,1,198.000006042481,6|6,0:0|0:0,0:0:0:0:
432,152,41401,1,8,0:0:0:0:
248,80,41551,1,2,0:0:0:0:
252,280,41701,22,0,P|299:290|374:259,2,99.0000030212403,4|2|8,0:0|0:0|0:0,0:0:0:0:
120,232,42151,2,0,P|110:279|141:354,1,99.0000030212403,6|0,0:0|0:0,0:0:0:0:
200,152,42451,1,6,0:0:0:0:
40,156,42601,1,8,0:0:0:0:
120,232,42751,1,2,0:0:0:0:
116,76,42901,22,0,L|-12:80,2,99.0000030212403,4|2|8,0:0|0:0|0:0,0:0:0:0:
298,148,43351,2,0,L|174:152,1,99.0000030212403,6|0,0:0|0:0,0:0:0:0:
244,60,43651,1,6,0:0:0:0:
248,240,43801,1,8,0:0:0:0:
148,76,43951,1,2,0:0:0:0:
352,216,44101,21,4,0:0:0:0:
144,220,44251,2,0,P|136:280|156:336,1,99.0000030212403,2|8,0:0|0:0,0:0:0:0:
353,312,44551,2,0,P|361:252|341:196,1,99.0000030212403,6|0,0:0|0:0,0:0:0:0:
240,44,44851,2,0,L|243:162,1,99.0000030212403,6|8,0:0|0:0,0:0:0:0:
456,92,45151,22,0,L|328:96,1,99.0000030212403,2|4,0:0|0:0,0:0:0:0:
408,312,45451,2,0,L|404:188,1,99.0000030212403,2|8,0:0|0:0,0:0:0:0:
200,256,45751,2,0,L|328:252,1,99.0000030212403,6|0,0:0|0:0,0:0:0:0:
120,184,46051,1,6,0:0:0:0:
124,332,46201,1,8,0:0:0:0:
228,156,46351,1,6,0:0:0:0:
40,288,46501,21,4,0:0:0:0:
40,288,46651,2,0,P|28:344|44:388,1,99.0000030212403,0|8,0:0|0:0,0:0:0:0:
228,250,46951,2,0,P|240:194|224:150,1,99.0000030212403,6|0,0:0|0:0,0:0:0:0:
136,204,47251,1,6,0:0:0:0:
296,88,47401,1,8,0:0:0:0:
164,92,47551,1,2,0:0:0:0:
336,200,47701,21,4,0:0:0:0:
336,200,47851,2,0,L|450:196,1,99.0000030212403,0|8,0:0|0:0,0:0:0:0:
424,24,48151,2,0,L|310:28,1,99.0000030212403,6|0,0:0|0:0,0:0:0:0:
152,116,48451,1,6,0:0:0:0:
368,112,48601,1,8,0:0:0:0:
200,32,48751,1,2,0:0:0:0:
328,232,48901,21,4,0:0:0:0:
262,119,49051,1,2,0:0:0:0:
200,232,49201,1,8,0:0:0:0:
360,136,49351,1,6,0:0:0:0:
164,144,49501,1,0,0:0:0:0:
265,295,49651,1,6,0:0:0:0:
260,88,49801,1,8,0:0:0:0:
164,252,49951,22,0,P|156:308|176:364,1,99.0000030212403,2|4,0:0|0:0,0:0:0:0:
368,344,50251,2,0,P|376:288|356:232,1,99.0000030212403,0|8,0:0|0:0,0:0:0:0:
276,131,50551,2,0,P|336:163|468:99,1,198.000006042481,6|6,0:0|0:0,0:0:0:0:
360,67,51001,1,8,0:0:0:0:
364,247,51151,1,2,0:0:0:0:
472,148,51301,22,0,L|468:24,2,99.0000030212403,4|2|8,0:0|0:0|0:0,0:0:0:0:
260,152,51751,2,0,L|256:40,1,99.0000030212403,6|0,0:0|0:0,0:0:0:0:
328,232,52051,1,6,0:0:0:0:
168,136,52201,1,8,0:0:0:0:
352,132,52351,1,2,0:0:0:0:
200,237,52501,22,0,P|146:249|88:227,2,99.0000030212403,4|0|8,0:0|0:0|0:0,0:0:0:0:
356,112,52951,2,0,B|352:96|360:64|360:64|416:128|360:236,1,198.000006042481,6|6,0:0|0:0,0:0:0:0:
276,140,53401,1,8,0:0:0:0:
480,132,53551,1,6,0:0:0:0:
256,140,53701,22,0,L|148:144,1,90,4|0,0:0|0:0,0:0:0:0:
116,52,54001,2,0,L|228:48,1,90,8|0,0:0|0:0,0:0:0:0:
212,232,54301,1,4,0:0:0:0:
212,232,54451,2,0,L|88:236,1,90,8|0,0:0|0:0,0:0:0:0:
301,185,54751,22,0,B|316:228|316:228|304:272,1,90,4|0,0:0|0:0,0:0:0:0:
208,124,55051,1,4,0:0:0:0:
296,48,55201,2,0,L|392:44,1,90,8|0,0:0|0:0,0:0:0:0:
464,124,55426,1,0,0:0:0:0:
480,136,55501,2,0,L|384:140,1,90,4|0,0:0|0:0,0:0:0:0:
300,200,55726,1,0,0:0:0:0:
288,216,55801,22,0,P|280:264|300:316,2,90,4|8|0,0:0|0:0|0:0,0:0:0:0:
388,256,56251,2,0,P|399:299|391:342,1,90,4|0,0:0|0:0,0:0:0:0:
188,216,56551,1,4,0:0:0:0:
308,108,56701,2,0,L|416:104,1,90,8|0,0:0|0:0,0:0:0:0:
180,232,57001,2,0,L|72:236,1,90,8|4,0:0|0:0,0:0:0:0:
112,152,57226,1,0,0:0:0:0:
116,132,57301,22,0,P|108:96|120:32,1,90,4|0,0:0|0:0,0:0:0:0:
316,40,57601,2,0,P|324:76|312:140,1,90,4|0,0:0|0:0,0:0:0:0:
216,216,57901,1,8,0:0:0:0:
220,220,58051,2,0,L|216:112,1,90,4|0,0:0|0:0,0:0:0:0:
348,220,58351,22,0,L|352:320,1,90,4|0,0:0|0:0,0:0:0:0:
472,208,58651,1,8,0:0:0:0:
472,208,58801,2,0,L|468:100,1,90,4|0,0:0|0:0,0:0:0:0:
332,16,59101,2,0,P|324:68|344:124,1,90,4|0,0:0|0:0,0:0:0:0:
224,240,59401,1,8,0:0:0:0:
224,240,59551,22,0,P|228:188|208:132,1,90,4|0,0:0|0:0,0:0:0:0:
160,88,59776,1,0,0:0:0:0:
144,72,59851,2,0,B|100:60|100:60|40:80,1,90,4|0,0:0|0:0,0:0:0:0:
104,256,60151,1,8,0:0:0:0:
104,256,60301,2,0,L|100:160,1,90,4|0,0:0|0:0,0:0:0:0:
0,244,60601,2,0,L|4:348,1,90,4|0,0:0|0:0,0:0:0:0:
88,372,60826,1,4,0:0:0:0:
112,352,60901,22,0,B|153:364|153:364|208:344,1,90,4|0,0:0|0:0,0:0:0:0:
308,232,61201,2,0,L|200:236,1,90,4|0,0:0|0:0,0:0:0:0:
332,344,61501,1,8,0:0:0:0:
332,344,61651,2,0,L|452:340,1,90,4|0,0:0|0:0,0:0:0:0:
284,204,61951,22,0,L|168:208,1,90,4|0,0:0|0:0,0:0:0:0:
424,200,62251,1,4,0:0:0:0:
424,200,62401,2,0,B|452:152|416:96|416:96|388:128,1,135,8|0,0:0|0:0,0:0:0:0:
352,56,62701,2,0,P|296:48|260:60,1,90,8|0,0:0|0:0,0:0:0:0:
106,208,63001,1,4,0:0:0:0:
106,208,63151,22,0,P|162:216|198:204,1,90,8|0,0:0|0:0,0:0:0:0:
144,24,63451,2,0,L|148:132,1,90,4|0,0:0|0:0,0:0:0:0:
112,136,63676,1,0,0:0:0:0:
112,136,63751,2,0,L|110:71,1,45,4|0,0:0|0:0,0:0:0:0:
264,164,63901,2,0,P|275:221|248:268,1,90,8|0,0:0|0:0,0:0:0:0:
220,328,64126,1,0,0:0:0:0:
208,344,64201,2,0,L|312:340,1,90,8|0,0:0|0:0,0:0:0:0:
184,256,64426,1,4,0:0:0:0:
168,248,64501,22,0,B|66:251|66:251|108:216,1,135,4|0,0:0|0:0,0:0:0:0:
144,176,64801,2,0,L|140:64,1,90,4|0,0:0|0:0,0:0:0:0:
296,140,65101,1,8,0:0:0:0:
296,140,65251,2,0,L|300:240,1,90,4|0,0:0|0:0,0:0:0:0:
248,44,65551,22,0,L|364:40,1,90,4|0,0:0|0:0,0:0:0:0:
496,120,65851,1,8,0:0:0:0:
496,120,66001,2,0,P|436:132|392:117,1,90,4|0,0:0|0:0,0:0:0:0:
248,220,66301,2,0,P|308:208|352:223,1,90,4|0,0:0|0:0,0:0:0:0:
136,272,66601,1,8,0:0:0:0:
136,272,66751,22,0,L|132:156,1,90,4|0,0:0|0:0,0:0:0:0:
132,88,66976,1,0,0:0:0:0:
108,68,67051,2,0,L|36:72,1,45,4|0,0:0|0:0,0:0:0:0:
212,140,67201,1,0,0:0:0:0:
288,64,67351,1,8,0:0:0:0:
288,64,67501,2,0,P|336:52|400:76,1,90,4|0,0:0|0:0,0:0:0:0:
384,272,67801,2,0,P|336:284|272:260,1,90,4|0,0:0|0:0,0:0:0:0:
336,212,68026,1,0,0:0:0:0:
336,212,68101,1,0,0:0:0:0:
252,52,76201,22,0,L|256:208,1,135.000005149842,4|2,0:0|0:0,0:0:0:0:
260,288,76651,2,0,P|212:280|156:200,1,135.000005149842,0|2,0:0|0:0,0:0:0:0:
252,84,77251,2,0,P|300:92|356:172,1,135.000005149842,0|2,0:0|0:0,0:0:0:0:
472,128,77701,1,0,0:0:0:0:
472,128,78001,22,0,P|440:188|432:276,1,135.000005149842,2|2,0:0|0:0,0:0:0:0:
460,336,78451,2,0,L|308:332,1,135.000005149842,0|2,0:0|0:0,0:0:0:0:
128,192,79051,1,2,0:0:0:0:
192,136,79201,2,0,L|352:140,1,135.000005149842,0|2,0:0|0:0,0:0:0:0:
496,88,79801,1,0,0:0:0:0:
492,208,79951,1,2,0:0:0:0:
416,144,80101,1,2,0:0:0:0:
416,144,80401,22,0,P|368:124|268:156,1,135.000005149842,4|0,0:0|0:0,0:0:0:0:
220,200,80851,2,0,P|152:220|92:193,2,135.000005149842,2|2|0,0:0|0:0|0:0,0:0:0:0:
160,32,81751,1,0,0:0:0:0:
100,108,81901,1,2,0:0:0:0:
100,108,82201,22,0,B|134:109|134:109|160:128|160:128|188:110|188:110|236:111,1,135.000005149842,6|2,0:0|0:0,0:0:0:0:
272,44,82651,2,0,L|268:184,2,135.000005149842,0|2|2,0:0|0:0|0:0,0:0:0:0:
340,160,83551,1,0,0:0:0:0:
320,224,83701,2,0,P|288:248|240:244,1,67.5000025749208,2|0,0:0|0:0,0:0:0:0:
132,204,84001,2,0,L|224:208,1,67.5000025749208,0|0,0:0|0:0,0:0:0:0:
308,352,84301,22,0,L|184:348,1,90,4|4,0:0|0:0,0:0:0:0:
44,344,84601,1,8,0:0:0:0:
144,96,84751,1,0,0:0:0:0:
168,133,84826,1,0,0:0:0:0:
175,177,84901,1,0,0:0:0:0:
165,220,84976,1,0,0:0:0:0:
138,256,85051,1,4,0:0:0:0:
56,176,85201,1,8,0:0:0:0:
268,188,85351,21,0,0:0:0:0:
268,188,85426,1,0,0:0:0:0:
268,188,85501,2,0,L|372:192,2,90,4|4|8,0:0|0:0|0:0,0:0:0:0:
320,96,85951,1,0,0:0:0:0:
320,96,86026,1,0,0:0:0:0:
320,96,86101,21,0,0:0:0:0:
308,272,86251,2,0,P|264:280|192:248,1,90,4|8,0:0|0:0,0:0:0:0:
120,72,86551,1,0,0:0:0:0:
144,109,86626,1,0,0:0:0:0:
153,153,86701,1,0,0:0:0:0:
144,196,86776,1,0,0:0:0:0:
119,234,86851,1,4,0:0:0:0:
56,148,87001,1,8,0:0:0:0:
216,44,87151,21,0,0:0:0:0:
216,44,87226,1,0,0:0:0:0:
216,44,87301,2,0,P|264:36|320:52,1,90,4|4,0:0|0:0,0:0:0:0:
456,128,87601,2,0,P|408:136|352:120,1,90,8|0,0:0|0:0,0:0:0:0:
368,127,87826,1,0,0:0:0:0:
368,127,87901,1,0,0:0:0:0:
412,32,88051,1,4,0:0:0:0:
320,208,88201,2,0,L|216:204,1,90,8|0,0:0|0:0,0:0:0:0:
144,52,88501,22,0,L|252:56,2,90,4|4|8,0:0|0:0|0:0,0:0:0:0:
180,292,88951,1,0,0:0:0:0:
209,258,89026,1,0,0:0:0:0:
220,215,89101,1,0,0:0:0:0:
211,172,89176,1,0,0:0:0:0:
183,137,89251,1,4,0:0:0:0:
120,216,89401,21,8,0:0:0:0:
300,160,89551,1,0,0:0:0:0:
300,160,89626,1,8,0:0:0:0:
300,160,89701,2,0,L|408:164,1,90,4|0,0:0|0:0,0:0:0:0:
120,216,90001,2,0,L|0:212,1,90,8|0,0:0|0:0,0:0:0:0:
80,124,90301,21,4,0:0:0:0:
72,296,90451,1,4,0:0:0:0:
84,40,90601,2,0,P|128:56|160:104,1,90,8|0,0:0|0:0,0:0:0:0:
180,128,90826,1,0,0:0:0:0:
204,88,90901,1,0,0:0:0:0:
236,56,90976,1,0,0:0:0:0:
280,44,91051,1,4,0:0:0:0:
276,248,91201,2,0,B|268:204|268:204|280:160,1,90,8|0,0:0|0:0,0:0:0:0:
279,160,91426,1,0,0:0:0:0:
279,160,91501,21,4,0:0:0:0:
392,208,91651,1,4,0:0:0:0:
328,336,91801,2,0,L|220:332,1,90,8|0,0:0|0:0,0:0:0:0:
204,360,92026,1,8,0:0:0:0:
204,360,92101,1,0,0:0:0:0:
284,240,92251,1,0,0:0:0:0:
112,328,92401,22,0,P|104:280|116:240,1,90,4|0,0:2|0:0,0:0:0:0:
200,156,92701,1,8,0:0:0:0:
450,243,92851,1,0,0:0:0:0:
410,263,92926,1,0,0:0:0:0:
366,270,93001,1,0,0:0:0:0:
322,261,93076,1,0,0:0:0:0:
283,239,93151,1,4,0:0:0:0:
372,80,93301,2,0,L|368:212,1,90,8|0,0:0|0:0,0:0:0:0:
369,169,93526,1,0,0:0:0:0:
369,169,93601,21,4,0:0:0:0:
288,28,93751,1,0,0:0:0:0:
460,32,93901,1,8,0:0:0:0:
280,120,94051,1,0,0:0:0:0:
280,120,94126,1,0,0:0:0:0:
280,120,94201,22,0,P|224:100|200:52,2,90,4|4|8,0:0|0:0|0:0,0:0:0:0:
464,128,94651,1,0,0:0:0:0:
420,124,94726,1,8,0:0:0:0:
380,144,94801,1,0,0:0:0:0:
352,180,94876,1,0,0:0:0:0:
340,224,94951,1,4,0:0:0:0:
436,360,95101,2,0,L|440:256,1,90,8|0,0:0|0:0,0:0:0:0:
441,225,95326,1,0,0:0:0:0:
441,225,95401,21,4,0:0:0:0:
272,136,95551,1,0,0:0:0:0:
228,240,95701,2,0,P|275:251|337:228,1,90,8|0,0:0|0:0,0:0:0:0:
356,220,95926,1,8,0:0:0:0:
356,220,96001,1,0,0:0:0:0:
272,136,96151,1,4,0:0:0:0:
128,172,96301,2,0,L|124:272,1,90,8|8,0:0|0:0,0:0:0:0:
273,122,96601,22,0,L|276:32,2,90,4|4|8,0:0|0:0|0:0,0:0:0:0:
28,48,97051,1,0,0:0:0:0:
72,36,97126,1,8,0:0:0:0:
116,44,97201,1,0,0:0:0:0:
144,80,97276,1,0,0:0:0:0:
156,124,97351,1,4,0:0:0:0:
68,260,97501,2,0,B|60:216|60:216|72:168,1,90,8|0,0:0|0:0,0:0:0:0:
36,140,97726,1,0,0:0:0:0:
36,140,97801,21,4,0:0:0:0:
164,220,97951,1,4,0:0:0:0:
260,156,98101,2,0,L|376:160,1,90,8|0,0:0|0:0,0:0:0:0:
348,296,98401,2,0,L|240:292,1,90,4|4,0:0|0:0,0:0:0:0:
428,252,98701,22,0,P|436:308|416:352,1,90,8|0,0:0|0:0,0:0:0:0:
392,368,98926,1,8,0:0:0:0:
392,368,99001,1,0,0:0:0:0:
344,200,99151,1,0,0:0:0:0:
260,156,99301,2,0,P|252:100|272:56,1,90,8|0,0:0|0:0,0:0:0:0:
264,252,99601,2,0,L|136:248,2,90,4|4|8,0:0|0:0|0:0,0:0:0:0:
340,116,100051,21,0,0:0:0:0:
384,104,100126,1,8,0:0:0:0:
428,116,100201,1,0,0:0:0:0:
460,148,100276,1,0,0:0:0:0:
468,192,100351,2,0,L|464:256,1,45,0|0,0:0|0:0,0:0:0:0:
352,336,100501,22,0,L|360:216,2,99.0000030212403,2|0|0,0:0|0:0|0:0,0:0:0:0:
240,236,101401,2,0,L|284:128,2,99.0000030212403,2|0|0,0:0|0:0|0:0,0:0:0:0:
176,108,102301,2,0,L|252:40,2,99.0000030212403,2|0|0,0:0|0:0|0:0,0:0:0:0:
92,176,103201,1,0,0:0:0:0:
92,176,103651,21,0,0:0:0:0:
328,200,103801,1,0,0:0:0:0:
164,256,103951,1,0,0:0:0:0:
320,100,104101,1,0,0:0:0:0:
360,100,104176,1,0,0:0:0:0:
396,116,104251,1,0,0:0:0:0:
420,144,104326,1,0,0:0:0:0:
432,192,104401,22,0,L|428:332,1,99.0000030212403,4|2,0:0|0:0,0:0:0:0:
312,368,104701,1,8,0:0:0:0:
200,288,104851,2,0,L|204:148,1,99.0000030212403,6|0,0:0|0:0,0:0:0:0:
316,236,105151,1,6,0:0:0:0:
200,364,105301,1,8,0:0:0:0:
96,236,105451,1,2,0:0:0:0:
316,236,105601,21,4,0:0:0:0:
316,236,105751,2,0,P|328:284|304:344,1,99.0000030212403,2|0,0:0|0:0,0:0:0:0:
316,112,106051,2,0,L|424:116,1,99.0000030212403,6|0,0:0|0:0,0:0:0:0:
224,192,106351,1,6,0:0:0:0:
228,28,106501,1,8,0:0:0:0:
312,208,106651,1,2,0:0:0:0:
145,105,106801,21,4,0:0:0:0:
145,105,106951,2,0,P|96:92|40:108,1,99.0000030212403,2|8,0:0|0:0,0:0:0:0:
48,272,107251,2,0,P|97:285|153:269,1,99.0000030212403,6|0,0:0|0:0,0:0:0:0:
92,188,107551,2,0,L|-16:184,1,99.0000030212403,6|8,0:0|0:0,0:0:0:0:
200,332,107851,2,0,L|312:336,1,99.0000030212403,2|0,0:0|0:0,0:0:0:0:
124,176,108151,2,0,L|16:172,1,99.0000030212403,2|8,0:0|0:0,0:0:0:0:
224,312,108451,2,0,L|432:316,1,198.000006042481,6|6,0:0|0:0,0:0:0:0:
320,112,108901,1,8,0:0:0:0:
316,236,109051,1,0,0:0:0:0:
412,56,109201,21,4,0:0:0:0:
240,52,109351,2,0,P|192:44|132:56,1,99.0000030212403,2|8,0:0|0:0,0:0:0:0:
316,236,109651,2,0,P|364:244|424:232,1,99.0000030212403,6|0,0:0|0:0,0:0:0:0:
364,136,109951,1,6,0:0:0:0:
264,320,110101,1,8,0:0:0:0:
472,324,110251,1,2,0:0:0:0:
364,136,110401,21,4,0:0:0:0:
364,136,110551,2,0,L|368:20,1,99.0000030212403,2|8,0:0|0:0,0:0:0:0:
220,208,110851,2,0,L|216:320,1,99.0000030212403,6|0,0:0|0:0,0:0:0:0:
224,120,111151,1,6,0:0:0:0:
128,232,111301,1,8,0:0:0:0:
312,236,111451,1,2,0:0:0:0:
136,144,111601,21,4,0:0:0:0:
348,316,111751,2,0,P|384:288|396:220,1,99.0000030212403,2|8,0:0|0:0,0:0:0:0:
356,48,112051,2,0,L|352:164,1,99.0000030212403,6|0,0:0|0:0,0:0:0:0:
488,220,112351,2,0,L|492:100,1,99.0000030212403,6|8,0:0|0:0,0:0:0:0:
304,240,112651,22,0,B|351:254|351:254|411:239,1,99.0000030212403,2|0,0:0|0:0,0:0:0:0:
260,108,112951,2,0,B|213:94|213:94|153:109,1,99.0000030212403,2|8,0:0|0:0,0:0:0:0:
208,308,113251,2,0,P|220:260|208:204,1,99.0000030212403,6|0,0:0|0:0,0:0:0:0:
120,260,113551,1,6,0:0:0:0:
296,176,113701,1,8,0:0:0:0:
104,256,113851,1,0,0:0:0:0:
292,340,114001,21,4,0:0:0:0:
292,340,114151,2,0,L|408:344,1,99.0000030212403,0|8,0:0|0:0,0:0:0:0:
488,184,114451,2,0,L|364:180,1,99.0000030212403,6|0,0:0|0:0,0:0:0:0:
312,96,114751,1,6,0:0:0:0:
308,252,114901,1,8,0:0:0:0:
400,92,115051,1,2,0:0:0:0:
236,176,115201,21,4,0:0:0:0:
404,276,115351,2,0,P|416:323|398:379,1,99.0000030212403,0|8,0:0|0:0,0:0:0:0:
220,300,115651,2,0,P|208:253|226:197,1,99.0000030212403,6|0,0:0|0:0,0:0:0:0:
300,132,115951,1,6,0:0:0:0:
116,252,116101,1,8,0:0:0:0:
316,256,116251,1,2,0:0:0:0:
148,127,116401,21,4,0:0:0:0:
336,256,116551,2,0,L|452:260,1,99.0000030212403,0|8,0:0|0:0,0:0:0:0:
384,64,116851,2,0,L|380:196,1,99.0000030212403,6|0,0:0|0:0,0:0:0:0:
484,120,117151,1,6,0:0:0:0:
284,112,117301,1,0,0:0:0:0:
464,304,117451,22,0,P|476:248|460:200,1,99.0000030212403,2|4,0:0|0:0,0:0:0:0:
300,208,117751,2,0,P|288:264|304:312,1,99.0000030212403,2|8,0:0|0:0,0:0:0:0:
384,112,118051,2,0,P|336:80|192:132,1,198.000006042481,6|6,0:0|0:0,0:0:0:0:
96,196,118501,1,8,0:0:0:0:
96,196,118651,1,2,0:0:0:0:
204,276,118801,21,4,0:0:0:0:
104,88,118951,1,0,0:0:0:0:
96,312,119101,1,8,0:0:0:0:
256,192,119251,2,0,L|380:196,1,99.0000030212403,6|0,0:0|0:0,0:0:0:0:
212,272,119551,1,6,0:0:0:0:
308,108,119701,21,8,0:0:0:0:
308,108,119851,1,2,0:0:0:0:
404,276,120001,1,4,0:0:0:0:
228,184,120151,2,0,P|204:140|204:80,1,99.0000030212403,0|8,0:0|0:0,0:0:0:0:
412,92,120451,2,0,P|409:141|385:184,1,99.0000030212403,6|0,0:0|0:0,0:0:0:0:
309,23,120751,1,6,0:0:0:0:
304,256,120901,2,0,L|308:128,1,99.0000030212403,8|10,0:0|0:0,0:0:0:0:
448,292,121201,22,0,P|396:320|363:361,1,90,4|0,0:0|0:0,0:0:0:0:
232,340,121501,2,0,P|199:309|159:289,1,90,4|0,0:0|0:0,0:0:0:0:
104,164,121801,1,8,0:0:0:0:
104,164,121951,2,0,L|236:168,1,90,8|0,0:0|0:0,0:0:0:0:
160,292,122251,22,0,L|36:288,1,90,4|0,0:0|0:0,0:0:0:0:
280,252,122551,1,8,0:0:0:0:
280,252,122701,2,0,B|288:296|288:296|268:368,1,90,8|0,0:0|0:0,0:0:0:0:
196,188,123001,2,0,L|200:84,1,90,4|0,0:0|0:0,0:0:0:0:
300,36,123226,1,0,0:0:0:0:
324,24,123301,2,0,P|352:23|394:31,1,45,8|0,0:0|0:0,0:0:0:0:
388,164,123451,22,0,P|334:174|272:144,1,90,8|0,0:0|0:0,0:0:0:0:
496,104,123751,2,0,L|492:220,1,90,4|0,0:0|0:0,0:0:0:0:
488,280,123976,1,0,0:0:0:0:
488,304,124051,2,0,P|448:316|428:312,1,45,4|0,0:0|0:0,0:0:0:0:
252,256,124201,2,0,B|299:248|299:248|364:260,1,90,8|0,0:0|0:0,0:0:0:0:
299,348,124426,1,0,0:0:0:0:
292,360,124501,2,0,B|248:371|248:371|197:361,1,90,8|0,0:0|0:0,0:0:0:0:
140,276,124726,1,8,0:0:0:0:
128,260,124801,22,0,P|119:217|156:144,1,90,4|0,0:0|0:0,0:0:0:0:
232,48,125026,1,0,0:0:0:0:
244,64,125101,2,0,P|253:107|216:180,1,90,4|0,0:0|0:0,0:0:0:0:
120,80,125326,1,0,0:0:0:0:
104,68,125401,2,0,L|108:12,1,45,8|0,0:0|0:0,0:0:0:0:
24,152,125551,2,0,L|20:264,1,90,8|0,0:0|0:0,0:0:0:0:
220,332,125851,22,0,L|224:216,1,90,4|0,0:0|0:0,0:0:0:0:
124,208,126151,1,8,0:0:0:0:
124,208,126301,2,0,L|120:312,1,90,8|0,0:0|0:0,0:0:0:0:
316,308,126526,1,0,0:0:0:0:
336,296,126601,2,0,L|340:192,1,90,4|0,0:0|0:0,0:0:0:0:
232,40,126901,1,8,0:0:0:0:
232,40,127051,22,0,P|220:84|232:136,1,90,8|0,0:0|0:0,0:0:0:0:
388,96,127276,1,0,0:0:0:0:
404,88,127351,2,0,L|296:84,1,90,4|0,0:0|0:0,0:0:0:0:
344,208,127651,1,8,0:0:0:0:
408,288,127801,2,0,L|456:200,1,90,4|0,0:0|0:0,0:0:0:0:
248,204,128101,2,0,L|284:296,1,90,8|0,0:0|0:0,0:0:0:0:
300,140,128326,1,8,0:0:0:0:
304,120,128401,22,0,L|188:116,1,90,4|0,0:0|0:0,0:0:0:0:
64,168,128626,1,0,0:0:0:0:
60,188,128701,2,0,L|176:192,1,90,8|0,0:0|0:0,0:0:0:0:
116,24,129001,1,8,0:0:0:0:
116,24,129151,2,0,P|104:72|112:116,1,90,8|0,0:0|0:0,0:0:0:0:
224,260,129376,1,0,0:0:0:0:
248,236,129451,22,0,P|260:188|248:144,1,90,4|0,0:0|0:0,0:0:0:0:
204,344,129751,1,8,0:0:0:0:
204,344,129901,2,0,L|304:348,1,90,8|0,0:0|0:0,0:0:0:0:
128,248,130201,2,0,L|24:244,1,90,4|0,0:0|0:0,0:0:0:0:
96,60,130501,1,8,0:0:0:0:
96,60,130651,22,0,B|104:104|104:104|88:160,1,90,8|0,0:0|0:0,0:0:0:0:
224,208,130951,2,0,B|216:164|216:164|232:108,1,90,4|0,0:0|0:0,0:0:0:0:
312,172,131176,1,0,0:0:0:0:
336,172,131251,2,0,L|404:176,1,45,4|0,0:0|0:0,0:0:0:0:
264,296,131401,2,0,L|152:292,1,90,8|0,0:0|0:0,0:0:0:0:
332,144,131701,2,0,L|442:147,1,90,8|0,0:0|0:0,0:0:0:0:
464,284,131926,1,8,0:0:0:0:
472,304,132001,22,0,P|424:288|384:236,1,90,4|0,0:0|0:0,0:0:0:0:
260,256,132301,2,0,P|227:286|184:299,1,90,4|0,0:0|0:0,0:0:0:0:
188,96,132601,1,8,0:0:0:0:
188,96,132751,2,0,L|184:204,1,90,8|0,0:0|0:0,0:0:0:0:
64,340,133051,2,0,L|68:232,1,90,4|0,0:0|0:0,0:0:0:0:
96,216,133276,21,0,0:0:0:0:
140,200,133351,1,8,0:0:0:0:
184,204,133426,1,0,0:0:0:0:
224,228,133501,1,8,0:0:0:0:
260,252,133576,1,0,0:0:0:0:
300,268,133651,1,0,0:0:0:0:
344,264,133726,1,0,0:0:0:0:
372,244,133801,1,2,0:0:0:0:
256,192,133876,12,0,136276,0:0:0:0:
256,192,151500,12,0,154500,0:0:0:0:
436,216,154800,21,0,3:0:0:0:
472,244,154875,1,0,3:0:0:0:
488,288,154950,1,0,3:0:0:0:
484,332,155025,1,0,3:0:0:0:
464,372,155100,1,0,3:0:0:0:
420,364,155175,1,0,3:0:0:0:
384,336,155250,1,0,3:0:0:0:
368,292,155325,1,0,3:0:0:0:
364,256,155400,2,0,L|304:252,1,49.5000015106202
152,156,155700,6,0,L|320:160,1,125.999996154785,0|4,0:0|0:0,0:0:0:0:
79,234,156000,1,0,0:0:0:0:
84,76,156150,1,6,0:0:0:0:
163,262,156300,1,8,0:0:0:0:
0,256,156450,1,0,0:0:0:0:
252,216,156600,21,4,0:0:0:0:
252,216,156750,2,0,P|261:278|228:344,1,107.999996704102,2|8,0:0|0:0,0:0:0:0:
200,112,157050,2,0,B|253:100|253:100|339:119,1,107.999996704102,4|0,0:0|0:0,0:0:0:0:
484,152,157350,1,6,0:0:0:0:
368,212,157500,1,8,0:0:0:0:
408,44,157650,1,0,0:0:0:0:
400,288,157800,21,4,0:0:0:0:
400,288,157950,2,0,P|336:288|296:252,1,107.999996704102,0|8,0:0|0:0,0:0:0:0:
176,120,158250,2,0,L|320:116,1,107.999996704102,6|0,0:0|0:0,0:0:0:0:
172,268,158550,2,0,L|48:272,1,107.999996704102,4|8,0:0|0:0,0:0:0:0:
72,64,158850,2,0,B|96:120|52:124|88:196,1,107.999996704102,2|4,0:0|0:0,0:0:0:0:
216,316,159150,2,0,B|192:260|236:256|200:184,1,107.999996704102,4|8,0:0|0:0,0:0:0:0:
360,24,159450,2,0,B|412:124|312:128|368:240,1,215.999993408203,6|4,0:0|0:0,0:0:0:0:
460,148,159900,1,8,0:0:0:0:
260,152,160050,1,2,0:0:0:0:
316,304,160200,21,4,0:0:0:0:
316,304,160350,2,0,B|368:316|368:316|444:292,1,107.999996704102,0|8,0:0|0:0,0:0:0:0:
260,152,160650,2,0,B|208:140|208:140|140:160,1,107.999996704102,6|0,0:0|0:0,0:0:0:0:
208,240,160950,1,4,0:0:0:0:
312,76,161100,1,8,0:0:0:0:
92,84,161250,1,2,0:0:0:0:
208,240,161400,21,4,0:0:0:0:
204,36,161550,2,0,P|192:104|228:164,1,107.999996704102,0|8,0:0|0:0,0:0:0:0:
384,320,161850,2,0,P|396:252|360:192,1,107.999996704102,6|0,0:0|0:0,0:0:0:0:
304,268,162150,1,4,0:0:0:0:
484,264,162300,1,8,0:0:0:0:
376,132,162450,1,2,0:0:0:0:
388,344,162600,21,4,0:0:0:0:
388,344,162750,1,0,0:0:0:0:
480,160,162900,1,8,0:0:0:0:
280,160,163050,1,6,0:0:0:0:
484,276,163200,1,0,0:0:0:0:
376,96,163350,1,4,0:0:0:0:
288,280,163500,1,8,0:0:0:0:
480,160,163650,22,0,L|512:56,1,107.999996704102,2|4,0:0|0:0,0:0:0:0:
248,64,163950,2,0,L|280:168,1,107.999996704102,0|8,0:0|0:0,0:0:0:0:
388,312,164250,2,0,B|436:196|336:224|392:76,1,215.999993408203,6|4,0:0|0:0,0:0:0:0:
304,264,164700,1,8,0:0:0:0:
460,144,164850,1,0,0:0:0:0:
292,276,165000,21,4,0:0:0:0:
288,276,165150,2,0,P|238:290|164:260,1,107.999996704102,0|8,0:0|0:0,0:0:0:0:
232,64,165450,2,0,L|236:176,1,107.999996704102,6|0,0:0|0:0,0:0:0:0:
116,68,165750,1,4,0:0:0:0:
328,196,165900,1,8,0:0:0:0:
144,204,166050,1,2,0:0:0:0:
352,60,166200,21,4,0:0:0:0:
200,264,166350,2,0,B|145:282|145:282|76:264,1,107.999996704102,0|8,0:0|0:0,0:0:0:0:
360,192,166650,2,0,L|364:324,1,107.999996704102,6|0,0:0|0:0,0:0:0:0:
292,360,166950,1,4,0:0:0:0:
456,240,167100,1,8,0:0:0:0:
456,240,167250,1,2,0:0:0:0:
249,88,167400,21,4,0:0:0:0:
146,199,167550,1,0,0:0:0:0:
256,302,167700,1,8,0:0:0:0:
360,192,167850,1,6,0:0:0:0:
247,52,168000,1,0,0:0:0:0:
110,200,168150,1,4,0:0:0:0:
257,337,168300,1,8,0:0:0:0:
395,190,168450,22,0,P|424:144|432:88,1,107.999996704102,2|4,0:0|0:0,0:0:0:0:
220,238,168750,2,0,P|228:290|256:336,1,107.999996704102,0|8,0:0|0:0,0:0:0:0:
304,104,169050,2,0,B|184:64|212:160|88:112,1,215.999993408203,6|4,0:0|0:0,0:0:0:0:
148,24,169500,1,8,0:0:0:0:
156,224,169650,1,2,0:0:0:0:
64,120,169800,21,4,0:0:0:0:
64,120,169950,1,0,0:0:0:0:
248,116,170100,1,8,0:0:0:0:
76,324,170250,2,0,L|48:208,1,107.999996704102,6|0,0:0|0:0,0:0:0:0:
152,116,170550,1,4,0:0:0:0:
268,216,170700,2,0,L|242:320,1,107.999996704102,8|2,0:0|0:0,0:0:0:0:
300,104,171000,21,4,0:0:0:0:
388,200,171150,2,0,L|364:276,1,53.9999983520508,0|0,0:0|0:0,0:0:0:0:
308,84,171300,2,0,L|324:24,1,53.9999983520508,8|0,0:0|0:0,0:0:0:0:
416,96,171450,1,0,0:0:0:0:
180,112,171600,2,0,L|204:40,1,45,0|0,0:0|0:0,0:0:0:0:
248,200,171750,1,0,0:0:0:0:
66,122,171900,22,0,L|97:42,1,67.5,0|0,0:0|0:0,0:0:0:0:
132,220,172200,6,0,P|145:272|113:349,1,107.999996704102,4|0,0:0|0:0,0:0:0:0:
252,172,172500,2,0,P|239:120|271:43,1,107.999996704102,10|0,0:0|0:0,0:0:0:0:
460,120,172800,1,4,0:0:0:0:
460,120,172950,2,0,L|336:124,1,107.999996704102,0|10,0:0|0:0,0:0:0:0:
202,256,173250,6,0,B|254:268|254:268|346:244,1,107.999996704102,0|4,0:0|0:0,0:0:0:0:
140,128,173550,1,0,0:0:0:0:
64,256,173700,2,0,P|53:320|76:372,1,107.999996704102,10|0,0:0|0:0,0:0:0:0:
212,180,174000,2,0,P|223:116|200:64,1,107.999996704102,4|2,0:0|0:0,0:0:0:0:
8,136,174300,1,8,0:0:0:0:
8,136,174450,6,0,L|120:132,1,107.999996704102,2|4,0:0|0:0,0:0:0:0:
296,276,174750,2,0,L|172:280,1,107.999996704102,0|10,0:0|0:0,0:0:0:0:
284,168,175050,1,0,0:0:0:0:
392,224,175200,2,0,P|406:275|394:327,1,107.999996704102,4|0,0:0|0:0,0:0:0:0:
284,168,175500,2,0,P|269:116|281:64,1,107.999996704102,10|0,0:0|0:0,0:0:0:0:
480,116,175800,6,0,B|424:128|424:128|362:117,1,107.999996704102,4|0,0:0|0:0,0:0:0:0:
168,272,176100,2,0,B|224:260|224:260|286:271,1,107.999996704102,10|0,0:0|0:0,0:0:0:0:
56,340,176400,1,4,0:0:0:0:
56,340,176550,2,0,L|52:200,1,107.999996704102,2|8,0:0|0:0,0:0:0:0:
140,60,176850,6,0,L|144:204,1,107.999996704102,2|4,0:0|0:0,0:0:0:0:
256,112,177150,1,0,0:0:0:0:
448,32,177300,2,0,P|372:24|328:48,1,107.999996704102,10|0,0:0|0:0,0:0:0:0:
352,192,177600,2,0,P|428:200|472:176,1,107.999996704102,4|0,0:0|0:0,0:0:0:0:
244,172,177900,1,10,0:0:0:0:
244,172,178050,6,0,B|228:224|276:228|236:312,1,107.999996704102,0|4,0:0|0:0,0:0:0:0:
296,56,178350,2,0,L|164:60,1,107.999996704102,0|10,0:0|0:0,0:0:0:0:
336,196,178650,1,0,0:0:0:0:
164,256,178800,2,0,P|150:204|162:152,1,107.999996704102,4|2,0:0|0:0,0:0:0:0:
424,144,179100,2,0,P|437:195|425:247,1,107.999996704102,8|0,0:0|0:0,0:0:0:0:
254,320,179400,6,0,P|217:351|84:306,1,188.999994232178,6|0,0:0|0:0,0:0:0:0:
91,319,179700,2,0,P|60:282|105:149,1,188.999994232178,8|0,0:0|0:0,0:0:0:0:
91,156,180000,2,0,P|128:125|261:170,1,188.999994232178,6|0,0:0|0:0,0:0:0:0:
270,172,180300,2,0,P|301:135|256:2,1,188.999994232178,8|0,0:0|0:0,0:0:0:0:
269,9,180600,6,0,P|227:89|268:171,1,188.999994232178,6|0,0:0|0:0,0:0:0:0:
268,171,180900,2,0,P|348:130|430:171,1,188.999994232178,8|0,0:0|0:0,0:0:0:0:
430,171,181200,2,0,P|471:251|430:333,1,188.999994232178,6|0,0:0|0:0,0:0:0:0:
429,333,181500,2,0,P|348:374|266:333,1,188.999994232178,8|0,0:0|0:0,0:0:0:0:
266,333,181800,6,0,L|144:336,1,107.999996704102,4|0,0:0|0:0,0:0:0:0:
76,196,182100,2,0,L|212:192,1,107.999996704102,10|0,0:0|0:0,0:0:0:0:
380,188,182400,1,4,0:0:0:0:
380,188,182550,2,0,B|396:244|352:248|392:320,1,107.999996704102,0|10,0:0|0:0,0:0:0:0:
268,116,182850,6,0,B|252:60|296:56|256:-16,1,107.999996704102,0|4,0:0|0:0,0:0:0:0:
368,52,183150,1,0,0:0:0:0:
176,52,183300,2,0,P|120:40|51:65,1,107.999996704102,10|0,0:0|0:0,0:0:0:0:
216,208,183600,2,0,P|272:220|344:192,1,107.999996704102,4|2,0:0|0:0,0:0:0:0:
64,188,183900,1,8,0:0:0:0:
64,188,184050,6,0,L|68:316,1,107.999996704102,2|4,0:0|0:0,0:0:0:0:
152,112,184350,2,0,L|146:-2,1,107.999996704102,0|10,0:0|0:0,0:0:0:0:
160,240,184650,1,0,0:0:0:0:
256,156,184800,2,0,P|264:96|248:40,1,107.999996704102,4|0,0:0|0:0,0:0:0:0:
52,64,185100,2,0,P|44:124|64:184,1,107.999996704102,10|0,0:0|0:0,0:0:0:0:
264,266,185400,6,0,L|140:234,1,107.999996704102,4|0,0:0|0:0,0:0:0:0:
40,304,185700,2,0,L|176:344,1,107.999996704102,10|0,0:0|0:0,0:0:0:0:
192,144,186000,1,4,0:0:0:0:
192,144,186150,2,0,L|56:108,1,107.999996704102,2|10,0:0|0:0,0:0:0:0:
308,168,186450,6,0,B|328:108|280:112|312:24,1,107.999996704102,2|4,0:0|0:0,0:0:0:0:
232,252,186750,1,0,0:0:0:0:
400,352,186900,2,0,P|412:300|388:234,1,107.999996704102,10|0,0:0|0:0,0:0:0:0:
127,256,187200,2,0,B|179:268|179:268|255:244,1,107.999996704102,4|0,0:0|0:0,0:0:0:0:
176,152,187500,1,10,0:0:0:0:
176,152,187650,1,0,0:0:0:0:
180,356,187800,5,4,0:0:0:0:
324,284,187950,2,0,L|319:201,1,53.9999983520508,0|0,0:0|0:0,0:0:0:0:
376,76,188100,2,0,L|344:88,1,26.9999991760254,10|0,0:0|0:0,0:0:0:0:
348,48,188175,2,0,L|304:64,1,26.9999991760254,0|0,0:0|0:0,0:0:0:0:
328,28,188250,1,0,0:0:0:0:
176,152,188400,6,0,L|180:236,1,53.9999983520508,4|0,0:0|0:0,0:0:0:0:
248,104,188550,1,0,0:0:0:0:
84,204,188700,2,0,L|88:288,1,53.9999983520508,10|0,0:0|0:0,0:0:0:0:
276,248,188850,2,0,L|268:160,1,53.9999983520508,0|0,0:0|0:0,0:0:0:0:
24,32,189000,1,4,0:0:0:0:
96,344,197100,22,0,P|76:304|96:212,1,135.000005149842,4|0,0:0|0:0,0:0:0:0:
24,176,197550,2,0,L|168:172,1,135.000005149842,2|0,0:0|0:0,0:0:0:0:
384,296,198150,2,0,L|240:300,1,135.000005149842,2|0,0:0|0:0,0:0:0:0:
192,356,198600,1,2,0:0:0:0:
308,224,198900,22,0,P|324:176|284:80,1,135.000005149842,2|0,0:0|0:0,0:0:0:0:
240,164,199350,2,0,P|224:212|264:308,2,135.000005149842,2|0|0,0:0|0:0|0:0,0:0:0:0:
176,136,200100,2,0,L|328:132,1,135.000005149842,0|0,0:0|0:0,0:0:0:0:
424,196,200700,1,0,0:0:0:0:
420,64,200850,1,2,0:0:0:0:
512,132,201000,1,2,0:0:0:0:
512,132,201300,22,0,P|532:176|496:272,1,135.000005149842,2|0,0:0|0:0,0:0:0:0:
460,320,201750,2,0,B|370:321|370:321|332:364,1,135.000005149842,2|0,0:0|0:0,0:0:0:0:
176,308,202350,2,0,B|266:307|266:307|304:264,1,135.000005149842,2|0,0:0|0:0,0:0:0:0:
228,228,202800,1,0,0:0:0:0:
396,340,203100,22,0,L|392:188,1,135.000005149842,2|0,0:0|0:0,0:0:0:0:
448,156,203550,2,0,P|400:132|324:172,1,135.000005149842,0|0,0:0|0:0,0:0:0:0:
140,292,204150,2,0,B|200:312|200:312|284:280,1,135.000005149842,2|0,0:0|0:0,0:0:0:0:
200,228,204600,2,0,B|140:208|140:208|56:240,1,135.000005149842,0|2,0:0|0:0,0:0:0:0:
336,332,205200,22,0,B|356:292|344:252|344:252|316:220,1,116.999994644165,2|0,0:0|0:0,0:0:0:0:
396,204,205650,2,0,B|373:177|373:177|361:137|381:97,1,116.999994644165,0|0,0:0|0:0,0:0:0:0:
296,160,206250,2,0,L|168:164,1,116.999994644165,2|0,0:0|0:0,0:0:0:0:
240,232,206700,2,0,L|113:235,2,116.999994644165,0|0|2,0:0|0:0|0:0,0:0:0:0:
288,284,207450,21,0,0:0:0:0:
356,188,207750,1,0,0:0:0:0:
424,284,208050,1,0,0:0:0:0:
476,236,208200,2,0,P|488:192|464:116,1,116.999994644165,2|0,0:0|0:0,0:0:0:0:
264,128,208800,1,2,0:0:0:0:
320,208,208950,1,0,0:0:0:0:
368,128,209100,1,2,0:0:0:0:
368,128,209400,22,0,L|364:-8,1,116.999994644165,2|0,0:0|0:0,0:0:0:0:
296,72,209850,2,0,B|299:138|299:138|302:169|336:193,1,116.999994644165,0|0,0:0|0:0,0:0:0:0:
280,320,210450,2,0,B|277:254|277:254|274:223|240:199,1,116.999994644165,2|0,0:0|0:0,0:0:0:0:
208,264,210900,1,0,0:0:0:0:
200,112,211200,22,0,B|136:92|148:144|64:120,1,116.999994644165,2|0,0:0|0:0,0:0:0:0:
36,80,211650,2,0,L|40:208,1,116.999994644165,0|0,0:0|0:0,0:0:0:0:
180,300,212250,2,0,L|176:172,1,116.999994644165,2|0,0:0|0:0,0:0:0:0:
172,108,212700,1,0,0:0:0:0:
284,232,213000,1,0,0:0:0:0:
88,240,213300,1,2,0:0:0:0:
256,192,213375,12,0,220500,0:0:0:0:
