osu file format v14

[General]
AudioFilename: audio2.mp3
AudioLeadIn: 0
PreviewTime: 69649
Countdown: 0
SampleSet: Normal
StackLeniency: 0.7
Mode: 1
LetterboxInBreaks: 0
WidescreenStoryboard: 1

[Editor]
DistanceSpacing: 0.9
BeatDivisor: 4
GridSize: 32
TimelineZoom: 0.5999999

[Metadata]
Title:Sunflower
TitleUnicode:Sunflower
Artist:Post Malone, Swae Lee
ArtistUnicode:Post Malone, Swae Lee
Creator:arcpotato
Version:futsuu player's Muzukashii
Source:Spider-Man: Into the Spider-Verse
Tags:futsuu player atlas117 english pop rap hip-hop hip hop hiphop r&b rae sremmurd carter lang louis bell spiderman spider man spiderverse marvel super hero superhero single soundtrack ost miles morales hollywood's hollywoods bleeding peter parker
BeatmapID:3481576
BeatmapSetID:1690349

[Difficulty]
HPDrainRate:7
CircleSize:2
OverallDifficulty:4
ApproachRate:5
SliderMultiplier:1.4
SliderTickRate:1

[Events]
//Background and Video events
0,0,"SpiderVerse_cropped.jpg",0,70
Video,-351,"sunflower.mp4"
//Break Periods
//Storyboard Layer 0 (Background)
//Storyboard Layer 1 (Fail)
//Storyboard Layer 2 (Pass)
//Storyboard Layer 3 (Foreground)
//Storyboard Layer 4 (Overlay)
//Storyboard Sound Samples

[TimingPoints]
157,666.666666666667,4,1,0,70,1,0
157,-86.9565217391304,4,1,0,70,0,0
5490,-74.0740740740741,4,1,0,70,0,0
5657,-86.9565217391304,4,1,0,70,0,0
25990,-86.9565217391304,4,1,0,70,0,0
47990,-111.111111111111,4,1,0,50,0,0
48157,-90.9090909090909,4,1,0,50,0,0
48323,-91.1680911680912,4,1,0,50,0,0
48490,-91.4285714285714,4,1,0,50,0,0
48823,-91.9540229885058,4,1,0,50,0,0
49157,-92.485549132948,4,1,0,50,0,0
49490,-93.0232558139535,4,1,0,50,0,0
49657,-93.2944606413994,4,1,0,50,0,0
49823,-93.5672514619883,4,1,0,50,0,0
50157,-94.1176470588235,4,1,0,50,0,0
50823,-95.2380952380952,4,1,0,50,0,0
50990,-95.5223880597015,4,1,0,50,0,0
51157,-95.8083832335329,4,1,0,50,0,0
51490,-96.3855421686747,4,1,0,50,0,0
51823,-96.969696969697,4,1,0,50,0,0
52157,-97.5609756097561,4,1,0,50,0,0
52323,-97.8593272171254,4,1,0,50,0,0
52490,-98.159509202454,4,1,0,50,0,0
52823,-98.7654320987654,4,1,0,50,0,0
53490,-100,4,1,0,50,0,0
53657,-100.313479623824,4,1,0,50,0,0
53823,-100.62893081761,4,1,0,50,0,0
54157,-101.26582278481,4,1,0,50,0,0
54490,-101.910828025478,4,1,0,50,0,0
54657,-102.23642172524,4,1,0,50,0,0
54823,-102.564102564103,4,1,0,50,0,0
54990,-102.893890675241,4,1,0,50,0,0
55157,-103.225806451613,4,1,0,50,0,0
55490,-103.896103896104,4,1,0,50,0,0
56157,-105.263157894737,4,1,0,50,0,0
56323,-105.610561056106,4,1,0,50,0,0
56490,-105.960264900662,4,1,0,50,0,0
56823,-106.666666666667,4,1,0,50,0,0
57157,-107.38255033557,4,1,0,50,0,0
57490,-108.108108108108,4,1,0,50,0,0
57657,-108.474576271186,4,1,0,50,0,0
57823,-108.843537414966,4,1,0,50,0,0
58157,-109.58904109589,4,1,0,50,0,0
58823,-111.111111111111,4,1,0,50,0,0
65823,-111.111111111111,4,1,0,50,0,0
66490,-104.784458369135,4,1,0,50,0,0
66823,-101.883935857949,4,1,0,50,0,0
67490,-96.5391673882969,4,1,0,50,0,0
67823,-94.0716958022387,4,1,0,50,0,0
68490,-89.4968309172172,4,1,0,50,0,0
68823,-87.3722617533167,4,1,0,50,0,0
69157,-85.3462240270104,4,1,0,50,0,0
69490,-83.3333333333333,4,1,0,90,0,1
89490,-83.3333333333333,4,1,0,90,0,1
89823,-87.6811492543595,4,1,0,90,0,1
90490,-97.8964021114296,4,1,0,90,0,1
90823,-103.951940938665,4,1,0,90,0,0
91157,-111.111111111111,4,1,0,70,0,0
96157,-86.9565217391304,4,1,0,70,0,0
101490,-74.0740740740741,4,1,0,70,0,0
101657,-86.9565217391304,4,1,0,70,0,0
112323,-87.1696705335132,4,1,0,70,0,0
112490,-87.6178460028739,4,1,0,70,0,0
112823,-88.5281661213332,4,1,0,70,0,0
112990,-89.2857142857143,4,1,0,70,0,0
113157,-89.4576006755838,4,1,0,70,0,0
113490,-90.4067580859804,4,1,0,70,0,0
113657,-90.8889300918705,4,1,0,70,0,0
113823,-91.376189375325,4,1,0,70,0,0
114157,-92.3667217480217,4,1,0,70,0,0
115157,-95.4715003250805,4,1,0,70,0,0
115323,-96.0093705145622,4,1,0,70,0,0
115490,-96.5533355798076,4,1,0,70,0,0
115823,-97.6599694714936,4,1,0,70,0,0
116157,-98.7922645656845,4,1,0,70,0,0
116323,-99.3683156176188,4,1,0,70,0,0
116490,-99.9511239004127,4,1,0,70,0,0
117657,-100,4,1,0,50,0,0
117823,-99.3589361439989,4,1,0,50,0,0
118157,-98.1012503004351,4,1,0,50,0,0
118323,-97.0873786407767,4,1,0,50,0,0
118490,-96.8750060546879,4,1,0,50,0,0
118823,-95.6790389231898,4,1,0,50,0,0
118990,-95.0920157890783,4,1,0,50,0,0
119157,-94.5121518999305,4,1,0,50,0,0
120490,-90.1163131253509,4,1,0,50,0,0
120657,-89.5953783120052,4,1,0,50,0,0
120823,-89.0804316125072,4,1,0,50,0,0
121157,-88.068171810435,4,1,0,50,0,0
121490,-87.0786590234825,4,1,0,50,0,0
121657,-86.5921570019717,4,1,0,50,0,0
121823,-86.1111350308708,4,1,0,50,0,0
122157,-85.1648024091419,4,1,0,50,0,0
122490,-84.239114411038,4,1,0,50,0,0
122823,-83.3333333333333,4,1,0,90,0,1
142490,-83.3333333333333,4,1,0,90,0,1
142656,-84.7457627118644,4,1,0,90,0,1
142823,-86.2068965517241,4,1,0,90,0,1
143156,-89.2857142857143,4,1,0,90,0,1
143490,-92.5925925925926,4,1,0,90,0,1
143823,-96.1538461538461,4,1,0,90,0,1
144156,-100,4,1,0,90,0,1
144157,-100,4,1,0,50,0,0
144490,-111.111111111111,4,1,0,30,0,0

[HitObjects]
117,117,157,5,0,0:0:0:0:
117,117,323,1,0,0:0:0:0:
117,117,490,1,0,0:0:0:0:
117,117,657,1,0,0:0:0:0:
117,117,823,1,8,0:0:0:0:
117,117,1157,1,0,0:0:0:0:
117,117,1490,1,0,0:0:0:0:
117,117,1823,1,0,0:0:0:0:
117,117,2157,1,8,0:0:0:0:
117,117,2823,1,0,0:0:0:0:
117,117,2990,1,0,0:0:0:0:
117,117,3157,1,0,0:0:0:0:
117,117,3323,1,0,0:0:0:0:
117,117,3490,1,8,0:0:0:0:
117,117,3823,1,0,0:0:0:0:
117,117,4157,1,0,0:0:0:0:
117,117,4490,1,0,0:0:0:0:
117,117,4823,1,8,0:0:0:0:
117,117,5490,1,4,0:0:0:0:
117,117,6157,1,8,0:0:0:0:
117,117,6490,1,0,0:0:0:0:
117,117,6823,1,8,0:0:0:0:
117,117,7323,1,8,0:0:0:0:
117,117,7490,1,0,0:0:0:0:
117,117,7823,1,8,0:0:0:0:
117,117,8157,1,0,0:0:0:0:
117,117,8490,1,0,0:0:0:0:
117,117,8657,1,8,0:0:0:0:
117,117,8823,1,8,0:0:0:0:
117,117,9157,1,0,0:0:0:0:
117,117,9490,1,8,0:0:0:0:
117,117,10157,1,8,0:0:0:0:
117,117,10490,1,0,0:0:0:0:
117,117,10823,1,0,0:0:0:0:
117,117,11490,1,8,0:0:0:0:
117,117,11823,1,0,0:0:0:0:
117,117,12157,1,8,0:0:0:0:
117,117,12657,1,8,0:0:0:0:
117,117,12823,1,0,0:0:0:0:
117,117,13157,1,8,0:0:0:0:
117,117,13490,1,0,0:0:0:0:
117,117,13823,1,0,0:0:0:0:
117,117,14157,1,8,0:0:0:0:
117,117,14490,1,0,0:0:0:0:
117,117,15157,1,8,0:0:0:0:
117,117,15490,1,8,0:0:0:0:
117,117,15657,1,8,0:0:0:0:
117,117,15823,1,0,0:0:0:0:
117,117,16157,1,8,0:0:0:0:
117,117,16657,1,0,0:0:0:0:
117,117,16823,1,8,0:0:0:0:
117,117,17157,1,0,0:0:0:0:
117,117,17490,1,8,0:0:0:0:
117,117,17990,1,8,0:0:0:0:
117,117,18157,1,0,0:0:0:0:
117,117,18490,1,0,0:0:0:0:
117,117,18823,1,8,0:0:0:0:
117,117,19157,1,0,0:0:0:0:
117,117,19490,1,8,0:0:0:0:
117,117,19823,1,0,0:0:0:0:
117,117,20157,1,8,0:0:0:0:
117,117,20823,1,8,0:0:0:0:
117,117,21157,1,0,0:0:0:0:
117,117,21490,1,8,0:0:0:0:
117,117,21990,1,0,0:0:0:0:
117,117,22157,1,0,0:0:0:0:
117,117,22490,1,8,0:0:0:0:
117,117,22823,1,8,0:0:0:0:
117,117,23323,1,8,0:0:0:0:
117,117,23490,1,0,0:0:0:0:
117,117,23823,1,0,0:0:0:0:
117,117,24157,1,8,0:0:0:0:
117,117,24490,1,0,0:0:0:0:
117,117,24823,1,8,0:0:0:0:
117,117,25157,1,0,0:0:0:0:
117,117,25823,1,8,0:0:0:0:
117,117,26157,1,0,0:0:0:0:
117,117,26490,1,8,0:0:0:0:
117,117,26823,1,0,0:0:0:0:
117,117,26990,1,0,0:0:0:0:
117,117,27157,1,0,0:0:0:0:
117,117,27490,1,8,0:0:0:0:
117,117,27823,1,8,0:0:0:0:
117,117,28157,1,0,0:0:0:0:
117,117,28490,1,0,0:0:0:0:
117,117,28823,1,8,0:0:0:0:
117,117,29490,1,0,0:0:0:0:
117,117,29657,1,8,0:0:0:0:
117,117,29823,1,0,0:0:0:0:
117,117,30157,1,8,0:0:0:0:
117,117,30490,1,8,0:0:0:0:
117,117,30823,1,0,0:0:0:0:
117,117,30990,1,0,0:0:0:0:
117,117,31157,1,8,0:0:0:0:
117,117,31490,1,8,0:0:0:0:
117,117,32157,1,8,0:0:0:0:
117,117,32323,1,8,0:0:0:0:
117,117,32490,1,0,0:0:0:0:
117,117,32823,1,8,0:0:0:0:
117,117,33157,1,0,0:0:0:0:
117,117,33490,1,0,0:0:0:0:
117,117,33657,1,0,0:0:0:0:
117,117,33823,1,8,0:0:0:0:
117,117,34157,1,8,0:0:0:0:
117,117,34823,1,0,0:0:0:0:
117,117,35157,1,0,0:0:0:0:
117,117,35490,1,8,0:0:0:0:
117,117,35823,1,8,0:0:0:0:
117,117,36157,1,0,0:0:0:0:
117,117,36323,1,0,0:0:0:0:
117,117,36490,1,8,0:0:0:0:
117,117,36823,1,8,0:0:0:0:
117,117,37490,1,8,0:0:0:0:
117,117,37657,1,8,0:0:0:0:
117,117,37823,1,0,0:0:0:0:
117,117,38157,1,8,0:0:0:0:
117,117,38490,1,0,0:0:0:0:
117,117,38823,1,8,0:0:0:0:
117,117,38990,1,8,0:0:0:0:
117,117,39157,1,0,0:0:0:0:
117,117,39490,1,8,0:0:0:0:
117,117,40157,1,0,0:0:0:0:
117,117,40323,1,8,0:0:0:0:
117,117,40490,1,0,0:0:0:0:
117,117,40823,1,8,0:0:0:0:
117,117,41157,1,8,0:0:0:0:
117,117,41490,1,0,0:0:0:0:
117,117,41657,1,0,0:0:0:0:
117,117,41823,1,8,0:0:0:0:
117,117,42157,1,8,0:0:0:0:
117,117,42823,1,0,0:0:0:0:
117,117,42990,1,0,0:0:0:0:
117,117,43157,1,0,0:0:0:0:
117,117,43490,1,8,0:0:0:0:
117,117,43823,1,8,0:0:0:0:
117,117,44157,1,0,0:0:0:0:
117,117,44323,1,8,0:0:0:0:
117,117,44490,1,0,0:0:0:0:
117,117,44823,1,8,0:0:0:0:
117,117,45490,1,0,0:0:0:0:
117,117,45823,1,0,0:0:0:0:
117,117,46157,1,8,0:0:0:0:
117,117,46490,1,8,0:0:0:0:
117,117,46823,1,0,0:0:0:0:
117,117,46990,1,8,0:0:0:0:
117,117,47157,1,0,0:0:0:0:
117,117,47490,1,8,0:0:0:0:
117,117,48157,1,0,0:0:0:0:
117,117,48323,1,8,0:0:0:0:
117,117,48490,1,0,0:0:0:0:
117,117,48823,1,8,0:0:0:0:
117,117,49157,1,0,0:0:0:0:
117,117,49490,1,8,0:0:0:0:
117,117,49657,1,8,0:0:0:0:
117,117,49823,1,0,0:0:0:0:
117,117,50157,1,0,0:0:0:0:
117,117,50823,1,8,0:0:0:0:
117,117,50990,1,8,0:0:0:0:
117,117,51157,1,0,0:0:0:0:
117,117,51490,1,8,0:0:0:0:
117,117,51823,1,8,0:0:0:0:
117,117,52157,1,0,0:0:0:0:
117,117,52323,1,8,0:0:0:0:
117,117,52490,1,0,0:0:0:0:
117,117,52823,1,8,0:0:0:0:
117,117,53490,1,8,0:0:0:0:
117,117,53657,1,8,0:0:0:0:
117,117,53823,1,0,0:0:0:0:
117,117,54157,1,8,0:0:0:0:
117,117,54490,1,0,0:0:0:0:
117,117,54657,1,0,0:0:0:0:
117,117,54823,1,8,0:0:0:0:
117,117,54990,1,8,0:0:0:0:
117,117,55157,1,0,0:0:0:0:
117,117,55490,1,8,0:0:0:0:
117,117,56157,1,0,0:0:0:0:
117,117,56323,1,8,0:0:0:0:
117,117,56490,1,0,0:0:0:0:
117,117,56823,1,8,0:0:0:0:
117,117,57157,1,0,0:0:0:0:
117,117,57490,1,8,0:0:0:0:
117,117,57657,1,8,0:0:0:0:
117,117,57823,1,8,0:0:0:0:
117,117,58157,1,0,0:0:0:0:
117,117,58823,1,8,0:0:0:0:
117,117,59490,1,8,0:0:0:0:
117,117,59823,1,0,0:0:0:0:
117,117,60490,1,0,0:0:0:0:
117,117,61157,1,8,0:0:0:0:
117,117,61490,1,0,0:0:0:0:
117,117,61823,1,0,0:0:0:0:
117,117,62157,1,0,0:0:0:0:
117,117,62490,1,8,0:0:0:0:
117,117,63157,1,0,0:0:0:0:
117,117,63823,1,0,0:0:0:0:
117,117,64157,1,8,0:0:0:0:
117,117,64490,1,8,0:0:0:0:
117,117,64823,1,0,0:0:0:0:
117,117,65157,1,8,0:0:0:0:
117,117,65823,1,0,0:0:0:0:
117,117,66490,1,0,0:0:0:0:
117,117,66823,1,8,0:0:0:0:
117,117,67490,1,8,0:0:0:0:
117,117,67823,1,0,0:0:0:0:
117,117,68490,1,0,0:0:0:0:
117,117,68823,1,8,0:0:0:0:
117,117,69157,1,0,0:0:0:0:
117,117,69490,1,12,0:0:0:0:
117,117,70157,1,8,0:0:0:0:
117,117,70490,1,8,0:0:0:0:
117,117,70657,1,0,0:0:0:0:
117,117,70823,1,8,0:0:0:0:
117,117,71157,1,0,0:0:0:0:
117,117,71490,1,8,0:0:0:0:
117,117,71823,1,0,0:0:0:0:
117,117,72157,1,0,0:0:0:0:
117,117,72823,1,8,0:0:0:0:
117,117,72990,1,8,0:0:0:0:
117,117,73157,1,0,0:0:0:0:
117,117,73323,1,0,0:0:0:0:
117,117,73490,1,8,0:0:0:0:
117,117,73823,1,8,0:0:0:0:
117,117,73990,1,8,0:0:0:0:
117,117,74157,1,0,0:0:0:0:
117,117,74490,1,8,0:0:0:0:
117,117,74823,1,4,0:0:0:0:
117,117,75490,1,8,0:0:0:0:
117,117,75823,1,0,0:0:0:0:
117,117,75990,1,0,0:0:0:0:
117,117,76157,1,8,0:0:0:0:
117,117,76490,1,0,0:0:0:0:
117,117,76823,1,8,0:0:0:0:
117,117,76990,1,0,0:0:0:0:
117,117,77157,1,8,0:0:0:0:
117,117,77490,1,0,0:0:0:0:
117,117,78157,1,0,0:0:0:0:
117,117,78323,1,0,0:0:0:0:
117,117,78490,1,8,0:0:0:0:
117,117,78657,1,8,0:0:0:0:
117,117,78823,1,0,0:0:0:0:
117,117,79157,1,0,0:0:0:0:
117,117,79490,1,8,0:0:0:0:
117,117,79823,1,8,0:0:0:0:
117,117,80157,1,4,0:0:0:0:
117,117,80823,1,8,0:0:0:0:
117,117,80990,1,8,0:0:0:0:
117,117,81157,1,0,0:0:0:0:
117,117,81323,1,0,0:0:0:0:
117,117,81490,1,8,0:0:0:0:
117,117,81823,1,8,0:0:0:0:
117,117,82157,1,8,0:0:0:0:
117,117,82490,1,8,0:0:0:0:
117,117,82823,1,0,0:0:0:0:
117,117,83490,1,8,0:0:0:0:
117,117,83657,1,0,0:0:0:0:
117,117,83823,1,0,0:0:0:0:
117,117,83990,1,0,0:0:0:0:
117,117,84157,1,8,0:0:0:0:
117,117,84490,1,8,0:0:0:0:
117,117,84823,1,0,0:0:0:0:
117,117,85157,1,8,0:0:0:0:
117,117,85490,1,4,0:0:0:0:
117,117,86157,1,8,0:0:0:0:
117,117,86490,1,0,0:0:0:0:
117,117,86657,1,8,0:0:0:0:
117,117,86823,1,0,0:0:0:0:
117,117,87157,1,8,0:0:0:0:
117,117,87490,1,8,0:0:0:0:
117,117,87657,1,8,0:0:0:0:
117,117,87823,1,0,0:0:0:0:
117,117,88157,1,0,0:0:0:0:
117,117,88823,1,8,0:0:0:0:
117,117,89157,1,0,0:0:0:0:
117,117,89323,1,0,0:0:0:0:
117,117,89490,1,8,0:0:0:0:
117,117,89823,1,8,0:0:0:0:
117,117,90490,1,8,0:0:0:0:
117,117,90823,1,4,0:0:0:0:
117,117,91157,1,8,0:0:0:0:
117,117,91323,1,8,0:0:0:0:
117,117,91490,1,0,0:0:0:0:
117,117,91823,1,8,0:0:0:0:
117,117,91990,1,0,0:0:0:0:
117,117,92490,1,8,0:0:0:0:
117,117,92823,1,8,0:0:0:0:
117,117,93157,1,0,0:0:0:0:
117,117,93657,1,0,0:0:0:0:
117,117,93823,1,8,0:0:0:0:
117,117,94157,1,8,0:0:0:0:
117,117,94490,1,0,0:0:0:0:
117,117,94657,1,8,0:0:0:0:
117,117,95157,1,8,0:0:0:0:
117,117,95490,1,0,0:0:0:0:
117,117,96157,1,12,0:0:0:0:
117,117,96490,1,8,0:0:0:0:
117,117,96823,1,0,0:0:0:0:
117,117,97157,1,0,0:0:0:0:
117,117,97323,1,8,0:0:0:0:
117,117,97823,1,8,0:0:0:0:
117,117,98157,1,8,0:0:0:0:
117,117,98490,1,0,0:0:0:0:
117,117,98823,1,8,0:0:0:0:
117,117,99157,1,0,0:0:0:0:
117,117,99490,1,8,0:0:0:0:
117,117,99823,1,8,0:0:0:0:
117,117,99990,1,0,0:0:0:0:
117,117,100490,1,8,0:0:0:0:
117,117,100823,1,8,0:0:0:0:
117,117,101490,1,4,0:0:0:0:
117,117,102157,1,0,0:0:0:0:
117,117,102323,1,0,0:0:0:0:
117,117,102490,1,8,0:0:0:0:
117,117,102657,1,8,0:0:0:0:
117,117,102823,1,0,0:0:0:0:
117,117,103157,1,0,0:0:0:0:
117,117,103490,1,8,0:0:0:0:
117,117,104157,1,0,0:0:0:0:
117,117,104323,1,8,0:0:0:0:
117,117,104490,1,0,0:0:0:0:
117,117,104823,1,0,0:0:0:0:
117,117,104990,1,8,0:0:0:0:
117,117,105157,1,8,0:0:0:0:
117,117,105323,1,0,0:0:0:0:
117,117,105490,1,8,0:0:0:0:
117,117,105823,1,0,0:0:0:0:
117,117,106157,1,8,0:0:0:0:
117,117,106823,1,0,0:0:0:0:
117,117,106990,1,0,0:0:0:0:
117,117,107157,1,8,0:0:0:0:
117,117,107323,1,8,0:0:0:0:
117,117,107490,1,0,0:0:0:0:
117,117,107823,1,8,0:0:0:0:
117,117,107990,1,0,0:0:0:0:
117,117,108157,1,8,0:0:0:0:
117,117,108490,1,8,0:0:0:0:
117,117,108823,1,0,0:0:0:0:
117,117,109490,1,8,0:0:0:0:
117,117,109657,1,8,0:0:0:0:
117,117,109823,1,0,0:0:0:0:
117,117,109990,1,0,0:0:0:0:
117,117,110157,1,8,0:0:0:0:
117,117,110490,1,8,0:0:0:0:
117,117,110657,1,8,0:0:0:0:
117,117,110823,1,0,0:0:0:0:
117,117,111157,1,8,0:0:0:0:
117,117,111490,1,0,0:0:0:0:
117,117,111823,1,8,0:0:0:0:
117,117,112323,1,0,0:0:0:0:
117,117,112490,1,8,0:0:0:0:
117,117,112823,1,8,0:0:0:0:
117,117,112990,1,0,0:0:0:0:
117,117,113157,1,8,0:0:0:0:
117,117,113490,1,0,0:0:0:0:
117,117,113657,1,0,0:0:0:0:
117,117,113823,1,0,0:0:0:0:
117,117,114157,1,8,0:0:0:0:
117,117,115157,1,0,0:0:0:0:
117,117,115323,1,0,0:0:0:0:
117,117,115490,1,8,0:0:0:0:
117,117,115823,1,8,0:0:0:0:
117,117,116157,1,0,0:0:0:0:
117,117,116323,1,8,0:0:0:0:
117,117,116490,1,0,0:0:0:0:
117,117,117657,1,0,0:0:0:0:
117,117,117823,1,8,0:0:0:0:
117,117,118157,1,0,0:0:0:0:
117,117,118323,1,0,0:0:0:0:
117,117,118490,1,8,0:0:0:0:
117,117,118823,1,0,0:0:0:0:
117,117,118990,1,8,0:0:0:0:
117,117,119157,1,0,0:0:0:0:
117,117,120490,1,8,0:0:0:0:
117,117,120657,1,8,0:0:0:0:
117,117,120823,1,8,0:0:0:0:
117,117,121157,1,0,0:0:0:0:
117,117,121490,1,8,0:0:0:0:
117,117,121657,1,8,0:0:0:0:
117,117,121823,1,0,0:0:0:0:
117,117,122157,1,8,0:0:0:0:
117,117,122490,1,0,0:0:0:0:
117,117,122823,1,12,0:0:0:0:
117,117,123490,1,0,0:0:0:0:
117,117,123657,1,0,0:0:0:0:
117,117,123823,1,8,0:0:0:0:
117,117,123990,1,8,0:0:0:0:
117,117,124157,1,0,0:0:0:0:
117,117,124490,1,0,0:0:0:0:
117,117,124823,1,8,0:0:0:0:
117,117,125157,1,0,0:0:0:0:
117,117,125490,1,8,0:0:0:0:
117,117,126157,1,8,0:0:0:0:
117,117,126323,1,0,0:0:0:0:
117,117,126490,1,0,0:0:0:0:
117,117,126657,1,0,0:0:0:0:
117,117,126823,1,8,0:0:0:0:
117,117,127157,1,8,0:0:0:0:
117,117,127490,1,0,0:0:0:0:
117,117,127823,1,8,0:0:0:0:
117,117,128157,1,4,0:0:0:0:
117,117,128823,1,8,0:0:0:0:
117,117,129157,1,0,0:0:0:0:
117,117,129323,1,0,0:0:0:0:
117,117,129490,1,8,0:0:0:0:
117,117,129823,1,8,0:0:0:0:
117,117,130157,1,8,0:0:0:0:
117,117,130323,1,0,0:0:0:0:
117,117,130490,1,8,0:0:0:0:
117,117,130823,1,0,0:0:0:0:
117,117,131490,1,0,0:0:0:0:
117,117,131657,1,0,0:0:0:0:
117,117,131823,1,8,0:0:0:0:
117,117,131990,1,8,0:0:0:0:
117,117,132157,1,0,0:0:0:0:
117,117,132490,1,0,0:0:0:0:
117,117,132823,1,8,0:0:0:0:
117,117,133157,1,8,0:0:0:0:
117,117,133490,1,4,0:0:0:0:
117,117,134157,1,8,0:0:0:0:
117,117,134323,1,8,0:0:0:0:
117,117,134490,1,0,0:0:0:0:
117,117,134657,1,0,0:0:0:0:
117,117,134823,1,8,0:0:0:0:
117,117,135157,1,8,0:0:0:0:
117,117,135490,1,8,0:0:0:0:
117,117,135823,1,8,0:0:0:0:
117,117,136157,1,0,0:0:0:0:
117,117,136823,1,8,0:0:0:0:
117,117,136990,1,8,0:0:0:0:
117,117,137157,1,0,0:0:0:0:
117,117,137323,1,0,0:0:0:0:
117,117,137490,1,8,0:0:0:0:
117,117,137823,1,8,0:0:0:0:
117,117,138157,1,0,0:0:0:0:
117,117,138490,1,8,0:0:0:0:
117,117,138823,1,4,0:0:0:0:
117,117,139490,1,8,0:0:0:0:
117,117,139823,1,0,0:0:0:0:
117,117,139990,1,0,0:0:0:0:
117,117,140157,1,8,0:0:0:0:
117,117,140490,1,8,0:0:0:0:
117,117,140823,1,8,0:0:0:0:
117,117,140990,1,8,0:0:0:0:
117,117,141157,1,0,0:0:0:0:
117,117,141490,1,0,0:0:0:0:
117,117,142157,1,8,0:0:0:0:
117,117,142490,1,0,0:0:0:0:
117,117,142657,1,0,0:0:0:0:
117,117,142823,1,8,0:0:0:0:
117,117,143157,1,8,0:0:0:0:
117,117,143490,1,0,0:0:0:0:
117,117,143823,1,8,0:0:0:0:
117,117,144157,1,0,0:0:0:0:
256,192,145157,1,8,0:0:0:0:
256,192,145823,1,0,0:0:0:0:
256,192,146490,1,0,0:0:0:0:
256,192,147823,1,0,0:0:0:0:
256,192,148490,1,0,0:0:0:0:
256,192,148823,1,8,0:0:0:0:
256,192,149490,1,0,0:0:0:0:
256,192,150490,1,8,0:0:0:0:
256,192,151157,1,0,0:0:0:0:
256,192,151823,1,0,0:0:0:0:
256,192,152157,1,8,0:0:0:0:
256,192,153240,1,8,0:0:0:0:
