osu file format v14

[General]
AudioFilename: audio.mp3
AudioLeadIn: 0
PreviewTime: 69726
Countdown: 0
SampleSet: None
StackLeniency: 0.3
Mode: 0
LetterboxInBreaks: 0
WidescreenStoryboard: 1

[Editor]
DistanceSpacing: 1
BeatDivisor: 4
GridSize: 32
TimelineZoom: 1

[Metadata]
Title:Sunflower
TitleUnicode:Sunflower
Artist:Post Malone, Swae Lee
ArtistUnicode:Post Malone, Swae Lee
Creator:Tatan
Version:Normal
Source:Spider-Man: Into the Spider-Verse
Tags:english pop rap hip-hop hiphop r&b rae sremmurd trap ballad carter lang louis bell spiderman spider man spiderverse marvel super hero superhero single soundtrack ost miles morales
BeatmapID:1871615
BeatmapSetID:895391

[Difficulty]
HPDrainRate:4
CircleSize:3
OverallDifficulty:4
ApproachRate:5
SliderMultiplier:2
SliderTickRate:1

[Events]
//Background and Video events
0,0,"cropped-1920-1200-977085.jpg",0,0
Video,0,"video.mp4"
//Break Periods
//Storyboard Layer 0 (Background)
//Storyboard Layer 1 (Fail)
//Storyboard Layer 2 (Pass)
//Storyboard Layer 3 (Foreground)
//Storyboard Sound Samples

[TimingPoints]
483,666.666666666667,4,3,1,30,1,0
5816,-100,4,3,1,50,0,0
48483,-100,4,3,1,40,0,0
59149,-100,4,2,1,30,0,0
69149,-100,4,3,1,60,0,0
69816,-100,4,3,1,60,0,1
91149,-100,4,3,1,30,0,0
91482,-100,4,2,1,30,0,0
96483,-100,4,3,1,50,0,0
112483,-100,4,3,1,30,0,0
117816,-100,4,2,1,30,0,0
122483,-100,4,3,1,60,0,0
123149,-100,4,3,1,60,0,1
144066,-100,4,3,1,60,0,1
144149,-100,4,3,1,60,0,0
154149,-100,4,3,1,5,0,0

[Colours]
Combo1 : 192,192,192
Combo2 : 206,0,0
Combo3 : 128,0,0
Combo4 : 128,128,128

[HitObjects]
64,96,483,6,0,L|163:90,1,100,2|0,0:3|0:3,0:3:0:0:
256,127,1149,2,0,L|355:133,1,100,8|2,0:3|0:3,0:3:0:0:
433,70,1816,2,0,P|457:132|446:183,2,100,0|0|8,0:3|0:3|0:3,0:3:0:0:
337,38,2816,1,0,0:3:0:0:
268,112,3149,6,0,P|259:153|273:231,1,100,2|0,0:3|0:3,0:3:0:0:
322,292,3816,1,8,0:3:0:0:
259,370,4149,1,2,0:3:0:0:
198,290,4482,2,0,P|172:202|184:82,2,200,0|8|2,0:3|0:3|0:3,0:3:0:0:
259,370,6149,5,0,0:3:0:0:
322,292,6482,2,0,L|319:180,1,100,8|2,0:3|0:3,0:3:0:0:
313,92,7149,2,0,P|256:63|165:87,2,150,0|0|0,0:3|0:3|0:3,0:3:0:0:
366,176,8482,2,0,P|405:184|468:164,1,100,2|0,0:3|0:3,0:3:0:0:
408,84,9149,2,0,P|369:76|306:96,1,100,8|2,0:3|0:3,0:3:0:0:
262,179,9816,2,0,P|336:267|450:264,2,200,0|8|2,0:3|0:3|0:3,0:3:0:0:
207,94,11482,5,0,0:3:0:0:
142,170,11816,2,0,L|146:273,1,100,8|2,0:3|0:3,0:3:0:0:
242,295,12482,2,0,P|325:271|397:298,2,150,0|0|0,0:3|0:3|0:3,0:3:0:0:
155,345,13816,2,0,P|101:360|57:349,1,100,2|0,0:3|0:3,0:3:0:0:
15,260,14482,1,8,0:3:0:0:
59,169,14816,2,0,P|107:160|155:175,1,100,2|0,0:3|0:3,0:3:0:0:
210,257,15482,1,0,0:3:0:0:
292,199,15816,2,0,L|295:100,2,100,8|0|2,0:3|0:3|0:3,0:3:0:0:
333,289,16816,5,0,0:3:0:0:
406,221,17149,2,0,L|409:122,1,100,8|2,0:3|0:3,0:3:0:0:
370,32,17816,2,0,P|305:-2|224:27,2,150,0|0|0,0:3|0:3|0:3,0:3:0:0:
295,100,19149,2,0,L|292:199,1,100,2|0,0:3|0:3,0:3:0:0:
353,278,19816,1,8,0:3:0:0:
426,210,20149,1,2,0:3:0:0:
444,308,20482,2,0,P|398:365|277:337,2,200,0|8|2,0:3|0:3|0:3,0:3:0:0:
426,210,22149,5,0,0:3:0:0:
328,189,22482,2,0,L|205:197,1,100,8|2,0:3|0:3,0:3:0:0:
171,112,23149,2,0,L|320:102,2,150,0|0|0,0:3|0:3|0:3,0:3:0:0:
73,133,24482,2,0,P|58:175|75:242,1,100,2|0,0:3|0:3,0:3:0:0:
148,287,25149,1,8,0:3:0:0:
206,206,25482,2,0,L|305:199,2,100,2|0|0,0:3|0:3|0:3,0:3:0:0:
151,122,26482,2,0,L|250:115,1,100,8|0,0:3|0:3,0:3:0:0:
350,111,27149,5,2,0:3:0:0:
404,194,27482,1,0,0:3:0:0:
361,284,27816,2,0,L|261:290,1,100,8|2,0:3|0:3,0:3:0:0:
208,206,28482,2,0,L|307:199,2,100,0|0|8,0:3|0:3|0:3,0:3:0:0:
93,41,29816,6,0,P|151:25|189:34,1,100,2|0,0:3|0:3,0:3:0:0:
270,91,30482,1,8,0:3:0:0:
361,50,30816,1,2,0:3:0:0:
433,118,31149,2,0,L|424:225,1,100,0|0,0:3|0:3,0:3:0:0:
410,316,31816,1,8,0:3:0:0:
213,353,32482,6,0,P|201:307|217:252,1,100,2|0,0:3|0:3,0:3:0:0:
285,186,33149,1,8,0:3:0:0:
244,94,33482,1,2,0:3:0:0:
316,24,33816,2,0,L|421:20,2,100,0|0|8,0:3|0:3|0:3,0:3:0:0:
116,33,35149,6,0,L|111:142,1,100,2|0,0:3|0:3,0:3:0:0:
154,223,35816,1,8,0:3:0:0:
229,157,36149,1,2,0:3:0:0:
314,208,36482,2,0,P|372:209|416:171,2,100,0|0|8,0:3|0:3|0:3,0:3:0:0:
116,175,37816,6,0,L|113:289,1,100,2|0,0:3|0:3,0:3:0:0:
181,348,38482,1,8,0:3:0:0:
266,295,38816,1,2,0:3:0:0:
342,359,39149,2,0,P|397:375|457:356,2,100,0|0|8,0:3|0:3|0:3,0:3:0:0:
405,169,40482,6,0,L|301:161,1,100,2|0,0:3|0:3,0:3:0:0:
221,108,41149,1,8,0:3:0:0:
214,204,41482,1,2,0:3:0:0:
130,150,41816,2,0,L|26:142,2,100,0|0|8,0:3|0:3|0:3,0:3:0:0:
94,346,43149,6,0,P|84:295|104:240,1,100,2|0,0:3|0:3,0:3:0:0:
188,207,43816,1,8,0:3:0:0:
201,306,44149,1,2,0:3:0:0:
288,255,44483,2,0,P|301:207|291:158,2,100,0|0|8,0:3|0:3|0:3,0:3:0:0:
216,68,45816,6,0,L|328:59,1,100,2|0,0:3|0:3,0:3:0:0:
291,158,46482,2,0,L|191:166,1,100,8|2,0:3|0:3,0:3:0:0:
166,264,47149,2,0,L|266:256,2,100,0|0|8,0:3|0:3|0:3,0:3:0:0:
224,72,48482,6,0,L|336:63,1,100,2|0,0:3|0:3,0:3:0:0:
413,107,49149,1,8,0:3:0:0:
366,195,49482,1,0,0:3:0:0:
444,256,49816,2,0,P|466:313|453:364,2,100,0|0|8,0:3|0:3|0:3,0:3:0:0:
257,327,51149,6,0,L|249:227,1,100,2|0,0:3|0:3,0:3:0:0:
331,170,51816,1,8,0:3:0:0:
246,117,52149,1,0,0:3:0:0:
329,60,52483,2,0,L|428:51,2,100,0|0|8,0:3|0:3|0:3,0:3:0:0:
131,91,53816,6,0,P|117:129|132:194,1,100,2|0,0:3|0:3,0:3:0:0:
183,269,54482,1,8,0:3:0:0:
282,257,54816,1,0,0:3:0:0:
341,176,55149,2,0,L|332:64,2,100,0|0|8,0:3|0:3|0:3,0:3:0:0:
211,328,56482,6,0,P|162:317|100:333,1,100,2|0,0:3|0:3,0:3:0:0:
19,359,57149,2,0,L|21:258,1,100,8|0,0:3|0:3,0:3:0:0:
23,158,57816,1,0,0:3:0:0:
112,202,58149,1,0,0:3:0:0:
111,103,58482,1,8,0:3:0:0:
274,218,59149,6,0,P|375:225|432:137,1,200,2|0,0:3|0:3,0:3:0:0:
331,134,60149,2,0,B|280:117|233:142|233:142|187:167|136:151,1,200,2|2,0:3|0:3,0:3:0:0:
299,34,61482,5,0,0:3:0:0:
397,63,61816,2,0,P|425:103|429:154,1,100,2|0,0:3|0:3,0:3:0:0:
368,231,62482,1,0,0:3:0:0:
271,207,62816,2,0,P|338:134|432:154,1,200,2|2,0:3|0:3,0:3:0:0:
231,367,64482,6,0,L|126:362,1,100,2|0,0:3|0:3,0:3:0:0:
31,354,65149,1,0,0:3:0:0:
83,269,65482,2,0,L|291:278,1,200,2|2,0:3|0:3,0:3:0:0:
435,147,66816,5,0,0:3:0:0:
374,67,67149,2,0,P|285:48|214:147,1,200,2|0,0:3|0:3,0:3:0:0:
214,221,68149,2,0,P|141:239|50:233,2,150,2|2|8,0:3|0:3|0:3,0:3:0:0:
402,152,69816,6,0,P|432:190|354:298,1,200,2|8,0:3|0:3,0:3:0:0:
261,313,70816,1,2,0:3:0:0:
210,230,71149,2,0,L|215:107,2,100,0|0|8,0:3|0:3|0:3,0:3:0:0:
154,311,72149,1,0,0:3:0:0:
70,255,72482,6,0,P|52:221|127:93,1,200,2|8,0:3|0:3,0:3:0:0:
215,131,73482,1,2,0:3:0:0:
292,67,73816,1,0,0:3:0:0:
380,112,74149,2,0,B|404:160|380:208|380:208|355:256|380:304,1,200,0|0,0:3|0:3,0:3:0:0:
337,330,74983,1,0,0:0:0:0:
291,352,75149,6,0,P|175:349|135:269,1,200,2|8,0:3|0:3,0:3:0:0:
235,271,76149,1,2,0:3:0:0:
184,185,76482,1,0,0:3:0:0:
282,184,76816,2,0,P|330:289|275:360,1,200,0|0,0:3|0:3,0:3:0:0:
384,382,77816,6,0,P|420:289|399:182,1,200,2|8,0:3|0:3,0:3:0:0:
350,107,78816,1,2,0:3:0:0:
316,144,78983,1,0,0:0:0:0:
281,182,79149,2,0,L|174:187,1,100,0|0,0:3|0:3,0:3:0:0:
120,266,79816,2,0,L|20:261,1,100,8|0,0:3|0:3,0:3:0:0:
11,161,80482,6,0,P|106:132|186:197,1,200,2|8,0:3|0:3,0:3:0:0:
233,273,81482,1,2,0:3:0:0:
294,193,81816,2,0,P|350:176|397:188,2,100,0|0|8,0:3|0:3|0:3,0:3:0:0:
350,275,82816,1,0,0:3:0:0:
448,258,83149,6,0,L|445:46,1,200,2|8,0:3|0:3,0:3:0:0:
347,81,84149,1,2,0:3:0:0:
270,16,84482,1,0,0:3:0:0:
180,61,84816,2,0,B|155:109|180:157|180:157|204:205|180:253,1,200,0|0,0:3|0:3,0:3:0:0:
144,288,85649,1,0,0:0:0:0:
107,322,85816,6,0,P|208:293|309:320,1,200,2|8,0:3|0:3,0:3:0:0:
365,383,86816,1,2,0:3:0:0:
397,288,87149,1,0,0:3:0:0:
484,335,87482,2,0,L|488:124,1,200,0|0,0:3|0:3,0:3:0:0:
400,88,88482,6,0,L|396:287,1,200,2|8,0:3|0:3,0:3:0:0:
298,314,89482,1,2,0:3:0:0:
301,213,89816,1,0,0:3:0:0:
212,166,90149,2,0,L|208:365,1,200,0|0,0:3|0:3,0:3:0:0:
298,314,91149,1,2,0:3:0:0:
495,291,91816,6,0,L|364:287,1,100,2|2,0:3|0:3,0:3:0:0:
345,200,92483,2,0,P|396:155|477:147,2,150,2|2|2,0:3|0:3|0:3,0:3:0:0:
280,276,93816,2,0,P|201:294|167:287,1,100,2|0,0:3|0:3,0:3:0:0:
121,212,94483,2,0,L|111:51,2,150,2|2|2,0:3|0:3|0:3,0:3:0:0:
183,291,95816,1,8,0:3:0:0:
368,231,96482,6,0,P|303:143|215:153,1,200,2|8,0:3|0:3,0:3:0:0:
270,236,97482,1,2,0:3:0:0:
214,319,97816,1,0,0:3:0:0:
128,267,98149,2,0,P|84:254|25:268,2,100,0|8|0,0:3|0:3|0:3,0:3:0:0:
317,332,99482,6,0,L|423:331,1,100,0|8,0:3|0:3,0:3:0:0:
498,272,100149,1,2,0:3:0:0:
417,212,100482,2,0,P|380:161|450:44,1,200,0|8,0:3|0:3,0:3:0:0:
510,234,101816,6,0,L|288:224,1,200,2|8,0:3|0:3,0:3:0:0:
232,161,102816,1,2,0:3:0:0:
145,210,103149,2,0,L|148:309,1,100,0|0,0:3|0:3,0:3:0:0:
235,260,103816,2,0,L|231:160,1,100,8|0,0:3|0:3,0:3:0:0:
185,71,104482,5,2,0:3:0:0:
100,124,104816,1,0,0:3:0:0:
8,83,105149,2,0,P|2:144|31:196,1,100,8|2,0:3|0:3,0:3:0:0:
112,208,105816,2,0,P|156:193|209:205,1,100,0|0,0:3|0:3,0:3:0:0:
249,294,106482,1,8,0:3:0:0:
203,104,107149,6,0,L|207:215,1,100,2|0,0:3|0:3,0:3:0:0:
249,294,107816,2,0,P|311:306|384:200,1,200,8|0,0:3|0:3,0:3:0:0:
323,129,108816,2,0,P|296:175|300:225,2,100,0|8|0,0:3|0:3|0:3,0:3:0:0:
419,103,109816,5,2,0:3:0:0:
483,178,110149,1,0,0:3:0:0:
385,207,110482,2,0,L|390:316,1,100,8|2,0:3|0:3,0:3:0:0:
298,347,111149,2,0,L|293:247,1,100,0|0,0:3|0:3,0:3:0:0:
225,173,111816,1,8,0:3:0:0:
159,248,112149,2,0,P|122:262|51:242,1,100,0|2,0:3|0:3,0:3:0:0:
25,158,112816,5,0,0:3:0:0:
71,69,113149,2,0,L|181:63,1,100,8|0,0:3|0:3,0:3:0:0:
224,147,113816,2,0,L|24:157,2,200,0|8|0,0:3|0:3|0:3,0:3:0:0:
290,72,115482,5,0,0:3:0:0:
365,138,115816,1,8,0:3:0:0:
424,57,116149,1,0,0:3:0:0:
499,123,116482,2,0,L|495:339,2,200,0|8|2,0:3|0:3|0:3,0:3:0:0:
406,163,118149,6,0,L|404:270,1,100,0|0,0:3|0:3,0:3:0:0:
324,323,118816,1,0,0:3:0:0:
239,270,119149,2,0,L|232:29,2,200,0|0|0,0:3|0:3|0:3,0:3:0:0:
144,312,120816,6,0,L|141:200,1,100,0|0,0:3|0:3,0:3:0:0:
90,125,121482,1,0,0:3:0:0:
186,82,121816,2,0,B|263:77|263:77|303:95|303:95|381:91,1,200,0|8,0:3|0:3,0:3:0:0:
402,283,123149,6,0,B|373:234|373:234|383:85,1,200,2|8,0:3|0:3,0:3:0:0:
448,15,124149,1,2,0:3:0:0:
495,103,124482,2,0,B|488:202,2,100,0|0|8,0:3|0:3|0:3,0:3:0:0:
448,15,125482,1,0,0:3:0:0:
382,92,125816,6,0,B|304:96|304:96|264:78|264:78|187:83,1,200,2|8,0:3|0:3,0:3:0:0:
99,133,126816,1,2,0:3:0:0:
162,209,127149,1,0,0:3:0:0:
100,287,127482,2,0,B|144:318|144:318|299:309,1,200,0|0,0:3|0:3,0:3:0:0:
326,275,128316,1,0,0:0:0:0:
351,231,128482,6,0,B|307:200|307:200|152:209,1,200,2|8,0:3|0:3,0:3:0:0:
62,189,129482,1,2,0:3:0:0:
132,117,129816,1,0,0:3:0:0:
97,23,130149,2,0,L|306:31,1,200,0|0,0:3|0:3,0:3:0:0:
355,109,131149,6,0,P|280:122|303:29,1,200,2|8,0:3|0:3,0:3:0:0:
396,23,132149,1,2,0:3:0:0:
429,60,132316,1,0,0:0:0:0:
454,102,132482,2,0,L|457:211,1,100,0|0,0:3|0:3,0:3:0:0:
357,208,133149,2,0,L|354:108,1,100,8|0,0:3|0:3,0:3:0:0:
261,70,133816,6,0,L|266:269,1,200,2|8,0:3|0:3,0:3:0:0:
332,345,134816,1,2,0:3:0:0:
431,333,135149,2,0,P|459:290|459:239,1,100,0|0,0:3|0:3,0:3:0:0:
400,162,135816,1,8,0:3:0:0:
366,256,136149,1,0,0:3:0:0:
298,181,136482,6,0,P|246:171|157:269,1,200,2|8,0:3|0:3,0:3:0:0:
198,361,137482,1,0,0:3:0:0:
254,277,137816,1,2,0:3:0:0:
306,362,138149,2,0,L|507:346,1,200,0|0,0:3|0:3,0:3:0:0:
474,306,138983,1,0,0:0:0:0:
440,265,139149,6,0,P|416:171|486:76,1,200,2|8,0:3|0:3,0:3:0:0:
378,40,140149,1,2,0:3:0:0:
298,100,140482,1,0,0:3:0:0:
231,27,140816,2,0,P|158:9|37:43,1,200,0|0,0:3|0:3,0:3:0:0:
82,131,141816,6,0,P|137:105|230:206,1,200,2|8,0:3|0:3,0:3:0:0:
197,280,142816,1,2,0:3:0:0:
144,194,143149,1,0,0:3:0:0:
80,270,143482,2,0,B|118:313|118:313|267:323,1,200,0|0,0:3|0:3,0:3:0:0:
256,192,144483,12,0,154149,0:3:0:0:
