osu file format v14

[General]
AudioFilename: audio.mp3
AudioLeadIn: 0
PreviewTime: 69726
Countdown: 0
SampleSet: None
StackLeniency: 0.3
Mode: 0
LetterboxInBreaks: 0
WidescreenStoryboard: 0

[Editor]
DistanceSpacing: 1
BeatDivisor: 4
GridSize: 32
TimelineZoom: 1

[Metadata]
Title:Sunflower
TitleUnicode:Sunflower
Artist:Post Malone, Swae Lee
ArtistUnicode:Post Malone, Swae Lee
Creator:Tatan
Version:Insane
Source:Spider-Man: Into the Spider-Verse
Tags:english pop rap hip-hop hiphop r&b rae sremmurd trap ballad carter lang louis bell spiderman spider man spiderverse marvel super hero superhero single soundtrack ost miles morales
BeatmapID:1870911
BeatmapSetID:895391

[Difficulty]
HPDrainRate:6
CircleSize:4
OverallDifficulty:8
ApproachRate:9
SliderMultiplier:2.8
SliderTickRate:1

[Events]
//Background and Video events
0,0,"cropped-1920-1200-977085.jpg",0,0
Video,0,"video.mp4"
//Break Periods
//Storyboard Layer 0 (Background)
//Storyboard Layer 1 (Fail)
//Storyboard Layer 2 (Pass)
//Storyboard Layer 3 (Foreground)
//Storyboard Sound Samples

[TimingPoints]
483,666.666666666667,4,3,1,30,1,0
4983,-100,4,3,1,5,0,0
5149,-100,4,3,1,30,0,0
5649,-100,4,3,1,5,0,0
5816,-80,4,3,1,50,0,0
48483,-100,4,3,1,40,0,0
59149,-133.333333333333,4,2,1,30,0,0
69149,-133.333333333333,4,3,1,60,0,0
69816,-66.6666666666667,4,3,1,60,0,1
91149,-66.6666666666667,4,3,1,30,0,0
91482,-100,4,2,1,30,0,0
96483,-100,4,3,1,50,0,0
112483,-100,4,3,1,30,0,0
117816,-100,4,2,1,30,0,0
122399,-100,4,3,1,5,0,0
122483,-100,4,3,1,60,0,0
123149,-66.6666666666667,4,3,1,60,0,1
144066,-66.6666666666667,4,3,1,5,0,1
144149,-66.6666666666667,4,3,1,60,0,0
154149,-66.6666666666667,4,3,1,5,0,0

[Colours]
Combo1 : 192,192,192
Combo2 : 206,0,0
Combo3 : 128,0,0
Combo4 : 128,128,128

[HitObjects]
94,48,484,5,2,0:0:0:0:
95,82,650,1,0,0:0:0:0:
178,126,817,1,0,0:0:0:0:
176,161,983,1,0,0:0:0:0:
96,229,1150,2,0,P|160:212|232:232,1,140,8|2,0:0|0:0,0:0:0:0:
318,333,1817,5,0,0:0:0:0:
320,298,2150,1,0,0:0:0:0:
402,255,2484,1,8,0:0:0:0:
400,220,2817,1,0,0:0:0:0:
307,212,3150,5,2,0:0:0:0:
309,177,3317,1,0,0:0:0:0:
391,134,3484,1,0,0:0:0:0:
389,99,3649,1,0,0:0:0:0:
304,26,3817,2,0,P|218:15|163:38,1,140,8|2,0:0|0:0,0:0:0:0:
32,128,4484,6,0,B|86:112|131:147|131:147|176:181|230:166,1,210,0|0,0:0|0:0,0:0:0:0:
352,224,5150,2,0,P|256:192|160:256,1,210,8|0,0:0|0:0,0:0:0:0:
140,381,5817,5,2,0:0:0:0:
267,310,5983,1,0,0:0:0:0:
77,295,6150,1,0,0:0:0:0:
167,243,6316,1,0,0:0:0:0:
22,368,6483,2,0,B|-7:321|-7:321|17:182,1,175,8|2,0:0|0:0,0:0:0:0:
192,96,7150,6,0,L|0:128,1,175,0|0,0:0|0:0,0:0:0:0:
224,64,7650,2,0,L|32:96,1,175,0|0,0:0|0:0,0:0:0:0:
256,32,8150,2,0,L|159:48,1,87.5,0|0,0:0|0:0,0:0:0:0:
320,160,8483,5,2,0:0:0:0:
384,0,8650,1,0,0:0:0:0:
421,162,8817,1,0,0:0:0:0:
320,64,8983,1,0,0:0:0:0:
512,128,9150,2,0,L|480:320,1,175,8|2,0:0|0:0,0:0:0:0:
128,288,9817,6,0,B|195:269|251:311|251:311|307:355|375:335,1,262.5,0|0,0:0|0:0,0:0:0:0:
294,171,10483,2,0,P|290:244|366:161,1,262.5,8|0,0:0|0:0,0:0:0:0:
226,106,11150,5,2,0:0:0:0:
374,81,11317,1,0,0:0:0:0:
153,16,11483,1,0,0:0:0:0:
286,32,11650,1,0,0:0:0:0:
160,179,11817,2,0,B|132:144|132:144|153:12,1,175,8|2,0:0|0:0,0:0:0:0:
192,288,12483,6,0,L|0:256,1,175,0|0,0:0|0:0,0:0:0:0:
224,320,12983,2,0,L|32:288,1,175,0|0,0:0|0:0,0:0:0:0:
256,352,13483,2,0,L|159:336,1,87.5,0|0,0:0|0:0,0:0:0:0:
384,192,13817,5,2,0:0:0:0:
403,350,13983,1,0,0:0:0:0:
260,239,14150,1,0,0:0:0:0:
272,334,14317,1,0,0:0:0:0:
366,170,14483,6,0,L|174:202,2,175,8|2|0,0:0|0:0|0:0,0:0:0:0:
96,128,15483,6,0,L|288:160,1,175,0|8,0:0|0:0,0:0:0:0:
64,96,15983,2,0,L|256:128,1,175,0|0,0:0|0:0,0:0:0:0:
403,0,16483,5,2,0:0:0:0:
366,170,16650,1,0,0:0:0:0:
324,31,16817,1,0,0:0:0:0:
468,58,16983,1,0,0:0:0:0:
352,192,17150,2,0,L|160:160,1,175,8|2,0:0|0:0,0:0:0:0:
448,192,17817,6,0,L|416:384,1,175,0|0,0:0|0:0,0:0:0:0:
480,160,18317,2,0,L|448:352,1,175,0|0,0:0|0:0,0:0:0:0:
512,128,18817,2,0,L|496:225,1,87.5,0|0,0:0|0:0,0:0:0:0:
384,281,19149,1,2,0:0:0:0:
279,247,19317,1,0,0:0:0:0:
279,137,19483,1,0,0:0:0:0:
384,104,19650,1,0,0:0:0:0:
448,192,19817,6,0,L|416:384,1,175,8|2,0:0|0:0,0:0:0:0:
251,369,20483,6,0,P|219:305|332:342,1,262.5,0|0,0:0|0:0,0:0:0:0:
156,253,21150,2,0,P|226:190|393:244,1,262.5,8|0,0:0|0:0,0:0:0:0:
480,288,21817,5,2,0:0:0:0:
512,128,21983,1,0,0:0:0:0:
378,224,22150,1,0,0:0:0:0:
400,112,22316,1,0,0:0:0:0:
469,298,22483,2,0,L|277:330,1,175,8|2,0:0|0:0,0:0:0:0:
96,128,23150,6,0,L|128:320,1,175,0|0,0:0|0:0,0:0:0:0:
64,96,23650,2,0,L|96:288,1,175,0|0,0:0|0:0,0:0:0:0:
32,64,24150,2,0,L|51:179,1,87.5,0|0,0:0|0:0,0:0:0:0:
284,29,24483,5,2,0:0:0:0:
136,58,24650,1,0,0:0:0:0:
320,160,24817,1,0,0:0:0:0:
195,135,24984,1,0,0:0:0:0:
379,75,25150,2,0,L|347:267,1,175,8|2,0:0|0:0,0:0:0:0:
256,320,25650,1,0,0:0:0:0:
256,320,25817,2,0,L|140:300,1,87.5,0|0,0:0|0:0,0:0:0:0:
32,224,26150,6,0,L|224:192,1,175,0|8,0:0|0:0,0:0:0:0:
96,128,26650,2,0,L|9:142,2,87.5,0|0|0,0:0|0:0|0:0,0:0:0:0:
291,111,27150,5,2,0:0:0:0:
204,195,27317,1,0,0:0:0:0:
239,44,27483,2,0,P|309:28|352:50,1,87.5,0|0,0:0|0:0,0:0:0:0:
294,198,27817,2,0,L|289:83,1,87.5,8|0,0:0|0:0,0:0:0:0:
421,25,28150,2,0,L|424:112,1,87.5,2|0,0:0|0:0,0:0:0:0:
442,245,28483,2,0,P|385:191|288:200,2,175,0|0|8,0:0|0:0|0:0,0:0:0:0:
236,357,29483,5,0,0:0:0:0:
236,357,29817,5,2,0:0:0:0:
346,282,29983,1,0,0:0:0:0:
176,289,30150,2,0,P|152:341|162:397,1,87.5,0|0,0:0|0:0,0:0:0:0:
345,281,30483,2,0,L|258:278,1,87.5,8|0,0:0|0:0,0:0:0:0:
115,207,30817,2,0,L|202:203,1,87.5,2|0,0:0|0:0,0:0:0:0:
77,282,31150,5,0,0:0:0:0:
45,137,31317,1,0,0:0:0:0:
202,203,31483,2,0,L|115:207,1,87.5,0|0,0:0|0:0,0:0:0:0:
213,118,31817,2,0,P|266:145|263:265,1,175,8|0,0:0|0:0,0:0:0:0:
202,203,32317,1,0,0:0:0:0:
262,45,32483,6,0,L|367:38,1,87.5,2|0,0:0|0:0,0:0:0:0:
432,116,32817,2,0,L|344:121,1,87.5,0|0,0:0|0:0,0:0:0:0:
488,40,33150,2,0,B|529:79|529:79|511:207,1,175,8|2,0:0|0:0,0:0:0:0:
480,320,33650,1,0,0:0:0:0:
381,202,33817,5,0,0:0:0:0:
404,361,33983,1,0,0:0:0:0:
288,192,34150,1,0,0:0:0:0:
311,351,34316,1,0,0:0:0:0:
474,215,34483,1,8,0:0:0:0:
199,289,34817,5,0,0:0:0:0:
199,289,35150,6,0,L|190:169,1,87.5,2|0,0:0|0:0,0:0:0:0:
268,107,35483,2,0,L|277:227,1,87.5,0|0,0:0|0:0,0:0:0:0:
116,190,35817,2,0,P|136:147|200:125,1,87.5,8|0,0:0|0:0,0:0:0:0:
351,206,36150,2,0,P|331:249|267:271,1,87.5,2|0,0:0|0:0,0:0:0:0:
271,80,36483,5,0,0:0:0:0:
443,110,36650,1,0,0:0:0:0:
274,194,36817,1,0,0:0:0:0:
446,224,36984,1,0,0:0:0:0:
367,41,37150,1,8,0:0:0:0:
455,331,37483,5,0,0:0:0:0:
455,331,37817,5,2,0:0:0:0:
309,311,37983,1,0,0:0:0:0:
387,177,38150,2,0,P|402:229|390:274,1,87.5,0|0,0:0|0:0,0:0:0:0:
220,228,38483,2,0,L|317:225,1,87.5,8|0,0:0|0:0,0:0:0:0:
443,351,38817,2,0,L|346:348,1,87.5,2|0,0:0|0:0,0:0:0:0:
192,352,39150,5,0,0:0:0:0:
288,256,39317,1,0,0:0:0:0:
96,320,39483,2,0,L|183:326,1,87.5,0|0,0:0|0:0,0:0:0:0:
368,239,39817,2,0,L|280:232,1,87.5,8|0,0:0|0:0,0:0:0:0:
160,224,40150,5,0,0:0:0:0:
160,224,40483,5,2,0:0:0:0:
256,128,40650,1,0,0:0:0:0:
71,99,40817,2,0,L|76:203,1,87.5,0|0,0:0|0:0,0:0:0:0:
113,29,41150,2,0,P|66:18|12:45,1,87.5,8|0,0:0|0:0,0:0:0:0:
172,127,41483,2,0,P|213:139|255:127,1,87.5,2|0,0:0|0:0,0:0:0:0:
342,11,41817,5,0,0:0:0:0:
213,44,41983,1,0,0:0:0:0:
350,187,42150,2,0,L|357:77,1,87.5,0|0,0:0|0:0,0:0:0:0:
172,127,42483,1,8,0:0:0:0:
326,263,42650,2,0,L|333:153,1,87.5,0|0,0:0|0:0,0:0:0:0:
192,224,42983,1,0,0:0:0:0:
288,341,43150,6,0,P|342:349|383:335,2,87.5,2|0|0,0:0|0:0|0:0,0:0:0:0:
180,244,43650,1,0,0:0:0:0:
331,175,43817,2,0,L|326:263,1,87.5,8|0,0:0|0:0,0:0:0:0:
172,127,44150,2,0,L|177:39,1,87.5,2|0,0:0|0:0,0:0:0:0:
253,174,44483,5,0,0:0:0:0:
89,184,44650,1,0,0:0:0:0:
288,96,44817,1,0,0:0:0:0:
53,110,44984,1,0,0:0:0:0:
176,39,45150,1,8,0:0:0:0:
183,307,45483,5,0,0:0:0:0:
183,307,45817,6,0,L|189:193,1,87.5,2|0,0:0|0:0,0:0:0:0:
329,307,46150,2,0,L|323:193,1,87.5,0|0,0:0|0:0,0:0:0:0:
171,120,46483,2,0,P|215:147|267:144,1,87.5,8|0,0:0|0:0,0:0:0:0:
416,64,46817,2,0,P|372:68|337:92,1,87.5,2|0,0:0|0:0,0:0:0:0:
288,227,47150,5,0,0:0:0:0:
409,159,47317,1,0,0:0:0:0:
352,320,47483,1,0,0:0:0:0:
322,124,47650,1,0,0:0:0:0:
260,311,47817,1,8,0:0:0:0:
512,205,48150,5,0,0:0:0:0:
512,205,48483,6,0,L|508:288,1,70,2|0,0:0|0:0,0:0:0:0:
428,307,48817,2,0,L|431:237,1,70,0|0,0:0|0:0,0:0:0:0:
437,148,49150,2,0,P|390:132|296:170,1,140,8|0,0:0|0:0,0:0:0:0:
249,218,49650,1,0,0:0:0:0:
249,218,49817,2,0,P|195:232|166:227,1,70,0|0,0:0|0:0,0:0:0:0:
200,82,50150,2,0,L|202:166,1,70,0|0,0:0|0:0,0:0:0:0:
122,165,50483,2,0,L|120:95,1,70,8|0,0:0|0:0,0:0:0:0:
278,30,50817,1,0,0:0:0:0:
278,30,51150,6,0,L|280:114,1,70,2|0,0:0|0:0,0:0:0:0:
358,93,51483,2,0,L|356:23,1,70,0|0,0:0|0:0,0:0:0:0:
320,170,51817,2,0,P|368:178|441:107,1,140,8|0,0:0|0:0,0:0:0:0:
430,28,52317,1,0,0:0:0:0:
430,28,52483,2,0,P|393:15|332:18,1,70,0|0,0:0|0:0,0:0:0:0:
278,30,52817,2,0,L|280:114,1,70,0|0,0:0|0:0,0:0:0:0:
320,170,53150,2,0,L|318:239,1,70,8|0,0:0|0:0,0:0:0:0:
224,256,53483,1,0,0:0:0:0:
224,256,53817,6,0,P|172:248|130:264,1,70,2|0,0:0|0:0,0:0:0:0:
16,286,54150,2,0,P|68:294|110:278,1,70,0|0,0:0|0:0,0:0:0:0:
97,121,54483,1,8,0:0:0:0:
97,121,54817,6,0,L|94:190,1,70,0|0,0:0|0:0,0:0:0:0:
17,209,55150,2,0,L|19:139,1,70,0|0,0:0|0:0,0:0:0:0:
162,101,55483,2,0,P|106:122|71:113,1,70,0|0,0:0|0:0,0:0:0:0:
114,27,55817,2,0,P|202:22|247:84,1,140,8|0,0:0|0:0,0:0:0:0:
244,149,56317,5,0,0:0:0:0:
244,149,56483,2,0,L|338:155,2,70,2|0|0,0:0|0:0|0:0,0:0:0:0:
192,224,56983,1,0,0:0:0:0:
256,288,57150,2,0,L|350:282,1,70,8|0,0:0|0:0,0:0:0:0:
453,220,57483,2,0,L|383:215,1,70,0|0,0:0|0:0,0:0:0:0:
313,153,57817,2,0,L|307:59,2,70,0|0|0,0:0|0:0|0:0,0:0:0:0:
238,205,58317,1,0,0:0:0:0:
174,141,58484,2,0,L|180:47,1,70,8|0,0:0|0:0,0:0:0:0:
105,53,58817,2,0,L|100:122,1,70,0|0,0:0|0:0,0:0:0:0:
32,201,59149,6,0,B|87:189|129:227|129:227|171:267|227:256,1,210.000008010865,2|0,0:3|0:0,0:0:0:0:
372,186,59984,1,0,0:0:0:0:
372,186,60150,2,0,P|315:227|350:321,1,157.500006008148,2|0,0:3|0:0,0:0:0:0:
429,334,60817,1,2,0:0:0:0:
434,127,61483,6,0,P|384:100|313:106,1,105.000004005432,0|2,0:0|0:3,0:0:0:0:
256,128,61983,1,0,0:0:0:0:
256,128,62150,2,0,P|204:144|138:126,1,105.000004005432,0|0,0:0|0:0,0:0:0:0:
51,52,62650,1,0,0:0:0:0:
51,52,62817,2,0,P|74:108|51:212,1,157.500006008148,2|0,0:3|0:0,0:0:0:0:
2,284,63483,1,2,0:0:0:0:
212,234,63983,6,0,L|219:169,2,52.5000020027161,0|0|0,0:0|0:0|0:0,0:0:0:0:
224,320,64483,2,0,P|287:302|337:312,2,105.000004005432,2|0|0,0:3|0:0|0:0,0:0:0:0:
128,352,65317,1,0,0:0:0:0:
128,352,65483,2,0,L|119:193,1,157.500006008148,2|0,0:3|0:0,0:0:0:0:
113,105,66150,1,2,0:0:0:0:
288,128,66817,6,0,L|356:133,1,52.5000020027161,0|0,0:0|0:0,0:0:0:0:
447,93,67150,2,0,P|418:144|438:241,1,157.500006008148,2|0,0:3|0:0,0:0:0:0:
505,312,67817,2,0,P|469:309|432:322,1,52.5000020027161,0|0,0:0|0:0,0:0:0:0:
374,353,68149,2,0,P|323:364|224:323,2,157.500006008148,2|0|8,0:3|0:3|0:3,0:0:0:0:
128,192,69817,5,2,0:0:0:0:
288,160,69983,1,0,0:0:0:0:
128,96,70150,1,0,0:0:0:0:
215,255,70317,1,0,0:0:0:0:
373,170,70483,2,0,P|301:75|226:100,1,210.000008010865,8|2,0:0|0:0,0:0:0:0:
199,245,70983,1,0,0:0:0:0:
320,288,71150,6,0,L|435:280,1,105.000004005432,0|0,0:0|0:0,0:0:0:0:
477,162,71483,2,0,L|372:169,1,105.000004005432,0|0,0:0|0:0,0:0:0:0:
335,316,71817,2,0,L|450:308,1,105.000004005432,8|0,0:0|0:0,0:0:0:0:
492,190,72150,2,0,L|387:197,1,105.000004005432,0|0,0:0|0:0,0:0:0:0:
256,352,72483,5,2,0:0:0:0:
280,192,72650,1,0,0:0:0:0:
151,362,72817,1,0,0:0:0:0:
177,135,72984,1,0,0:0:0:0:
324,272,73150,1,8,0:0:0:0:
122,352,73317,6,0,P|89:311|84:260,1,105.000004005432,0|2,0:0|0:0,0:0:0:0:
192,160,73650,1,0,0:0:0:0:
282,288,73817,2,0,L|177:282,1,105.000004005432,0|0,0:0|0:0,0:0:0:0:
56,176,74150,2,0,B|136:179|136:179|160:204|160:204|256:209,1,210.000008010865,0|8,0:0|0:0,0:0:0:0:
368,96,74650,1,0,0:0:0:0:
263,27,74817,2,0,P|243:69|252:132,1,105.000004005432,0|0,0:0|0:0,0:0:0:0:
416,240,75150,5,2,0:0:0:0:
464,48,75317,1,0,0:0:0:0:
336,176,75483,1,0,0:0:0:0:
512,144,75650,1,0,0:0:0:0:
304,256,75817,1,8,0:0:0:0:
491,228,75984,1,0,0:0:0:0:
364,338,76150,6,0,L|248:344,1,105.000004005432,2|0,0:0|0:0,0:0:0:0:
115,250,76483,2,0,P|153:248|209:289,1,105.000004005432,0|0,0:0|0:0,0:0:0:0:
27,207,76817,2,0,P|91:175|237:203,1,210.000008010865,0|8,0:0|0:0,0:0:0:0:
304,256,77317,1,0,0:0:0:0:
400,183,77483,2,0,L|408:48,1,105.000004005432,0|0,0:0|0:0,0:0:0:0:
306,162,77817,5,2,0:0:0:0:
464,256,77983,1,0,0:0:0:0:
315,151,78150,1,0,0:0:0:0:
496,160,78316,1,0,0:0:0:0:
350,266,78483,1,8,0:0:0:0:
256,64,78650,5,0,0:0:0:0:
406,78,78817,2,0,L|400:183,1,105.000004005432,2|0,0:0|0:0,0:0:0:0:
255,255,79150,1,0,0:0:0:0:
315,151,79317,1,0,0:0:0:0:
450,265,79483,2,0,P|386:279|325:246,1,105.000004005432,0|0,0:0|0:0,0:0:0:0:
224,160,79817,2,0,L|229:269,1,105.000004005432,8|0,0:0|0:0,0:0:0:0:
94,114,80150,2,0,L|89:218,1,105.000004005432,0|0,0:0|0:0,0:0:0:0:
170,323,80483,5,2,0:0:0:0:
0,282,80650,1,0,0:0:0:0:
176,192,80817,1,0,0:0:0:0:
79,324,80983,1,0,0:0:0:0:
2,195,81150,2,0,L|6:90,1,105.000004005432,8|0,0:0|0:0,0:0:0:0:
176,192,81483,2,0,P|127:225|69:208,1,105.000004005432,2|0,0:0|0:0,0:0:0:0:
275,142,81817,6,0,L|273:263,1,105.000004005432,0|0,0:0|0:0,0:0:0:0:
112,144,82150,2,0,L|113:39,1,105.000004005432,0|0,0:0|0:0,0:0:0:0:
359,122,82483,2,0,L|357:243,1,105.000004005432,8|0,0:0|0:0,0:0:0:0:
196,124,82817,2,0,L|197:19,1,105.000004005432,0|0,0:0|0:0,0:0:0:0:
455,228,83150,5,2,0:0:0:0:
399,46,83317,1,0,0:0:0:0:
338,196,83483,1,0,0:0:0:0:
498,131,83650,1,0,0:0:0:0:
276,37,83817,2,0,L|274:141,1,105.000004005432,8|0,0:0|0:0,0:0:0:0:
353,274,84150,5,2,0:0:0:0:
398,134,84317,1,0,0:0:0:0:
277,315,84483,2,0,P|328:359|377:359,1,105.000004005432,0|0,0:0|0:0,0:0:0:0:
494,260,84816,2,0,B|456:223|456:223|297:233,1,210.000008010865,0|8,0:0|0:0,0:0:0:0:
135,191,85316,1,0,0:0:0:0:
197,133,85483,2,0,P|217:218|199:250,1,105.000004005432,0|0,0:0|0:0,0:0:0:0:
25,289,85817,5,2,0:0:0:0:
135,191,85983,1,0,0:0:0:0:
87,354,86150,1,0,0:0:0:0:
39,184,86317,1,0,0:0:0:0:
163,286,86483,2,0,L|270:290,1,105.000004005432,8|0,0:0|0:0,0:0:0:0:
404,188,86817,6,0,P|347:174|296:204,1,105.000004005432,2|0,0:0|0:0,0:0:0:0:
353,371,87150,2,0,L|359:249,1,105.000004005432,0|0,0:0|0:0,0:0:0:0:
228,116,87483,2,0,P|205:223|269:290,1,210.000008010865,0|8,0:0|0:0,0:0:0:0:
404,188,87983,1,0,0:0:0:0:
332,111,88150,2,0,L|227:116,1,105.000004005432,0|0,0:0|0:0,0:0:0:0:
138,258,88483,5,2,0:0:0:0:
306,192,88650,1,0,0:0:0:0:
150,355,88817,1,0,0:0:0:0:
358,266,88984,1,0,0:0:0:0:
166,173,89150,2,0,L|53:168,1,105.000004005432,8|0,0:0|0:0,0:0:0:0:
230,231,89483,6,0,P|252:167|228:113,1,105.000004005432,2|0,0:0|0:0,0:0:0:0:
33,253,89817,2,0,L|137:257,1,105.000004005432,0|0,0:0|0:0,0:0:0:0:
209,342,90150,2,0,L|0:333,1,210.000008010865,0|8,0:0|0:0,0:0:0:0:
61,168,90650,1,0,0:0:0:0:
137,257,90817,2,0,L|33:253,1,105.000004005432,0|0,0:0|0:0,0:0:0:0:
166,173,91149,1,2,0:3:0:0:
166,173,91483,6,0,L|252:176,1,70,0|0,0:0|0:0,0:0:0:0:
360,199,91817,2,0,P|291:211|232:169,1,140,0|2,0:0|0:3,0:0:0:0:
283,54,92317,2,0,B|340:50|340:50|305:143,1,140,0|0,0:0|0:0,0:0:0:0:
193,94,92817,2,0,L|198:11,1,70,0|0,0:0|0:0,0:0:0:0:
122,21,93150,2,0,L|118:91,1,70,0|0,0:0|0:0,0:0:0:0:
43,88,93483,2,0,L|48:5,1,70,0|0,0:0|0:0,0:0:0:0:
43,88,93983,5,0,0:0:0:0:
43,88,94150,2,0,L|38:157,1,70,2|0,0:3|0:0,0:0:0:0:
43,260,94483,2,0,P|86:223|174:234,1,140,0|2,0:0|0:3,0:0:0:0:
244,330,94983,2,0,P|176:339|121:298,1,140,0|0,0:2|0:0,0:0:0:0:
221,174,95483,2,0,L|309:168,1,70,0|0,0:0|0:0,0:0:0:0:
271,248,95817,2,0,L|201:252,1,70,10|0,0:3|0:0,0:0:0:0:
354,225,96150,1,0,0:0:0:0:
354,225,96483,6,0,P|401:173|380:84,1,140,2|0,0:0|0:0,0:0:0:0:
275,62,96983,1,0,0:0:0:0:
275,62,97150,2,0,L|120:68,1,140,8|2,0:0|0:0,0:0:0:0:
181,150,97650,2,0,L|320:144,1,140,0|0,0:0|0:0,0:0:0:0:
145,219,98150,2,0,P|114:191|107:137,1,70,0|0,0:0|0:0,0:0:0:0:
207,88,98483,2,0,P|198:128|154:161,1,70,8|0,0:0|0:0,0:0:0:0:
63,100,98817,2,0,P|102:87|153:108,1,70,0|0,0:0|0:0,0:0:0:0:
26,192,99150,1,2,0:0:0:0:
26,192,99483,6,0,L|31:277,1,70,0|0,0:0|0:0,0:0:0:0:
45,349,99817,2,0,P|103:312|174:327,1,140,8|2,0:0|0:0,0:0:0:0:
294,349,100317,2,0,P|226:361|169:324,1,140,0|0,0:0|0:0,0:0:0:0:
247,207,100817,2,0,L|242:294,1,70,0|0,0:0|0:0,0:0:0:0:
211,131,101150,1,8,0:0:0:0:
211,131,101817,6,0,B|265:115|310:150|310:150|355:184|409:169,1,210,2|0,0:0|0:0,0:0:0:0:
464,78,102483,2,0,L|387:80,1,70,8|0,0:0|0:0,0:0:0:0:
320,25,102817,2,0,L|250:23,1,70,2|0,0:0|0:0,0:0:0:0:
139,70,103150,2,0,P|118:135|156:201,2,140,0|0|8,0:0|0:0|0:0,0:0:0:0:
207,288,104150,5,0,0:0:0:0:
207,288,104483,6,0,L|125:294,1,70,2|0,0:0|0:0,0:0:0:0:
31,215,104817,2,0,L|113:221,1,70,0|0,0:0|0:0,0:0:0:0:
189,137,105150,2,0,L|119:142,2,70,8|0|2,0:0|0:0|0:0,0:0:0:0:
315,179,105650,1,0,0:0:0:0:
276,293,105817,2,0,L|206:287,1,70,0|0,0:0|0:0,0:0:0:0:
364,263,106150,2,0,P|370:314|316:382,2,140,0|8|0,0:0|0:0|0:0,0:0:0:0:
364,263,107150,6,0,L|359:186,1,70,2|0,0:0|0:0,0:0:0:0:
310,109,107483,2,0,L|314:178,1,70,0|0,0:0|0:0,0:0:0:0:
383,44,107817,2,0,P|324:13|238:42,1,140,8|2,0:0|0:0,0:0:0:0:
211,165,108317,1,0,0:0:0:0:
314,178,108483,2,0,L|310:109,1,70,0|0,0:0|0:0,0:0:0:0:
206,95,108817,2,0,L|210:164,1,70,0|0,0:0|0:0,0:0:0:0:
319,248,109150,2,0,L|308:87,1,140,8|0,0:0|0:0,0:0:0:0:
271,316,109817,6,0,P|327:331|365:324,2,70,2|0|0,0:0|0:0|0:0,0:0:0:0:
210,261,110317,1,0,0:0:0:0:
156,194,110483,2,0,P|100:179|62:186,2,70,8|0|2,0:0|0:0|0:0,0:0:0:0:
210,261,110983,1,0,0:0:0:0:
115,337,111150,2,0,L|110:257,1,70,0|0,0:0|0:0,0:0:0:0:
210,261,111483,2,0,L|214:330,1,70,0|0,0:0|0:0,0:0:0:0:
156,194,111817,2,0,P|214:177|291:227,2,140,8|0|2,0:0|0:0|0:0,0:0:0:0:
110,267,112650,5,0,0:3:0:0:
49,198,112817,2,0,L|44:128,1,70,0|0,0:3|0:3,0:3:0:0:
113,32,113150,2,0,L|117:101,1,70,8|0,0:3|0:3,0:3:0:0:
27,46,113483,1,2,0:3:0:0:
208,19,113649,1,0,0:3:0:0:
121,170,113816,2,0,L|117:101,1,70,0|0,0:3|0:3,0:3:0:0:
204,105,114149,2,0,L|370:107,2,140,0|8|0,0:3|0:3|0:3,0:3:0:0:
341,177,115150,5,0,0:3:0:0:
341,177,115483,2,0,L|345:97,1,70,0|0,0:3|0:3,0:3:0:0:
437,84,115817,2,0,L|433:153,1,70,8|0,0:3|0:3,0:3:0:0:
341,177,116150,2,0,L|344:107,1,70,0|0,0:3|0:3,0:3:0:0:
251,130,116484,2,0,L|247:199,1,70,0|0,0:3|0:3,0:3:0:0:
337,246,116817,2,0,L|344:89,2,140,0|8|0,0:3|0:3|0:3,0:3:0:0:
156,181,117816,1,2,0:3:0:0:
156,181,118150,6,0,L|150:91,1,70,0|0,0:3|0:3,0:3:0:0:
70,146,118483,2,0,L|74:215,1,70,0|0,0:3|0:3,0:3:0:0:
232,222,118817,2,0,P|240:171|229:142,1,70,0|0,0:3|0:3,0:3:0:0:
156,269,119150,2,0,P|218:310|300:285,2,140,0|0|0,0:3|0:3|0:3,0:3:0:0:
335,208,120150,1,0,0:3:0:0:
335,208,120817,6,0,L|330:288,2,70,0|0|0,0:3|0:3|0:3,0:3:0:0:
395,140,121317,1,0,0:3:0:0:
457,211,121483,2,0,L|461:280,2,70,0|0|0,0:3|0:3|0:3,0:3:0:0:
399,126,121983,1,0,0:3:0:0:
297,123,122150,2,0,L|176:128,1,105,0|0,0:3|0:3,0:3:0:0:
146,128,122483,5,8,0:3:0:0:
146,128,123150,5,2,0:0:0:0:
285,49,123317,1,0,0:0:0:0:
363,188,123483,1,0,0:0:0:0:
222,266,123650,1,0,0:0:0:0:
370,98,123817,2,0,L|477:106,1,105,8|0,0:0|0:0,0:0:0:0:
297,239,124150,6,0,P|282:163|305:124,1,105.000004005432,2|0,0:0|0:0,0:0:0:0:
480,192,124483,2,0,L|472:296,1,105,0|0,0:0|0:0,0:0:0:0:
381,295,124817,2,0,L|388:190,1,105,0|0,0:0|0:0,0:0:0:0:
506,227,125150,2,0,L|498:331,1,105,8|0,0:0|0:0,0:0:0:0:
407,330,125484,2,0,L|414:225,1,105,0|0,0:0|0:0,0:0:0:0:
495,96,125817,5,2,0:0:0:0:
399,64,125983,1,0,0:0:0:0:
303,128,126150,1,0,0:0:0:0:
207,96,126317,1,0,0:0:0:0:
470,14,126483,1,8,0:0:0:0:
425,147,126650,5,0,0:0:0:0:
283,40,126817,2,0,L|397:34,1,105.000004005432,2|0,0:0|0:0,0:0:0:0:
226,113,127150,2,0,P|190:65|198:4,1,105.000004005432,0|0,0:0|0:0,0:0:0:0:
320,128,127483,2,0,B|283:189|283:189|121:197,1,210.000008010865,0|8,0:0|0:0,0:0:0:0:
226,113,127983,1,0,0:0:0:0:
290,267,128150,2,0,B|185:272,1,105.000004005432,0|0,0:0|0:0,0:0:0:0:
384,224,128483,5,2,0:0:0:0:
256,352,128650,1,0,0:0:0:0:
416,320,128817,1,0,0:0:0:0:
276,184,128983,1,0,0:0:0:0:
345,367,129150,2,0,L|449:372,1,105.000004005432,8|0,0:0|0:0,0:0:0:0:
488,229,129483,6,0,L|383:223,1,105.000004005432,2|0,0:0|0:0,0:0:0:0:
185,271,129817,2,0,P|281:271|315:243,1,105.000004005432,0|0,0:0|0:0,0:0:0:0:
334,102,130150,2,0,P|249:96|242:213,1,210.000008010865,0|8,0:0|0:0,0:0:0:0:
383,223,130650,1,0,0:0:0:0:
461,139,130817,2,0,L|468:10,1,105.000004005432,0|0,0:0|0:0,0:0:0:0:
325,131,131150,5,2,0:0:0:0:
480,224,131317,1,0,0:0:0:0:
229,200,131483,1,0,0:0:0:0:
384,293,131650,1,0,0:0:0:0:
461,139,131817,2,0,L|468:10,1,105.000004005432,8|0,0:0|0:0,0:0:0:0:
330,26,132150,6,0,L|324:130,1,105.000004005432,2|0,0:0|0:0,0:0:0:0:
404,279,132483,1,0,0:0:0:0:
477,152,132650,1,0,0:0:0:0:
315,227,132817,2,0,L|320:331,1,105.000004005432,0|0,0:0|0:0,0:0:0:0:
403,188,133150,2,0,P|364:141|296:134,1,105.000004005432,8|0,0:0|0:0,0:0:0:0:
235,285,133483,2,0,P|284:268|314:226,1,105.000004005432,0|0,0:0|0:0,0:0:0:0:
260,43,133817,5,2,0:0:0:0:
226,189,133983,1,0,0:0:0:0:
170,0,134150,1,0,0:0:0:0:
139,151,134316,1,0,0:0:0:0:
330,98,134483,2,0,P|348:53|334:-7,1,105.000004005432,8|0,0:0|0:0,0:0:0:0:
204,107,134817,5,2,0:0:0:0:
314,226,134983,1,0,0:0:0:0:
434,103,135150,2,0,L|309:97,1,105.000004005432,0|0,0:0|0:0,0:0:0:0:
209,231,135483,2,0,L|334:225,1,105.000004005432,0|0,0:0|0:0,0:0:0:0:
512,128,135817,2,0,L|387:122,1,105.000004005432,8|0,0:0|0:0,0:0:0:0:
287,256,136150,2,0,L|412:250,1,105.000004005432,0|0,0:0|0:0,0:0:0:0:
255,143,136483,5,2,0:0:0:0:
206,325,136650,1,0,0:0:0:0:
343,173,136817,1,0,0:0:0:0:
160,128,136983,1,0,0:0:0:0:
292,360,137150,2,0,L|286:235,1,105.000004005432,8|0,0:0|0:0,0:0:0:0:
142,227,137483,6,0,L|147:331,1,105.000004005432,2|0,0:0|0:0,0:0:0:0:
205,159,137817,2,0,P|150:127|77:156,1,105.000004005432,0|0,0:0|0:0,0:0:0:0:
286,255,138150,2,0,P|301:193|222:67,1,210.000008010865,0|8,0:0|0:0,0:0:0:0:
142,227,138650,1,0,0:0:0:0:
234,339,138817,2,0,L|367:347,1,105.000004005432,0|0,0:0|0:0,0:0:0:0:
431,208,139150,5,2,0:0:0:0:
286,255,139317,1,0,0:0:0:0:
473,300,139483,1,0,0:0:0:0:
416,117,139650,1,0,0:0:0:0:
377,293,139817,1,8,0:0:0:0:
320,96,139983,1,0,0:0:0:0:
181,261,140150,6,0,L|303:254,1,105.000004005432,2|0,0:0|0:0,0:0:0:0:
128,187,140483,2,0,P|90:250|97:300,1,105.000004005432,0|0,0:0|0:0,0:0:0:0:
205,139,140817,2,0,B|176:103|176:103|-2:113,1,210.000008010865,0|8,0:0|0:0,0:0:0:0:
128,187,141317,1,0,0:0:0:0:
290,126,141483,2,0,L|295:-9,1,105.000004005432,0|0,0:0|0:0,0:0:0:0:
204,230,141817,5,2,0:0:0:0:
373,196,141983,1,0,0:0:0:0:
177,312,142150,1,0,0:0:0:0:
406,268,142316,1,0,0:0:0:0:
290,126,142483,2,0,L|286:230,1,105.000004005432,8|0,0:0|0:0,0:0:0:0:
368,343,142817,5,2,0:0:0:0:
462,203,142983,1,0,0:0:0:0:
286,230,143150,2,0,L|282:334,1,105.000004005432,0|0,0:0|0:0,0:0:0:0:
416,192,143483,2,0,B|322:165|243:224|243:224|165:285|70:257,1,367.500014019013,0|0,0:0|0:0,0:0:0:0:
39,232,144150,1,0,0:0:0:0:
256,192,144483,12,0,154149,0:0:0:0:
