osu file format v14

[General]
AudioFilename: audio.mp3
AudioLeadIn: 0
PreviewTime: 69726
Countdown: 0
SampleSet: None
StackLeniency: 0.5
Mode: 0
LetterboxInBreaks: 0
WidescreenStoryboard: 1

[Editor]
DistanceSpacing: 1.1
BeatDivisor: 4
GridSize: 32
TimelineZoom: 1

[Metadata]
Title:Sunflower
TitleUnicode:Sunflower
Artist:Post Malone, Swae Lee
ArtistUnicode:Post Malone, Swae Lee
Creator:Tatan
Version:Hard
Source:Spider-Man: Into the Spider-Verse
Tags:english pop rap hip-hop hiphop r&b rae sremmurd trap ballad carter lang louis bell spiderman spider man spiderverse marvel super hero superhero single soundtrack ost miles morales
BeatmapID:1871676
BeatmapSetID:895391

[Difficulty]
HPDrainRate:5.5
CircleSize:3.5
OverallDifficulty:6
ApproachRate:8
SliderMultiplier:2.4
SliderTickRate:1

[Events]
//Background and Video events
0,0,"cropped-1920-1200-977085.jpg",0,0
Video,0,"video.mp4"
//Break Periods
//Storyboard Layer 0 (Background)
//Storyboard Layer 1 (Fail)
//Storyboard Layer 2 (Pass)
//Storyboard Layer 3 (Foreground)
//Storyboard Sound Samples

[TimingPoints]
483,666.666666666667,4,3,1,30,1,0
4983,-100,4,3,1,5,0,0
5149,-100,4,3,1,30,0,0
5649,-100,4,3,1,5,0,0
5816,-100,4,3,1,50,0,0
48483,-100,4,3,1,40,0,0
59149,-100,4,2,1,30,0,0
69149,-100,4,3,1,60,0,0
69816,-100,4,3,1,60,0,1
91149,-100,4,2,1,30,0,0
91482,-133.333333333333,4,2,1,30,0,0
96483,-100,4,3,1,50,0,0
112483,-100,4,3,1,30,0,0
117816,-100,4,2,1,30,0,0
122483,-100,4,3,1,60,0,0
123149,-100,4,3,1,60,0,1
144066,-100,4,3,1,60,0,1
144149,-100,4,3,1,60,0,0
154149,-100,4,3,1,5,0,0

[Colours]
Combo1 : 192,192,192
Combo2 : 206,0,0
Combo3 : 128,0,0
Combo4 : 128,128,128

[HitObjects]
96,61,483,6,0,L|99:120,1,60,2|0,0:0|0:0,0:0:0:0:
200,133,816,2,0,L|196:73,1,60,0|0,0:0|0:0,0:0:0:0:
141,208,1149,2,0,P|217:228|283:184,1,120,8|2,0:0|0:0,0:0:0:0:
442,137,1816,2,0,P|392:126|327:152,2,120,0|0|8,0:0|0:0|0:0,0:0:0:0:
394,228,2816,1,0,0:0:0:0:
189,304,3149,6,0,L|248:301,1,60,2|0,0:0|0:0,0:0:0:0:
341,346,3483,2,0,L|400:348,1,60,0|0,0:0|0:0,0:0:0:0:
490,298,3816,2,0,P|510:242|500:183,1,120,8|2,0:0|0:0,0:0:0:0:
306,116,4483,6,0,P|299:49|399:78,1,180,0|0,0:0|0:0,0:0:0:0:
406,160,5149,2,0,B|359:147|319:173|319:173|279:200|233:187,1,180,8|0,0:0|0:0,0:0:0:0:
139,148,5816,6,0,L|141:207,1,60,2|0,0:0|0:0,0:0:0:0:
46,247,6149,2,0,L|44:306,1,60,0|0,0:0|0:0,0:0:0:0:
121,377,6483,2,0,P|159:333|216:317,1,120,8|2,0:0|0:0,0:0:0:0:
312,355,6983,1,0,0:0:0:0:
392,292,7149,2,0,L|397:159,1,120,0|0,0:0|0:0,0:0:0:0:
306,123,7649,2,0,L|301:242,1,120,0|0,0:0|0:0,0:0:0:0:
225,310,8149,1,0,0:0:0:0:
225,310,8316,1,0,0:0:0:0:
172,222,8483,6,0,P|143:213|85:229,1,60,2|0,0:0|0:0,0:0:0:0:
71,308,8816,2,0,P|100:309|129:301,1,60,0|0,0:0|0:0,0:0:0:0:
25,230,9149,1,8,0:0:0:0:
152,117,9483,5,2,0:0:0:0:
152,117,9816,2,0,P|212:68|339:94,1,180,0|0,0:0|0:0,0:0:0:0:
300,165,10483,2,0,P|221:159|267:239,1,180,8|0,0:0|0:0,0:0:0:0:
336,266,11149,6,0,L|395:263,1,60,2|0,0:0|0:0,0:0:0:0:
449,175,11483,2,0,L|389:177,1,60,0|0,0:0|0:0,0:0:0:0:
319,102,11816,2,0,P|405:77|452:97,1,120,8|2,0:0|0:0,0:0:0:0:
226,169,12483,6,0,L|231:36,1,120,0|0,0:0|0:0,0:0:0:0:
140,7,12983,2,0,L|135:126,1,120,0|0,0:0|0:0,0:0:0:0:
143,228,13483,1,0,0:0:0:0:
143,228,13649,1,0,0:0:0:0:
226,169,13816,6,0,P|293:154|358:187,1,120,2|0,0:0|0:0,0:0:0:0:
391,258,14316,1,0,0:0:0:0:
328,338,14483,1,8,0:0:0:0:
501,262,14816,5,2,0:0:0:0:
501,262,15483,6,0,P|510:229|503:174,1,60,0|0,0:0|0:0,0:0:0:0:
415,100,15816,2,0,L|410:219,1,120,8|0,0:0|0:0,0:0:0:0:
419,317,16316,1,0,0:0:0:0:
326,258,16483,6,0,L|248:261,1,60,2|0,0:0|0:0,0:0:0:0:
182,321,16816,2,0,L|104:318,1,60,0|0,0:0|0:0,0:0:0:0:
49,236,17149,2,0,P|72:177|47:80,1,120,8|2,0:0|0:0,0:0:0:0:
13,34,17649,1,0,0:0:0:0:
110,3,17816,6,0,L|229:-1,1,120,0|0,0:0|0:0,0:0:0:0:
272,89,18316,2,0,L|152:93,1,120,0|0,0:0|0:0,0:0:0:0:
205,180,18816,1,0,0:0:0:0:
344,31,19149,6,0,P|310:96|355:203,1,180,2|0,0:0|0:0,0:0:0:0:
433,240,19816,1,8,0:0:0:0:
433,240,20149,2,0,L|443:117,2,120,2|0|0,0:0|0:0|0:0,0:0:0:0:
255,341,21149,2,0,P|339:315|425:339,1,180,8|0,0:0|0:0,0:0:0:0:
492,237,21816,6,0,L|384:241,1,60,2|0,0:0|0:0,0:0:0:0:
352,175,22149,2,0,L|292:172,1,60,0|0,0:0|0:0,0:0:0:0:
231,256,22483,2,0,L|379:261,1,120,8|2,0:0|0:0,0:0:0:0:
140,298,23149,6,0,L|135:178,1,120,0|0,0:0|0:0,0:0:0:0:
226,136,23649,2,0,L|230:255,1,120,0|0,0:0|0:0,0:0:0:0:
313,173,24149,1,0,0:0:0:0:
146,72,24483,6,0,P|211:39|323:91,1,180,2|0,0:0|0:0,0:0:0:0:
313,173,25149,1,8,0:0:0:0:
168,232,25483,6,0,B|214:219|254:245|254:245|294:272|340:259,1,180,2|0,0:0|0:0,0:0:0:0:
313,173,26149,1,0,0:0:0:0:
197,323,26483,1,8,0:0:0:0:
135,117,26816,1,0,0:0:0:0:
347,79,27149,6,0,P|341:109|342:197,1,60,2|0,0:0|0:0,0:0:0:0:
339,259,27483,1,0,0:0:0:0:
339,259,27816,2,0,P|313:242|280:238,1,60,8|0,0:0|0:0,0:0:0:0:
228,343,28149,2,0,P|257:337|282:321,1,60,2|0,0:0|0:0,0:0:0:0:
220,162,28483,2,0,P|188:215|197:286,2,120,0|0|8,0:0|0:0|0:0,0:0:0:0:
368,350,29483,5,0,0:0:0:0:
368,350,29816,6,0,P|361:311|371:262,1,60,2|0,0:0|0:0,0:0:0:0:
375,169,30149,1,0,0:0:0:0:
375,169,30483,2,0,P|305:153|233:178,2,120,8|2|0,0:0|0:0|0:0,0:0:0:0:
472,237,31316,1,0,0:0:0:0:
370,290,31483,2,0,P|344:283|276:281,1,60,0|0,0:0|0:0,0:0:0:0:
209,349,31816,2,0,P|154:364|89:360,1,120,8|0,0:0|0:0,0:0:0:0:
24,150,32483,6,0,P|53:135|80:130,1,60,2|0,0:0|0:0,0:0:0:0:
169,142,32816,1,0,0:0:0:0:
169,142,33149,2,0,P|173:170|172:231,1,60,8|0,0:0|0:0,0:0:0:0:
78,190,33483,2,0,P|82:151|80:130,1,60,2|0,0:0|0:0,0:0:0:0:
31,54,33816,1,0,0:0:0:0:
113,18,33982,1,0,0:0:0:0:
197,50,34149,2,0,P|246:49|284:29,1,60,0|0,0:0|0:0,0:0:0:0:
334,0,34483,1,8,0:0:0:0:
455,130,34816,5,0,0:0:0:0:
455,130,35149,6,0,P|484:167|483:205,1,60,2|0,0:0|0:0,0:0:0:0:
373,243,35483,2,0,P|382:214|404:194,1,60,0|0,0:0|0:0,0:0:0:0:
512,264,35816,2,0,P|481:267|446:261,1,60,8|0,0:0|0:0,0:0:0:0:
366,337,36149,2,0,P|401:334|425:339,1,60,2|0,0:0|0:0,0:0:0:0:
266,361,36483,1,0,0:0:0:0:
202,281,36649,1,0,0:0:0:0:
118,340,36816,2,0,P|113:307|112:251,1,60,0|0,0:0|0:0,0:0:0:0:
106,178,37149,1,8,0:0:0:0:
266,361,37483,5,0,0:0:0:0:
266,361,37816,6,0,P|272:322|272:243,1,60,2|0,0:0|0:0,0:0:0:0:
350,238,38149,2,0,P|349:208|353:178,1,60,0|0,0:0|0:0,0:0:0:0:
340,76,38483,2,0,P|293:112|234:113,1,120,8|2,0:0|0:0,0:0:0:0:
422,13,39149,2,0,P|441:57|430:91,1,60,0|0,0:0|0:0,0:0:0:0:
375,163,39483,1,0,0:0:0:0:
198,19,39816,5,8,0:0:0:0:
198,19,40483,6,0,P|193:60|194:123,1,60,2|0,0:0|0:0,0:0:0:0:
122,163,40816,2,0,P|132:227|126:282,2,120,0|8|2,0:0|0:0|0:0,0:0:0:0:
216,331,41816,2,0,P|268:346|303:336,1,60,0|0,0:0|0:0,0:0:0:0:
376,266,42149,2,0,P|308:241|247:282,2,120,0|8|0,0:0|0:0|0:0,0:0:0:0:
376,266,43149,5,2,0:0:0:0:
440,197,43316,1,0,0:0:0:0:
381,115,43483,2,0,P|343:112|284:118,1,60,0|0,0:0|0:0,0:0:0:0:
246,28,43816,2,0,P|329:30|372:24,2,120,8|2|0,0:0|0:0|0:0,0:0:0:0:
141,75,44649,1,0,0:0:0:0:
64,160,44816,2,0,P|64:189|69:219,1,60,0|0,0:0|0:0,0:0:0:0:
160,288,45149,1,8,0:0:0:0:
359,239,45483,5,0,0:0:0:0:
359,239,45816,6,0,P|362:202|362:135,1,60,2|0,0:0|0:0,0:0:0:0:
446,254,46149,2,0,P|441:221|449:150,1,60,0|0,0:0|0:0,0:0:0:0:
384,323,46483,2,0,P|319:337|244:307,1,120,8|2,0:0|0:0,0:0:0:0:
175,267,46983,1,0,0:0:0:0:
128,160,47149,6,0,P|124:130|129:100,1,60,0|0,0:0|0:0,0:0:0:0:
256,32,47483,2,0,P|259:61|256:91,1,60,0|0,0:0|0:0,0:0:0:0:
221,188,47816,1,8,0:0:0:0:
20,333,48483,6,0,P|19:300|24:273,1,60,2|0,0:0|0:0,0:0:0:0:
121,212,48816,2,0,P|123:243|116:271,1,60,0|0,0:0|0:0,0:0:0:0:
33,193,49149,2,0,P|81:134|159:133,2,120,8|0|0,0:0|0:0|0:0,0:0:0:0:
116,271,49983,1,0,0:0:0:0:
257,193,50149,2,0,P|212:199|166:196,1,60,0|0,0:0|0:0,0:0:0:0:
311,284,50483,1,8,0:0:0:0:
413,18,51149,6,0,P|386:61|393:106,1,60,2|0,0:0|0:0,0:0:0:0:
473,152,51483,2,0,P|468:121|471:92,1,60,0|0,0:0|0:0,0:0:0:0:
374,162,51816,2,0,P|379:188|375:221,1,60,8|0,0:0|0:0,0:0:0:0:
465,301,52149,2,0,P|459:270|463:241,1,60,0|0,0:0|0:0,0:0:0:0:
372,321,52483,1,0,0:0:0:0:
372,321,52649,1,0,0:0:0:0:
278,273,52816,2,0,P|243:279|191:276,1,60,0|0,0:0|0:0,0:0:0:0:
375,221,53149,1,8,0:0:0:0:
100,133,53816,6,0,P|130:137|159:130,1,60,2|0,0:0|0:0,0:0:0:0:
245,73,54149,1,0,0:0:0:0:
343,123,54316,1,0,0:0:0:0:
483,70,54483,2,0,P|441:114|418:216,1,120,8|0,0:0|0:0,0:0:0:0:
459,271,54983,1,0,0:0:0:0:
361,240,55149,1,0,0:0:0:0:
323,330,55316,1,0,0:0:0:0:
259,236,55483,2,0,P|250:206|247:155,1,60,0|0,0:0|0:0,0:0:0:0:
197,299,55816,2,0,P|139:273|40:289,1,120,8|0,0:0|0:0,0:0:0:0:
105,53,56483,6,0,P|157:78|186:76,1,60,2|0,0:0|0:0,0:0:0:0:
230,134,56816,2,0,P|268:103|319:93,1,60,0|0,0:0|0:0,0:0:0:0:
375,33,57149,2,0,P|361:96|369:208,2,120,8|0|0,0:0|0:0|0:0,0:0:0:0:
472,0,57983,1,0,0:0:0:0:
449,115,58149,2,0,P|446:160|451:200,1,60,0|0,0:0|0:0,0:0:0:0:
512,287,58483,2,0,P|452:256|335:287,1,180,8|0,0:0|0:0,0:0:0:0:
226,278,59149,6,0,B|241:340|172:373|91:320|187:184,1,240,2|0,0:3|0:3,0:3:0:0:
288,128,60149,2,0,P|192:160|64:96,2,240,2|2|2,0:3|0:3|0:3,0:3:0:0:
384,64,61816,6,0,P|384:128|398:196,1,120,2|0,0:3|0:3,0:3:0:0:
480,288,62483,1,0,0:3:0:0:
357,291,62816,2,0,B|294:275|244:316|244:316|195:357|132:342,2,240,2|2|2,0:3|0:3|0:3,0:3:0:0:
263,198,64483,6,0,P|208:219|139:210,1,120,2|0,0:3|0:3,0:3:0:0:
53,148,65149,1,0,0:3:0:0:
195,26,65483,2,0,P|243:76|130:75,2,240,2|2|0,0:3|0:3|0:3,0:3:0:0:
358,65,67149,6,0,P|284:109|245:254,1,240,2|2,0:3|0:3,0:3:0:0:
393,300,68149,2,0,B|345:287|307:318|307:318|270:350|222:338,2,180,2|2|8,0:3|0:3|0:3,0:3:0:0:
356,62,69816,5,2,0:0:0:0:
356,62,69983,1,0,0:0:0:0:
417,135,70149,2,0,P|386:195|386:226,1,60,0|0,0:0|0:0,0:0:0:0:
294,237,70483,2,0,P|349:269|385:355,1,120,8|2,0:0|0:0,0:0:0:0:
279,371,70983,1,0,0:0:0:0:
211,221,71149,2,0,P|235:180|288:161,1,60,0|0,0:0|0:0,0:0:0:0:
133,271,71483,2,0,P|109:230|56:211,1,60,0|0,0:0|0:0,0:0:0:0:
163,143,71816,2,0,P|199:112|255:112,1,60,8|0,0:0|0:0,0:0:0:0:
56,299,72149,2,0,P|19:268|-36:268,1,60,0|0,0:0|0:0,0:0:0:0:
33,126,72483,5,2,0:0:0:0:
33,126,72649,1,0,0:0:0:0:
75,44,72816,2,0,P|111:60|163:60,1,60
300,27,73149,2,0,P|237:49|217:104,1,120,8|2,0:0|0:0,0:0:0:0:
300,175,73649,1,0,0:0:0:0:
414,110,73816,2,0,P|391:166|391:240,2,120,0|0|8,0:0|0:0|0:0,0:0:0:0:
480,288,74816,1,0,0:0:0:0:
310,338,75149,6,0,P|314:287|304:250,1,60,2|0,0:0|0:0,0:0:0:0:
388,224,75483,2,0,P|384:173|394:136,1,60,0|0,0:0|0:0,0:0:0:0:
375,50,75816,2,0,P|302:88|226:97,1,120,8|2,0:0|0:0,0:0:0:0:
170,51,76316,1,0,0:0:0:0:
114,126,76483,2,0,P|119:169|115:209,1,60,0|0,0:0|0:0,0:0:0:0:
85,288,76816,2,0,P|158:262|211:275,2,120,0|8|0,0:0|0:0|0:0,0:0:0:0:
281,342,77816,6,0,P|288:309|314:266,1,60,2|0,0:0|0:0,0:0:0:0:
235,154,78149,2,0,P|260:176|284:220,1,60,0|0,0:0|0:0,0:0:0:0:
402,277,78483,2,0,P|380:212|417:148,1,120,8|2,0:0|0:0,0:0:0:0:
485,102,78983,1,0,0:0:0:0:
390,49,79149,2,0,P|362:66|297:55,1,60,0|0,0:0|0:0,0:0:0:0:
225,68,79483,2,0,P|141:52|105:60,2,120,0|8|0,0:0|0:0|0:0,0:0:0:0:
68,184,80483,6,0,P|54:224|53:281,1,60,2|0,0:0|0:0,0:0:0:0:
152,353,80816,2,0,P|146:323|135:295,1,60,0|0,0:0|0:0,0:0:0:0:
72,178,81149,2,0,P|143:191|226:174,1,120,8|2,0:0|0:0,0:0:0:0:
256,124,81649,1,0,0:0:0:0:
365,202,81816,2,0,P|358:165|362:118,1,60,0|0,0:0|0:0,0:0:0:0:
289,280,82149,2,0,P|317:304|334:349,1,60,0|0,0:0|0:0,0:0:0:0:
453,175,82483,2,0,P|462:137|482:114,1,60,8|0,0:0|0:0,0:0:0:0:
420,292,82816,2,0,P|426:328|410:373,1,60,0|0,0:0|0:0,0:0:0:0:
512,263,83149,5,2,0:0:0:0:
512,263,83316,1,0,0:0:0:0:
365,202,83483,2,0,P|313:218|262:211,1,60,0|0,0:0|0:0,0:0:0:0:
159,146,83816,2,0,P|218:118|299:118,1,120,8|2,0:0|0:0,0:0:0:0:
392,93,84316,1,0,0:0:0:0:
307,17,84483,2,0,P|244:24|210:21,1,60,0|0,0:0|0:0,0:0:0:0:
99,0,84816,2,0,P|168:83|157:152,1,180,0|0,0:0|0:0,0:0:0:0:
84,235,85483,2,0,P|66:289|74:324,1,60,0|0,0:0|0:0,0:0:0:0:
163,353,85816,5,2,0:0:0:0:
163,353,85983,1,0,0:0:0:0:
200,271,86149,2,0,P|229:271|259:275,1,60,0|0,0:0|0:0,0:0:0:0:
342,324,86483,2,0,P|407:312|485:327,1,120,8|2,0:0|0:0,0:0:0:0:
508,226,86983,1,0,0:0:0:0:
421,150,87149,2,0,P|371:160|344:160,1,60,0|0,0:0|0:0,0:0:0:0:
258,107,87483,2,0,P|251:41|147:6,1,180,0|0,0:0|0:0,0:0:0:0:
127,112,88149,2,0,P|177:79|191:33,1,60,0|0,0:0|0:0,0:0:0:0:
31,77,88483,6,0,P|35:102|28:147,1,60,2|0,0:0|0:0,0:0:0:0:
75,209,88816,2,0,P|71:234|78:279,1,60,0|0,0:0|0:0,0:0:0:0:
90,371,89149,2,0,P|145:334|232:330,1,120,8|2,0:0|0:0,0:0:0:0:
280,263,89649,1,0,0:0:0:0:
375,324,89816,2,0,P|363:366|375:413,1,60,0|0,0:0|0:0,0:0:0:0:
441,234,90149,2,0,P|358:216|260:301,1,180,0|0,0:0|0:0,0:0:0:0:
197,325,90816,2,0,L|191:196,1,120,0|2,0:3|0:3,0:3:0:0:
71,67,91483,6,0,L|153:70,1,45.0000017166138,0|0,0:3|0:3,0:3:0:0:
199,114,91816,2,0,L|329:108,1,90.0000034332277,0|2,0:3|0:3,0:3:0:0:
418,68,92316,2,0,B|384:110|384:110|391:207,1,135.000005149841,0|0,0:3|0:3,0:3:0:0:
336,355,93149,2,0,B|389:350|389:350|443:381,2,90.0000034332277,0|0|0,0:3|0:3|0:3,0:3:0:0:
259,308,93983,5,0,0:3:0:0:
259,308,94149,2,0,L|134:303,2,90.0000034332277,2|0|2,0:3|0:3|0:3,0:3:0:0:
329,375,94983,2,0,B|356:326|356:326|339:224,1,135.000005149841,0|0,0:3|0:3,0:3:0:0:
305,31,95816,2,0,B|170:39|170:39,1,135.000005149841,8|0,0:3|0:3,0:3:0:0:
76,121,96483,6,0,B|116:77|116:77|270:67,1,180,2|0,0:0|0:0,0:0:0:0:
357,91,97149,2,0,B|346:120|346:120|353:228,1,120,8|2,0:0|0:0,0:0:0:0:
403,310,97649,2,0,L|272:296,1,120,0|0,0:0|0:0,0:0:0:0:
146,235,98149,2,0,B|195:204|195:204|273:219,2,120,0|8|0,0:0|0:0|0:0,0:0:0:0:
49,88,99149,6,0,B|79:119|79:119|219:100,1,180,2|0,0:0|0:0,0:0:0:0:
310,64,99816,2,0,B|450:83,1,120,8|2,0:0|0:0,0:0:0:0:
392,195,100316,2,0,B|350:167|350:167|178:189,1,180,0|0,0:0|0:0,0:0:0:0:
307,267,101149,1,0,0:0:0:0:
42,285,101816,6,0,B|9:306|9:306|170:321,1,180,2|0,0:0|0:0,0:0:0:0:
231,230,102483,2,0,L|137:234,1,60,8|0,0:0|0:0,0:0:0:0:
254,318,102816,1,2,0:0:0:0:
346,251,102983,1,0,0:0:0:0:
415,338,103149,2,0,B|451:317|451:317|474:209,2,120,0|0|8,0:0|0:0|0:0,0:0:0:0:
324,61,104483,6,0,B|350:43|350:43|435:35,1,60,2|0,0:0|0:0,0:0:0:0:
252,139,104816,2,0,B|223:136|223:136|197:118,1,60,0|0,0:0|0:0,0:0:0:0:
351,151,105149,1,8,0:0:0:0:
321,250,105316,1,0,0:0:0:0:
218,221,105483,2,0,L|147:199,1,60,2|0,0:0|0:0,0:0:0:0:
43,274,105816,2,0,B|71:299|71:299|189:291,2,120,0|0|8,0:0|0:0|0:0,0:0:0:0:
254,318,107149,6,0,L|313:320,1,60,2|0,0:0|0:0,0:0:0:0:
402,234,107483,2,0,L|342:231,1,60,0|0,0:0|0:0,0:0:0:0:
453,318,107816,2,0,B|483:296|483:296|492:178,1,120,8|2,0:0|0:0,0:0:0:0:
497,109,108316,1,0,0:0:0:0:
412,32,108483,2,0,B|394:58|394:58|383:105,1,60,0|0,0:0|0:0,0:0:0:0:
311,163,108816,2,0,B|293:137|293:137|282:90,1,60,0|0,0:0|0:0,0:0:0:0:
405,189,109149,2,0,B|352:249|352:249|251:246,1,180,8|0,0:0|0:0,0:0:0:0:
161,178,109816,6,0,L|150:277,1,60,2|0,0:0|0:0,0:0:0:0:
28,220,110149,2,0,L|34:279,1,60,0|0,0:0|0:0,0:0:0:0:
132,356,110483,1,8,0:0:0:0:
232,345,110649,1,0,0:0:0:0:
321,333,110816,2,0,L|328:244,1,60,2|0,0:0|0:0,0:0:0:0:
241,135,111149,2,0,B|279:169|279:169|380:172,1,120,0|0,0:0|0:0,0:0:0:0:
497,124,111816,2,0,B|459:90|459:90|358:87,2,120,8|0|2,0:0|0:0|0:0,0:0:0:0:
402,256,112816,5,0,0:0:0:0:
322,321,112983,1,0,0:0:0:0:
225,329,113149,2,0,L|216:214,1,60,8|0,0:0|0:0,0:0:0:0:
121,204,113483,2,0,L|125:263,1,60,0|0,0:0|0:0,0:0:0:0:
228,150,113816,2,0,B|151:118|151:118|77:123|77:123|5:165,2,240,0|8|0,0:0|0:0|0:0,0:0:0:0:
384,256,115483,5,0,0:0:0:0:
407,159,115649,1,0,0:0:0:0:
499,220,115816,2,0,L|489:328,1,60,8|0,0:0|0:0,0:0:0:0:
403,350,116149,2,0,L|295:340,1,60,0|0,0:0|0:0,0:0:0:0:
176,295,116483,2,0,B|263:288|263:288|319:255|319:255|406:249,2,240,0|8|2,0:0|0:0|0:3,0:0:0:0:
69,192,118149,5,0,0:3:0:0:
164,197,118316,1,0,0:3:0:0:
103,110,118483,2,0,L|43:106,1,60,0|0,0:3|0:3,0:3:0:0:
172,206,118816,2,0,L|267:211,1,60,0|0,0:3|0:3,0:3:0:0:
331,131,119149,2,0,B|267:99|267:99|281:276,2,240,0|0|2,0:3|0:3|0:3,0:3:0:0:
471,196,120816,5,0,0:3:0:0:
510,289,120983,1,0,0:3:0:0:
420,348,121149,2,0,L|327:340,1,60,0|0,0:3|0:3,0:3:0:0:
295,277,121483,2,0,L|200:273,1,60,0|0,0:3|0:3,0:3:0:0:
146,346,121816,2,0,L|142:205,1,120,0|0,0:3|0:3,0:3:0:0:
140,131,122483,1,8,0:3:0:0:
140,131,123149,5,2,0:0:0:0:
140,131,123316,1,0,0:0:0:0:
238,89,123483,2,0,L|235:148,1,60,0|0,0:0|0:0,0:0:0:0:
200,274,123816,2,0,B|235:238|235:238|361:240,1,120,8|2,0:0|0:0,0:0:0:0:
385,336,124316,1,0,0:0:0:0:
489,265,124483,2,0,L|480:168,1,60,0|0,0:0|0:0,0:0:0:0:
384,117,124816,2,0,L|389:176,1,60,0|0,0:0|0:0,0:0:0:0:
413,333,125149,2,0,L|404:236,1,60,8|0,0:0|0:0,0:0:0:0:
288,111,125482,2,0,L|293:170,1,60,0|0,0:0|0:0,0:0:0:0:
320,352,125816,5,2,0:0:0:0:
320,352,125983,1,0,0:0:0:0:
265,271,126149,2,0,L|182:275,1,60,0|0,0:0|0:0,0:0:0:0:
103,345,126483,2,0,B|124:311|124:311|109:204,1,120,8|2,0:0|0:0,0:0:0:0:
30,168,126983,1,0,0:0:0:0:
86,86,127149,2,0,L|197:90,1,60,0|0,0:0|0:0,0:0:0:0:
252,36,127483,2,0,B|225:66|225:66|259:237,1,180,0|0,0:0|0:0,0:0:0:0:
360,272,128149,2,0,B|341:180|341:180,1,60,0|0,0:0|0:0,0:0:0:0:
275,353,128483,5,2,0:0:0:0:
275,353,128649,1,0,0:0:0:0:
391,379,128816,2,0,L|490:374,1,60,0|0,0:0|0:0,0:0:0:0:
479,265,129149,2,0,L|359:271,1,120,8|2,0:0|0:0,0:0:0:0:
256,320,129649,1,0,0:0:0:0:
179,227,129816,2,0,L|187:127,1,60,0|0,0:0|0:0,0:0:0:0:
101,320,130149,2,0,B|74:232|74:232|98:121,1,180,0|0,0:0|0:0,0:0:0:0:
185,39,130816,2,0,L|102:44,1,60,0|0,0:0|0:0,0:0:0:0:
260,113,131149,5,2,0:0:0:0:
260,113,131316,1,0,0:0:0:0:
355,37,131483,2,0,L|443:46,1,60,0|0,0:0|0:0,0:0:0:0:
477,164,131816,2,0,B|425:142|425:142|335:154,1,120,8|2,0:0|0:0,0:0:0:0:
304,260,132316,1,0,0:0:0:0:
410,336,132483,2,0,L|418:229,1,60,0|0,0:0|0:0,0:0:0:0:
311,367,132816,2,0,B|268:350|268:350|149:355,2,120,0|8|0,0:0|0:0|0:0,0:0:0:0:
96,320,133816,5,2,0:0:0:0:
96,320,133983,1,0,0:0:0:0:
0,224,134149,2,0,L|7:283,1,60,0|0,0:0|0:0,0:0:0:0:
153,160,134483,2,0,L|9:130,1,120,8|2,0:0|0:0,0:0:0:0:
172,71,134983,1,0,0:0:0:0:
255,164,135149,2,0,L|246:251,1,60,0|0,0:0|0:0,0:0:0:0:
360,91,135483,2,0,L|369:178,1,60,0|0,0:0|0:0,0:0:0:0:
320,288,135816,2,0,L|329:375,1,60,8|0,0:0|0:0,0:0:0:0:
449,159,136149,2,0,L|440:246,1,60,0|0,0:0|0:0,0:0:0:0:
464,350,136483,5,2,0:0:0:0:
464,350,136649,1,0,0:0:0:0:
379,291,136816,2,0,L|285:286,1,60,0|0,0:0|0:0,0:0:0:0:
174,341,137149,2,0,B|223:322|223:322|237:255,1,120,8|2,0:0|0:0,0:0:0:0:
112,237,137649,1,0,0:0:0:0:
24,329,137816,2,0,L|89:348,1,60,0|0,0:0|0:0,0:0:0:0:
223,322,138149,2,0,B|266:116,1,180,0|0,0:0|0:0,0:0:0:0:
383,58,138816,2,0,L|288:68,1,60,0|0,0:0|0:0,0:0:0:0:
192,32,139149,5,2,0:0:0:0:
192,32,139316,1,0,0:0:0:0:
91,120,139483,2,0,B|111:147|111:147|109:205,1,60,0|0,0:0|0:0,0:0:0:0:
0,164,139816,2,0,B|-1:102|-1:102|48:9,1,120,8|2,0:0|0:0,0:0:0:0:
161,16,140316,1,0,0:0:0:0:
210,125,140483,2,0,L|194:213,1,60,0|0,0:0|0:0,0:0:0:0:
112,292,140816,2,0,B|150:267|150:267|305:279,1,180,0|0,0:0|0:0,0:0:0:0:
392,370,141483,2,0,L|366:277,1,60,0|0,0:0|0:0,0:0:0:0:
320,192,141816,5,2,0:0:0:0:
320,192,141983,1,0,0:0:0:0:
416,160,142149,1,0,0:0:0:0:
416,160,142316,1,0,0:0:0:0:
288,96,142483,1,8,0:0:0:0:
482,71,142816,6,0,B|415:90|347:55|347:55|302:76|302:76|224:44|130:71,1,360,2|8,0:0|0:0,0:0:0:0:
64,160,144149,2,0,L|71:238,2,60,0|0|2,0:0|0:0|0:0,0:0:0:0:
256,192,144816,12,0,154149,0:0:0:0:
