osu file format v14

[General]
AudioFilename: audio.mp3
AudioLeadIn: 0
PreviewTime: 69726
Countdown: 0
SampleSet: None
StackLeniency: 0.3
Mode: 0
LetterboxInBreaks: 0
WidescreenStoryboard: 1

[Editor]
DistanceSpacing: 0.9
BeatDivisor: 4
GridSize: 4
TimelineZoom: 1

[Metadata]
Title:Sunflower
TitleUnicode:Sunflower
Artist:Post Malone, Swae Lee
ArtistUnicode:Post Malone, Swae Lee
Creator:Tatan
Version:Advanced
Source:Spider-Man: Into the Spider-Verse
Tags:english pop rap hip-hop hiphop r&b rae sremmurd trap ballad carter lang louis bell spiderman spider man spiderverse marvel super hero superhero single soundtrack ost miles morales
BeatmapID:2050721
BeatmapSetID:895391

[Difficulty]
HPDrainRate:5
CircleSize:3.5
OverallDifficulty:5
ApproachRate:6.5
SliderMultiplier:2.2
SliderTickRate:1

[Events]
//Background and Video events
0,0,"cropped-1920-1200-977085.jpg",0,0
Video,0,"video.mp4"
//Break Periods
//Storyboard Layer 0 (Background)
//Storyboard Layer 1 (Fail)
//Storyboard Layer 2 (Pass)
//Storyboard Layer 3 (Foreground)
//Storyboard Sound Samples

[TimingPoints]
483,666.666666666667,4,3,1,30,1,0
48483,-100,4,3,1,40,0,0
59149,-100,4,2,1,30,0,0
69149,-100,4,3,1,60,0,0
69816,-100,4,3,1,60,0,1
91149,-100,4,3,1,30,0,0
91482,-100,4,2,1,30,0,0
96483,-100,4,3,1,50,0,0
112483,-100,4,3,1,30,0,0
117816,-100,4,2,1,30,0,0
122483,-100,4,3,1,60,0,0
123149,-100,4,3,1,60,0,1
144066,-100,4,3,1,60,0,1
144149,-100,4,3,1,60,0,0
154149,-100,4,3,1,5,0,0

[Colours]
Combo1 : 192,192,192
Combo2 : 206,0,0
Combo3 : 128,0,0
Combo4 : 128,128,128

[HitObjects]
352,175,483,6,0,L|406:178,2,55,2|0|0,0:0|0:0|0:0,0:0:0:0:
311,146,983,1,0,0:0:0:0:
271,116,1149,2,0,L|142:122,1,110,8|2,0:0|0:0,0:0:0:0:
73,166,1816,2,0,P|75:111|51:62,2,110,0|0|8,0:0|0:0|0:0,0:0:0:0:
4,238,2816,1,0,0:0:0:0:
61,318,3149,6,0,L|4:320,2,55,2|0|0,0:0|0:0|0:0,0:0:0:0:
106,337,3649,1,0,0:0:0:0:
150,358,3816,2,0,L|280:362,1,110,8|2,0:0|0:0,0:0:0:0:
358,371,4483,2,0,B|386:318|358:265|358:265|332:212|358:159,1,220,0|8,0:0|0:0,0:3:0:0:
357,159,5816,6,0,L|264:154,1,55,2|0,0:0|0:0,0:0:0:0:
259,129,6149,2,0,L|204:131,1,55,0|0,0:0|0:0,0:0:0:0:
154,138,6483,1,8,0:0:0:0:
101,221,6816,1,2,0:0:0:0:
172,288,7149,2,0,L|337:281,2,165
100,225,8483,6,0,L|105:102,1,110,2|0,0:0|0:0,0:0:0:0:
112,16,9149,1,8,0:0:0:0:
200,60,9483,1,2,0:0:0:0:
278,0,9816,2,0,P|337:25|344:139,1,165,0|0,0:0|0:0,0:0:0:0:
308,129,10483,2,0,P|264:168|282:270,1,165,8|0,0:0|0:0,0:0:0:0:
314,298,11149,6,0,L|385:295,1,55,2|0,0:0|0:0,0:0:0:0:
413,318,11483,2,0,L|467:320,1,55,0|0,0:0|0:0,0:0:0:0:
511,297,11816,1,8,0:0:0:0:
462,210,12149,1,2,0:0:0:0:
500,118,12483,2,0,P|436:113|366:187,2,165,0|0|0,0:0|0:0|0:0,0:0:0:0:
461,26,13816,6,0,L|328:20,1,110,2|0,0:0|0:0,0:0:0:0:
301,15,14316,1,0,0:0:0:0:
301,15,14483,1,8,0:0:0:0:
222,75,14816,2,0,L|225:185,2,110,2|0|0,0:0|0:0|0:0,0:0:0:0:
128,40,15816,2,0,P|81:80|87:194,1,165,8|0,0:0|0:0,0:0:0:0:
106,217,16483,6,0,L|181:219,1,55,2|0,0:0|0:0,0:0:0:0:
206,198,16816,2,0,L|281:196,1,55,0|0,0:0|0:0,0:0:0:0:
310,195,17149,1,8,0:0:0:0:
345,287,17483,1,2,0:0:0:0:
437,251,17816,2,0,L|432:77,2,165
412,346,19149,6,0,P|364:378|304:371,1,110,2|0,0:0|0:0,0:0:0:0:
238,310,19816,1,8,0:0:0:0:
155,364,20149,1,2,0:0:0:0:
78,301,20483,2,0,P|101:227|47:148,1,165,0|0,0:0|0:0,0:0:0:0:
9,153,21149,2,0,P|-14:74|73:8,1,165,8|0,0:0|0:0,0:0:0:0:
78,38,21816,6,0,L|156:40,1,55,2|0,0:0|0:0,0:0:0:0:
182,42,22149,2,0,L|260:44,1,55,0|0,0:0|0:0,0:0:0:0:
286,46,22483,1,8,0:0:0:0:
250,138,22816,1,2,0:0:0:0:
339,179,23149,2,0,P|390:142|503:151,2,165,0|0|0,0:0|0:0|0:0,0:0:0:0:
339,277,24483,6,0,L|211:283,1,110,2|0,0:0|0:0,0:0:0:0:
135,311,25149,1,8,0:0:0:0:
53,255,25483,2,0,P|126:214|231:288,1,220,2|0,0:0|0:0,0:0:0:0:
286,369,26483,2,0,P|317:294|360:264,1,110,8|0,0:0|0:0,0:0:0:0:
435,257,27149,6,0,L|438:191,1,55,2|0,0:0|0:0,0:0:0:0:
440,152,27483,1,0,0:0:0:0:
351,107,27816,2,0,P|396:62|460:56,2,110,8|2|0,0:0|0:0|0:0,0:0:0:0:
306,195,28816,1,0,0:0:0:0:
232,128,29149,2,0,L|104:120,1,110,8|0,0:0|0:0,0:0:0:0:
35,72,29816,5,2,0:0:0:0:
20,119,29983,1,0,0:0:0:0:
32,166,30149,2,0,P|57:222|27:292,1,110,0|8,0:0|0:0,0:0:0:0:
0,355,30816,2,0,L|113:352,1,110,2|0,0:0|0:0,0:0:0:0:
159,348,31316,1,0,0:0:0:0:
159,348,31483,1,0,0:0:0:0:
229,278,31816,2,0,P|257:215|236:124,1,165,8|0,0:0|0:0,0:0:0:0:
194,97,32483,6,0,P|194:38|231:4,1,110,2|0,0:0|0:0,0:0:0:0:
310,61,33149,1,8,0:0:0:0:
399,18,33483,1,2,0:0:0:0:
471,84,33816,1,0,0:0:0:0:
467,133,33983,1,0,0:0:0:0:
463,182,34149,2,0,L|456:312,2,110,0|8|0,0:0|0:0|0:0,0:0:0:0:
362,225,35149,6,0,P|304:256|239:238,1,110,2|0,0:0|0:0,0:0:0:0:
177,198,35816,1,8,0:0:0:0:
231,115,36149,1,2,0:0:0:0:
148,60,36483,1,0,0:0:0:0:
100,45,36649,1,0,0:0:0:0:
53,62,36816,2,0,P|26:117|42:187,1,110,0|8,0:0|0:0,0:0:0:0:
90,248,37483,1,0,0:0:0:0:
177,198,37816,6,0,L|253:202,1,55,2|0,0:0|0:0,0:0:0:0:
281,203,38149,1,0,0:0:0:0:
325,291,38483,1,8,0:0:0:0:
403,231,38816,1,2,0:0:0:0:
447,319,39150,1,0,0:0:0:0:
489,293,39316,1,0,0:0:0:0:
508,247,39483,2,0,L|505:122,1,110,0|8,0:0|0:0,0:0:0:0:
471,43,40149,6,0,P|397:81|325:59,1,110,0|2,0:0|0:0,0:0:0:0:
327,58,40649,1,0,0:0:0:0:
327,58,40816,1,0,0:0:0:0:
245,113,41149,2,0,L|238:236,1,110,8|2,0:0|0:0,0:0:0:0:
153,272,41816,1,0,0:0:0:0:
105,285,41983,1,0,0:0:0:0:
58,268,42149,2,0,L|53:134,2,110,0|8|0,0:0|0:0|0:0,0:0:0:0:
61,367,43149,6,0,P|114:375|165:356,1,110,2|0,0:0|0:0,0:0:0:0:
236,287,43816,1,8,0:0:0:0:
313,348,44149,1,2,0:0:0:0:
396,294,44483,1,0,0:0:0:0:
392,245,44649,1,0,0:0:0:0:
390,194,44816,2,0,L|382:76,2,110,0|8|0,0:0|0:0|0:0,0:0:0:0:
300,151,45816,6,0,L|145:142,1,110,2|0,0:0|0:0,0:0:0:0:
91,136,46483,1,8,0:0:0:0:
35,217,46816,1,2,0:0:0:0:
94,296,47149,1,0,0:0:0:0:
141,310,47316,1,0,0:0:0:0:
189,298,47483,2,0,P|208:231|194:182,2,110,0|8|0,0:0|0:0|0:0,0:0:0:0:
243,381,48483,6,0,L|363:376,1,110,2|0,0:0|0:0,0:0:0:0:
451,364,49149,1,8,0:0:0:0:
385,289,49483,1,0,0:0:0:0:
450,214,49816,2,0,L|453:145,1,55
455,109,50149,2,0,L|322:114,2,110,0|8|0,0:0|0:0|0:0,0:0:0:0:
508,27,51149,6,0,L|375:32,1,110,2|0,0:0|0:0,0:0:0:0:
298,35,51816,1,8,0:0:0:0:
217,91,52149,1,0,0:0:0:0:
140,27,52483,2,0,P|112:48|94:83,1,55
85,111,52816,2,0,L|93:226,2,110,0|8|0,0:0|0:0|0:0,0:0:0:0:
181,111,53816,5,2,0:0:0:0:
208,206,54149,1,0,0:0:0:0:
151,287,54483,2,0,P|95:307|18:273,2,110,8|0|0,0:0|0:0|0:0,0:0:0:0:
247,311,55483,1,0,0:0:0:0:
306,232,55816,2,0,P|359:221|409:241,1,110,8|0,0:0|0:0,0:0:0:0:
443,277,56316,1,0,0:0:0:0:
443,277,56483,6,0,L|446:144,1,110,2|0,0:0|0:0,0:0:0:0:
452,68,57149,1,8,0:0:0:0:
368,121,57483,1,0,0:0:0:0:
294,55,57816,2,0,P|256:41|175:67,1,110,0|0,0:0|0:0,0:0:0:0:
147,81,58316,1,0,0:0:0:0:
147,81,58483,2,0,P|81:97|25:66,1,110,8|0,0:0|0:0,0:0:0:0:
2,172,59149,6,0,P|59:251|29:348,1,165,2|0,0:3|0:0,0:0:0:0:
26,356,59816,1,0,0:0:0:0:
121,381,60149,2,0,L|297:372,1,165,2|0,0:3|0:0,0:0:0:0:
335,368,60816,1,2,0:0:0:0:
224,203,61483,5,0,0:0:0:0:
168,284,61816,2,0,P|226:301|299:267,2,110,2|0|0,0:3|0:0|0:0,0:0:0:0:
128,192,62816,2,0,P|214:106|315:176,1,220,2|2,0:3|0:0,0:0:0:0:
424,65,63983,6,0,L|427:-19,2,55,0|0|0,0:0|0:0|0:0,0:0:0:0:
387,98,64483,2,0,L|398:253,2,110,2|0|0,0:3|0:0|0:0,0:0:0:0:
315,29,65483,2,0,B|258:13|211:49|211:49|164:85|108:69,1,220,2|2,0:3|0:0,0:0:0:0:
33,197,66816,6,0,P|29:231|39:287,1,55,0|0,0:0|0:0,0:0:0:0:
58,292,67149,2,0,P|126:265|214:317,1,165,2|0,0:3|0:0,0:0:0:0:
226,347,67816,1,0,0:0:0:0:
316,307,68149,2,0,B|323:226|323:226|300:171|300:171|307:91,1,220,2|0,0:3|0:0,0:0:0:0:
375,19,69149,1,8,0:3:0:0:
454,200,69816,6,0,L|509:196,2,55,2|0|0,0:0|0:0|0:0,0:0:0:0:
421,237,70316,1,0,0:0:0:0:
389,274,70483,2,0,L|265:266,1,110,8|2,0:0|0:0,0:0:0:0:
232,249,70983,1,0,0:0:0:0:
186,232,71149,2,0,P|167:283|176:336,2,110,0|0|8,0:0|0:0|0:0,0:0:0:0:
268,176,72149,1,0,0:0:0:0:
213,93,72483,6,0,L|142:99,2,55,2|0|0,0:0|0:0|0:0,0:0:0:0:
250,60,72983,1,0,0:0:0:0:
292,34,73149,2,0,L|403:43,1,110,8|0,0:0|0:0,0:0:0:0:
499,56,73816,1,0,0:0:0:0:
486,154,74149,2,0,B|405:146|405:146|350:169|350:169|270:162,1,220,0|0,0:0|0:0,0:0:0:0:
207,86,75149,6,0,L|212:2,2,55,2|0|0,0:0|0:0|0:0,0:0:0:0:
170,119,75649,1,0,0:0:0:0:
136,155,75816,2,0,L|144:300,1,110,8|2,0:0|0:0,0:0:0:0:
147,314,76316,1,0,0:0:0:0:
151,363,76483,1,0,0:0:0:0:
228,301,76816,2,0,P|312:287|408:376,1,220,0|0,0:0|0:0,0:0:0:0:
496,329,77816,6,0,L|501:383,2,55,2|0|0,0:0|0:0|0:0,0:0:0:0:
476,283,78316,1,0,0:0:0:0:
464,234,78483,2,0,L|475:114,1,110,8|2,0:0|0:0,0:0:0:0:
459,76,78983,1,0,0:0:0:0:
435,33,79149,2,0,P|381:24|333:48,1,110,0|0,0:0|0:0,0:0:0:0:
279,132,79816,1,8,0:0:0:0:
203,67,80149,1,0,0:0:0:0:
128,132,80483,6,0,L|62:127,2,55,2|0|0,0:0|0:0|0:0,0:0:0:0:
165,164,80983,1,0,0:0:0:0:
200,198,81149,2,0,B|227:230|227:230|214:296,1,110,8|2,0:0|0:0,0:0:0:0:
164,300,81649,1,0,0:0:0:0:
114,304,81816,2,0,P|56:279|-5:289,2,110,0|0|8,0:0|0:0|0:0,0:0:0:0:
174,382,82816,1,0,0:0:0:0:
261,335,83149,6,0,L|258:268,2,55,2|0|0,0:0|0:0|0:0,0:0:0:0:
301,363,83649,1,0,0:0:0:0:
345,383,83816,2,0,L|457:372,1,110,8|2,0:0|0:0,0:0:0:0:
479,329,84316,1,0,0:0:0:0:
505,286,84483,1,0,0:0:0:0:
438,213,84816,2,0,B|381:197|334:233|334:233|287:269|231:253,1,220
155,182,85816,6,0,L|88:186,2,55,2|0|0,0:0|0:0|0:0,0:0:0:0:
189,145,86316,1,0,0:0:0:0:
224,110,86483,2,0,L|361:118,1,110,8|2,0:0|0:0,0:0:0:0:
383,122,86983,1,0,0:0:0:0:
383,122,87149,1,0,0:0:0:0:
457,56,87483,2,0,P|483:136|392:221,1,220,0|0,0:0|0:0,0:0:0:0:
302,181,88483,6,0,L|307:117,2,55,2|0|0,0:0|0:0|0:0,0:0:0:0:
275,223,88983,1,0,0:0:0:0:
252,266,89149,2,0,L|142:274,1,110,8|2,0:0|0:0,0:0:0:0:
43,282,89816,1,0,0:0:0:0:
86,193,90149,2,0,P|107:89|15:27,1,220,0|0,0:0|0:0,0:0:0:0:
15,126,91149,1,2,0:3:0:0:
86,193,91483,5,0,0:0:0:0:
174,149,91816,2,0,L|350:155,2,165,0|0|0,0:0|0:0|0:0,0:0:0:0:
118,66,93149,2,0,P|191:50|243:77,1,110,0|0,0:0|0:0,0:0:0:0:
291,131,93816,1,0,0:0:0:0:
370,71,94149,1,2,0:3:0:0:
445,135,94483,2,0,B|458:201|458:201|439:329,2,165,0|0|0,0:0|0:2|0:0,0:0:0:0:
473,40,95816,1,10,0:3:0:0:
315,159,96483,6,0,L|312:285,1,110,2|0,0:0|0:0,0:0:0:0:
309,367,97149,1,8,0:0:0:0:
215,333,97483,1,2,0:0:0:0:
215,333,97649,2,0,P|138:316|64:365,1,165,0|0,0:0|0:0,0:0:0:0:
5,282,98483,2,0,L|11:165,1,110,8|0,0:0|0:0,0:0:0:0:
19,73,99149,5,2,0:0:0:0:
101,128,99483,1,0,0:0:0:0:
160,49,99816,2,0,P|215:25|284:51,1,110,8|2,0:0|0:0,0:0:0:0:
288,77,100316,2,0,P|346:98|449:63,1,165,0|0,0:0|0:0,0:0:0:0:
512,0,101149,1,8,0:0:0:0:
434,182,101816,6,0,L|437:332,1,110,2|0,0:0|0:0,0:0:0:0:
435,341,102316,1,0,0:0:0:0:
435,341,102483,2,0,P|380:323|314:342,1,110,8|2,0:0|0:0,0:0:0:0:
239,373,103149,2,0,L|236:263,1,110,0|0,0:0|0:0,0:0:0:0:
149,216,103816,2,0,L|151:325,1,110,8|0,0:0|0:0,0:0:0:0:
64,374,104483,5,2,0:0:0:0:
32,336,104649,1,0,0:0:0:0:
8,292,104816,2,0,P|11:205|32:177,1,110,0|8,0:0|0:0,0:0:0:0:
100,125,105483,1,2,0:0:0:0:
73,83,105649,1,0,0:0:0:0:
50,39,105816,1,0,0:0:0:0:
141,2,106149,2,0,L|254:6,1,110,0|8,0:0|0:0,0:0:0:0:
349,11,106816,1,0,0:0:0:0:
418,81,107149,6,0,P|384:126|393:193,1,110,2|0,0:0|0:0,0:0:0:0:
409,220,107649,1,0,0:0:0:0:
444,257,107816,1,8,0:0:0:0:
369,322,108149,1,2,0:0:0:0:
319,326,108316,1,0,0:0:0:0:
269,330,108483,2,0,L|156:319,2,110,0|0|8,0:0|0:0|0:0,0:0:0:0:
91,243,109816,6,0,P|58:286|69:356,1,110,2|0,0:0|0:0,0:0:0:0:
105,360,110316,1,0,0:0:0:0:
105,360,110483,1,8,0:0:0:0:
188,306,110816,2,0,L|186:180,1,110,2|0,0:0|0:0,0:0:0:0:
184,96,111483,1,0,0:0:0:0:
279,121,111816,2,0,P|350:116|393:81,1,110,8|0,0:0|0:0,0:0:0:0:
444,18,112483,5,2,0:0:0:0:
508,92,112816,1,0,0:3:0:0:
506,141,112983,1,0,0:3:0:0:
504,190,113149,2,0,P|447:216|383:202,1,110,8|2,0:3|0:3,0:0:0:0:
325,148,113816,2,0,P|362:212|342:372,2,220,0|8|0,0:3|0:3|0:3,0:0:0:0:
227,164,115483,5,0,0:3:0:0:
235,115,115649,1,0,0:3:0:0:
243,65,115816,2,0,P|181:38|129:46,1,110,8|0,0:3|0:3,0:0:0:0:
55,94,116483,2,0,B|26:151|26:151|49:311,2,220,0|8|2,0:3|0:3|0:3,0:0:0:0:
152,107,118149,6,0,L|144:239,1,110,0|0,0:3|0:3,0:0:0:0:
195,302,118816,1,0,0:3:0:0:
282,256,119149,2,0,P|355:229|480:291,2,220,0|0|0,0:3|0:3|0:0,0:0:0:0:
241,165,120816,5,0,0:3:0:0:
308,96,121149,1,0,0:3:0:0:
363,178,121483,1,0,0:3:0:0:
430,109,121816,2,0,L|434:-16,2,110,0|0|8,0:3|0:3|0:3,0:0:0:0:
422,306,123149,6,0,L|493:301,2,55,2|0|0,0:0|0:0|0:0,0:0:0:0:
383,337,123649,1,0,0:0:0:0:
345,369,123816,2,0,L|199:365,1,110,8|2,0:0|0:0,0:0:0:0:
185,364,124316,1,0,0:0:0:0:
135,360,124483,2,0,P|119:303|135:254,1,110,0|0,0:0|0:0,0:0:0:0:
217,203,125149,1,8,0:0:0:0:
161,120,125483,1,0,0:0:0:0:
235,54,125816,6,0,L|236:-7,2,55,2|0|0,0:0|0:0|0:0,0:0:0:0:
265,92,126316,1,0,0:0:0:0:
295,130,126483,2,0,L|415:135,1,110,8|2,0:0|0:0,0:0:0:0:
454,136,126983,1,0,0:0:0:0:
503,138,127149,1,0,0:0:0:0:
445,219,127483,2,0,B|355:215|355:215|324:244|324:244|235:241,1,220,0|0,0:0|0:0,0:0:0:0:
137,230,128483,6,0,L|134:164,2,55,2|0|0,0:0|0:0|0:0,0:0:0:0:
115,274,128983,1,0,0:0:0:0:
91,316,129149,2,0,P|126:358|179:370,1,110,8|2,0:0|0:0,0:0:0:0:
219,343,129649,1,0,0:0:0:0:
245,300,129816,1,0,0:0:0:0:
321,362,130149,2,0,L|459:367,1,110,0|8,0:0|0:0,0:0:0:0:
501,297,130816,1,0,0:0:0:0:
434,223,131149,6,0,L|373:226,2,55,2|0|0,0:0|0:0|0:0,0:0:0:0:
468,186,131649,1,0,0:0:0:0:
500,148,131816,2,0,L|497:26,1,110,8|2,0:0|0:0,0:0:0:0:
450,21,132316,1,0,0:0:0:0:
403,14,132483,1,0,0:0:0:0:
304,21,132816,1,0,0:0:0:0:
240,96,133149,2,0,L|245:231,1,110,8|0,0:0|0:0,0:0:0:0:
258,304,133816,6,0,L|322:309,2,55,2|0|0,0:0|0:0|0:0,0:0:0:0:
217,332,134316,1,0,0:0:0:0:
180,365,134483,2,0,L|46:372,1,110,8|2,0:0|0:0,0:0:0:0:
39,331,134983,1,0,0:0:0:0:
13,288,135149,1,0,0:0:0:0:
56,199,135483,1,0,0:0:0:0:
4,113,135816,2,0,L|0:0,1,110,8|0,0:0|0:0,0:0:0:0:
99,5,136483,6,0,L|163:-1,2,55,2|0|0,0:0|0:0|0:0,0:0:0:0:
71,46,136983,1,0,0:0:0:0:
90,91,137149,2,0,P|142:130|219:117,1,110,8|2,0:0|0:0,0:0:0:0:
231,113,137649,1,0,0:0:0:0:
266,78,137816,1,0,0:0:0:0:
357,39,138149,2,0,B|382:91|355:143|355:143|327:196|353:249,1,220
423,321,139149,6,0,P|358:279|278:306,1,165,2|0,0:0|0:0,0:0:0:0:
244,339,139816,2,0,P|194:360|141:347,1,110,8|2,0:0|0:0,0:0:0:0:
102,317,140316,1,0,0:0:0:0:
102,317,140483,1,0,0:0:0:0:
51,232,140816,2,0,L|57:94,1,110,0|8,0:0|0:0,0:0:0:0:
100,33,141483,1,0,0:0:0:0:
175,96,141816,5,2,0:0:0:0:
222,114,141982,1,0,0:0:0:0:
271,114,142149,2,0,P|309:104|329:84,1,55
351,55,142483,2,0,P|394:39|469:56,1,110,8|2,0:0|0:0,0:0:0:0:
492,140,143149,1,0,0:0:0:0:
439,224,143483,2,0,L|223:230,1,165
224,229,144149,1,0,0:0:0:0:
256,192,144483,12,0,154149,0:0:0:0:
