osu file format v14

[General]
AudioFilename: audio.mp3
AudioLeadIn: 0
PreviewTime: 3550
Countdown: 0
SampleSet: Soft
StackLeniency: 0.7
Mode: 0
LetterboxInBreaks: 0
WidescreenStoryboard: 1

[Editor]
Bookmarks: 91101
DistanceSpacing: 1.7
BeatDivisor: 4
GridSize: 4
TimelineZoom: 1.4

[Metadata]
Title:Sunflower
TitleUnicode:Sunflower
Artist:Post Malone, Swae Lee
ArtistUnicode:Post Malone, Swae Lee
Creator:Sotarks
Version:Kowali's Hard
Source:Spider-Man: Into the Spider-Verse
Tags:Kowari [_Eli_] Elinor Myxomatosis Myxo english pop rap hip-hop hiphop r&b rae sremmurd trap ballad carter lang louis bell spiderman spider man spiderverse marvel super hero superhero single soundtrack ost miles morales
BeatmapID:2334033
BeatmapSetID:1114768

[Difficulty]
HPDrainRate:4.5
CircleSize:3.8
OverallDifficulty:6
ApproachRate:7.5
SliderMultiplier:2.4
SliderTickRate:1

[Events]
//Background and Video events
Video,-1480,"video.mp4"
0,0,"bg.jpg",0,0
//Break Periods
2,48250,57891
2,111916,121891
//Storyboard Layer 0 (Background)
//Storyboard Layer 1 (Fail)
//Storyboard Layer 2 (Pass)
//Storyboard Layer 3 (Foreground)
//Storyboard Layer 4 (Overlay)
//Storyboard Sound Samples

[TimingPoints]
50,666.666666666667,4,2,22,32,1,0
50,-125,4,2,22,32,0,0
5383,-111.111111111111,4,2,22,42,0,0
26050,-100,4,2,22,42,0,0
26716,-99.9999999999999,4,2,22,52,0,0
58716,-142.857142857143,4,2,22,32,0,0
68716,-111.111111111111,4,2,22,52,0,0
69383,-90.9090909090909,4,2,22,62,0,1
89383,-90.9090909090909,4,2,22,52,0,0
90716,-90.9090909090909,4,2,22,42,0,0
91050,-142.857142857143,4,2,22,42,0,0
95383,-111.111111111111,4,2,22,42,0,0
96050,-111.111111111111,4,2,22,52,0,0
97549,-111.111111111111,4,2,22,42,0,0
97716,-111.111111111111,4,2,22,52,0,0
100216,-111.111111111111,4,2,22,42,0,0
100383,-111.111111111111,4,2,22,52,0,0
101049,-111.111111111111,4,2,22,42,0,0
101383,-111.111111111111,4,2,22,52,0,0
101716,-111.111111111111,4,2,22,42,0,0
102050,-111.111111111111,4,2,22,52,0,0
103716,-111.111111111111,4,2,22,42,0,0
104050,-111.111111111111,4,2,22,52,0,0
106383,-111.111111111111,4,2,22,42,0,0
106716,-111.111111111111,4,2,22,52,0,0
109049,-111.111111111111,4,2,22,42,0,0
109383,-111.111111111111,4,2,22,52,0,0
122716,-90.9090909090909,4,2,22,62,0,1
144050,-90.9090909090909,4,2,22,62,0,0

[Colours]
Combo1 : 183,72,133
Combo2 : 159,95,167
Combo3 : 111,111,185
Combo4 : 136,237,255

[HitObjects]
34,249,50,6,0,L|47:309,3,48,0|0|0|0,1:2|3:2|3:2|3:2,0:2:0:0:
66,374,716,1,8,3:2:0:0:
129,241,1050,2,0,L|148:351,2,96,0|0|0,1:2|3:2|3:2,0:2:0:0:
113,165,1883,1,0,3:2:0:0:
113,165,2050,1,8,3:2:0:0:
230,87,2383,2,0,L|219:143,1,48,0|0,3:2|3:2,0:2:0:0:
273,207,2716,6,0,L|334:197,3,48,0|0|0|0,1:2|3:2|3:2|3:2,2:0:0:0:
398,185,3383,1,8,3:2:0:0:
273,294,3716,1,0,1:2:0:0:
273,294,4050,2,0,L|376:271,1,96,0|0,3:2|3:2,0:2:0:0:
487,244,4716,1,8,3:2:0:0:
436,30,5383,6,0,P|416:49|404:80,1,53.9999983520508,2|0,1:2|3:2,2:0:0:0:
326,60,5716,2,0,P|325:87|341:117,1,53.9999983520508,0|0,3:2|3:2,2:0:0:0:
257,138,6050,2,0,P|292:184|346:193,1,107.999996704102,8|2,3:2|1:2,2:0:0:0:
455,279,6716,6,0,B|424:271|424:271|353:312|353:312|284:288,1,161.999995056153,0|0,3:2|3:2,0:2:0:0:
240,262,7383,1,8,3:2:0:0:
188,364,7716,1,0,0:2:0:0:
188,364,7883,1,0,0:2:0:0:
132,296,8050,6,0,L|144:230,1,53.9999983520508,2|0,1:2|3:2,2:0:0:0:
205,196,8383,2,0,L|194:129,1,53.9999983520508,0|0,3:2|3:2,2:0:0:0:
125,108,8716,2,0,L|146:0,1,107.999996704102,8|2,3:2|1:2,2:0:0:0:
260,72,9383,6,0,B|324:74|288:30|377:37,1,107.999996704102,2|0,0:2|3:2,0:2:0:0:
478,105,10050,1,10,0:2:0:0:
478,105,10216,2,0,L|409:92,2,53.9999983520508,0|0|0,3:2|2:0|0:2,0:2:0:0:
492,196,10716,6,0,P|472:223|444:239,1,53.9999983520508,2|0,1:2|3:2,2:0:0:0:
486,308,11050,2,0,P|452:312|422:306,1,53.9999983520508,0|0,3:2|3:2,2:0:0:0:
363,282,11383,2,0,B|383:225|383:225|353:182,1,107.999996704102,8|2,0:2|1:2,2:0:0:0:
252,125,12050,6,0,P|191:138|169:181,1,107.999996704102,0|0,3:2|3:2,0:2:0:0:
162,256,12549,1,0,3:2:0:0:
162,256,12716,1,8,3:2:0:0:
49,348,13050,1,0,0:2:0:0:
49,348,13216,1,0,0:2:0:0:
116,381,13384,6,0,L|185:367,1,53.9999983520508,2|0,1:2|3:2,2:0:0:0:
226,323,13716,2,0,L|286:336,1,53.9999983520508,0|0,3:2|3:2,2:0:0:0:
352,349,14050,1,8,3:2:0:0:
461,283,14383,6,0,P|475:224|442:187,2,107.999996704102,0|0|0,1:2|2:0|3:2,0:2:0:0:
352,205,15383,1,10,0:2:0:0:
352,205,15550,2,0,L|362:144,2,53.9999983520508,0|0|0,3:2|2:0|0:2,0:2:0:0:
283,243,16050,6,0,P|246:232|222:211,1,53.9999983520508,2|0,1:2|3:2,2:0:0:0:
174,277,16383,2,0,P|155:243|153:210,1,53.9999983520508,0|0,3:2|3:2,2:0:0:0:
187,157,16716,2,0,P|207:97|182:50,1,107.999996704102,8|2,3:2|1:2,2:0:0:0:
20,52,17383,6,0,B|70:55|62:104|62:104|57:159|117:164,1,161.999995056153,0|0,3:2|3:2,0:2:0:0:
152,228,18050,1,8,3:2:0:0:
77,356,18383,1,0,0:2:0:0:
77,356,18550,1,0,0:2:0:0:
155,319,18716,6,0,L|213:337,1,53.9999983520508,2|0,1:2|3:2,2:0:0:0:
262,273,19050,2,0,L|314:258,1,53.9999983520508,0|0,3:2|3:2,2:0:0:0:
322,174,19383,2,0,L|379:64,1,107.999996704102,8|2,3:2|1:2,2:0:0:0:
493,139,20050,6,0,P|506:200|466:244,1,107.999996704102,2|0,0:2|3:2,0:2:0:0:
380,323,20716,1,10,0:2:0:0:
380,323,20883,2,0,L|448:334,2,53.9999983520508,0|0|0,3:2|2:0|0:2,0:2:0:0:
314,265,21383,6,0,P|290:242|251:233,1,53.9999983520508,2|0,1:2|3:2,2:0:0:0:
285,157,21716,2,0,P|252:157|220:177,1,53.9999983520508,0|0,3:2|3:2,2:0:0:0:
214,87,22050,2,0,P|164:122|150:173,1,107.999996704102,8|2,3:2|1:2,2:0:0:0:
170,309,22716,6,0,B|110:308|142:277|61:273,1,107.999996704102,0|0,3:2|3:2,0:2:0:0:
19,222,23216,1,0,3:2:0:0:
19,222,23383,1,8,3:2:0:0:
59,77,23716,1,0,0:2:0:0:
59,77,23883,1,0,0:2:0:0:
124,137,24050,6,0,L|183:127,1,53.9999983520508,2|0,1:2|3:2,2:0:0:0:
242,71,24383,2,0,L|295:78,1,53.9999983520508,0|0,3:2|3:2,2:0:0:0:
352,147,24716,1,8,3:2:0:0:
474,76,25050,2,0,P|434:117|456:182,2,107.999996704102,2|0|0,1:2|2:0|0:2,0:2:0:0:
487,249,26050,6,0,B|482:254|482:254|424:263,1,60,10|0,0:2|0:2,2:0:0:0:
358,333,26383,2,0,B|353:328|353:328|295:319,1,60,2|0,0:2|0:2,0:2:0:0:
215,363,26716,5,2,1:2:0:0:
215,363,26883,1,2,0:2:0:0:
152,303,27050,2,0,P|158:265|183:242,1,60,2|0,0:2|0:2,0:0:0:0:
264,235,27383,2,0,L|236:115,1,120,10|2,0:2|1:2,0:0:0:0:
183,8,28050,2,0,B|120:10|149:46|63:48,2,120,2|2|10,0:2|0:2|0:2,0:0:0:0:
313,41,29050,2,0,L|319:103,1,60,0|0,0:2|0:0,0:0:0:0:
385,170,29383,5,2,1:2:0:0:
385,170,29550,1,2,0:2:0:0:
446,105,29716,2,0,L|505:114,1,60,2|0,0:2|0:2,0:2:0:0:
512,210,30050,2,0,P|455:207|422:259,1,120,10|2,0:2|1:2,0:2:0:0:
355,384,30716,6,0,L|333:325,1,60,2|2,0:2|0:2,2:0:0:0:
341,248,31050,1,2,0:2:0:0:
301,102,31383,2,0,P|267:106|241:124,1,60,10|0,0:2|0:2,0:2:0:0:
176,73,31716,2,0,P|160:108|164:140,1,60,0|0,0:2|0:2,0:2:0:0:
226,207,32050,5,2,1:2:0:0:
226,207,32216,1,2,0:2:0:0:
220,304,32383,2,0,L|229:372,1,60,2|0,0:2|0:2,0:2:0:0:
133,285,32716,2,0,P|79:296|27:260,1,120,10|2,0:2|1:2,0:2:0:0:
17,143,33383,6,0,L|29:81,1,60,2|2,0:2|0:2,2:0:0:0:
105,62,33716,2,0,L|94:-1,1,60,2|2,0:2|0:2,2:0:0:0:
151,125,34050,2,0,P|195:94|257:119,1,120,10|0,0:2|0:2,2:0:0:0:
299,177,34550,1,0,0:2:0:0:
251,240,34716,6,0,L|226:361,1,120,2|2,1:2|0:2,0:2:0:0:
307,378,35216,1,0,0:2:0:0:
307,378,35383,2,0,P|336:362|353:341,1,60,10|0,0:2|0:2,0:2:0:0:
365,265,35716,1,2,1:2:0:0:
436,155,36050,6,0,L|445:228,2,60,2|2|2,0:2|0:2|0:2,2:0:0:0:
332,85,36716,1,10,0:2:0:0:
332,85,36883,2,0,L|313:206,1,120,0|0,0:2|0:2,2:0:0:0:
243,235,37383,6,0,P|221:219|203:192,2,60,2|2|2,1:2|0:2|0:2,2:0:0:0:
353,305,38050,2,0,P|319:353|262:361,1,120,10|2,0:2|1:2,0:2:0:0:
130,354,38716,2,0,L|72:336,2,60,2|2|2,0:2|0:2|0:2,2:0:0:0:
35,256,39383,2,0,B|58:198|58:198|29:144,1,120,10|0,0:2|0:2,2:0:0:0:
4,72,39883,1,0,0:2:0:0:
78,23,40050,5,2,1:2:0:0:
78,23,40216,1,2,0:2:0:0:
163,21,40383,2,0,P|180:30|199:70,1,60,2|0,0:2|0:0,0:0:0:0:
172,148,40716,2,0,L|241:131,1,60,10|0,0:2|0:2,0:2:0:0:
278,73,41050,2,0,L|337:88,1,60,2|0,1:2|0:2,0:2:0:0:
383,147,41383,6,0,P|391:173|386:214,1,60,2|2,0:2|0:2,2:0:0:0:
340,263,41716,1,2,0:2:0:0:
415,384,42050,2,0,P|397:329|447:278,1,120,10|0,0:2|0:2,2:0:0:0:
512,282,42550,1,0,0:2:0:0:
506,198,42716,6,0,L|497:118,1,60,2|2,1:2|0:2,2:0:0:0:
488,62,43050,1,2,0:2:0:0:
384,0,43383,2,0,P|327:16|311:81,1,120,10|2,0:2|1:2,0:2:0:0:
251,174,44050,6,0,P|220:182|190:179,1,60,2|2,0:2|0:2,2:0:0:0:
222,97,44383,2,0,P|194:80|175:55,1,60,2|2,0:2|0:2,2:0:0:0:
105,21,44716,2,0,P|52:43|34:104,1,120,10|0,0:2|0:2,2:0:0:0:
95,151,45217,1,0,0:2:0:0:
47,217,45383,6,0,B|21:279|21:279|49:325,1,120,2|2,1:2|0:2,0:2:0:0:
170,324,46050,2,0,B|196:262|196:262|170:217,1,120,10|2,0:2|1:2,0:2:0:0:
174,108,46716,6,0,P|193:98|237:93,1,60,2|2,0:2|0:2,2:0:0:0:
293,136,47050,1,2,0:2:0:0:
384,59,47383,2,0,L|378:-17,1,60,10|0,0:2|2:0,0:2:0:0:
464,89,47716,2,0,L|459:151,1,60,0|0,2:0|2:0,2:0:0:0:
449,225,48050,1,2,0:2:0:0:
106,88,58716,6,0,L|126:0,2,83.9999974365235,2|0|0,0:2|2:0|0:2,0:2:0:0:
38,148,59716,2,0,P|94:171|98:280,1,167.999994873047,2|0,0:2|2:0,0:2:0:0:
255,383,61050,1,0,0:2:0:0:
324,322,61383,6,0,L|371:314,1,41.9999987182618,2|0,0:2|0:2,0:2:0:0:
449,268,61716,2,0,P|414:252|396:212,1,83.9999974365235,0|2,0:2|0:2,2:0:0:0:
298,194,62383,2,0,P|347:153|340:51,1,167.999994873047,2|0,0:2|2:0,0:2:0:0:
248,24,63383,2,0,L|150:51,1,83.9999974365235,0|0,2:0|0:2,2:0:0:0:
101,80,63883,5,0,2:0:0:0:
101,80,64050,2,0,P|59:53|51:21,2,83.9999974365235,2|2|2,0:2|0:2|0:2,0:2:0:0:
155,170,65050,2,0,L|133:347,2,167.999994873047,2|0|0,0:2|2:0|0:2,0:2:0:0:
251,109,66716,6,0,P|295:113|336:179,1,125.999996154785,2|0,0:2|2:0,0:2:0:0:
359,249,67383,2,0,L|344:302,1,41.9999987182618,0|2,0:2|0:2,2:0:0:0:
376,370,67716,2,0,P|409:340|463:338,1,83.9999974365235,2|0,0:2|2:0,0:2:0:0:
508,225,68383,1,0,2:0:0:0:
435,108,68716,6,0,L|421:160,1,53.9999983520508,8|0,0:2|2:0,2:0:0:0:
364,65,69050,2,0,L|349:117,1,53.9999983520508,0|0,0:2|2:0,2:0:0:0:
295,210,69383,6,0,B|226:203|268:168|168:161,1,132.00000402832,4|2,1:2|0:3,2:0:0:0:
99,219,69884,1,2,0:3:0:0:
130,318,70050,2,0,L|204:306,1,66.0000020141602,8|0,0:2|0:0,0:0:0:0:
297,354,70383,1,2,1:2:0:0:
297,354,70550,1,2,0:2:0:0:
402,318,70716,6,0,P|415:277|411:248,1,66.0000020141602,2|0,0:2|0:2,0:2:0:0:
500,240,71050,2,0,P|480:201|456:184,1,66.0000020141602,2|0,0:2|0:2,0:2:0:0:
512,118,71383,2,0,P|470:104|441:109,1,66.0000020141602,10|0,0:2|0:2,0:2:0:0:
374,162,71716,1,2,0:2:0:0:
374,162,71883,1,0,0:2:0:0:
322,75,72050,6,0,P|272:44|199:71,1,132.00000402832,0|2,1:2|0:3,2:0:0:0:
157,141,72550,1,2,0:3:0:0:
90,82,72716,2,0,L|102:9,1,66.0000020141602,8|2,0:2|0:2,2:0:0:0:
21,154,73050,2,0,L|31:221,1,66.0000020141602,2|2,1:2|0:2,2:0:0:0:
65,305,73383,6,0,P|32:313|0:302,1,66.0000020141602,2|0,0:2|0:2,0:2:0:0:
122,233,73716,2,0,B|170:227|170:227|199:244|199:244|251:237,1,132.00000402832,2|8,0:2|0:2,0:2:0:0:
325,294,74217,1,0,0:2:0:0:
386,221,74383,2,0,L|368:152,1,66.0000020141602,2|0,0:2|0:2,0:2:0:0:
431,86,74716,6,0,P|497:99|514:160,1,132.00000402832,0|2,1:2|0:3,2:0:0:0:
485,243,75217,1,2,0:3:0:0:
417,326,75383,2,0,L|347:305,1,66.0000020141602,8|0,0:2|0:0,0:0:0:0:
252,340,75717,1,2,1:2:0:0:
252,340,75884,1,0,0:2:0:0:
141,325,76050,6,0,L|152:254,1,66.0000020141602,2|0,0:2|0:2,0:2:0:0:
169,160,76383,2,0,P|234:153|286:192,2,132.00000402832,2|8|2,0:2|0:2|0:2,0:2:0:0:
82,222,77216,1,0,0:2:0:0:
23,148,77383,6,0,L|42:65,1,66.0000020141602,0|0,1:2|0:2,2:0:0:0:
115,11,77716,2,0,L|128:77,1,66.0000020141602,2|2,0:3|0:3,2:0:0:0:
222,68,78050,2,0,P|252:68|285:48,1,66.0000020141602,8|2,0:2|0:2,2:0:0:0:
374,17,78383,1,2,1:2:0:0:
374,17,78550,1,2,0:2:0:0:
426,103,78716,6,0,L|406:178,1,66.0000020141602,2|2,0:2|0:2,2:0:0:0:
389,256,79050,2,0,B|421:275|421:275|513:246,2,132.00000402832,2|10|2,0:2|0:2|0:2,0:2:0:0:
319,188,79883,1,0,0:2:0:0:
256,270,80050,6,0,P|244:290|141:304,1,132.00000402832,4|2,1:2|0:3,2:0:0:0:
85,239,80550,1,2,0:3:0:0:
155,156,80716,2,0,L|164:75,1,66.0000020141602,8|2,0:2|0:2,0:0:0:0:
78,18,81050,1,2,1:2:0:0:
78,18,81217,1,2,0:2:0:0:
9,103,81383,6,0,L|25:175,1,66.0000020141602,2|0,0:2|0:2,0:2:0:0:
0,261,81716,2,0,L|16:333,1,66.0000020141602,2|0,0:2|0:2,0:2:0:0:
109,319,82050,2,0,L|125:391,1,66.0000020141602,10|0,0:2|0:2,0:2:0:0:
165,243,82384,1,2,0:2:0:0:
165,243,82550,1,0,0:2:0:0:
242,189,82716,6,0,P|292:239|357:233,1,132.00000402832,0|2,1:2|0:3,2:0:0:0:
432,188,83217,1,2,0:3:0:0:
413,91,83384,2,0,P|388:96|350:124,1,66.0000020141602,8|2,0:2|0:2,2:0:0:0:
291,46,83717,2,0,P|276:67|269:113,1,66.0000020141602,2|2,1:2|0:2,2:0:0:0:
181,151,84050,6,0,L|110:135,1,66.0000020141602,2|0,0:2|0:2,0:2:0:0:
33,81,84383,2,0,B|3:122|3:122|22:203,2,132.00000402832,2|8|2,0:2|0:2|0:2,0:2:0:0:
92,4,85217,1,0,0:2:0:0:
187,11,85384,6,0,P|208:33|221:69,1,66.0000020141602,0|2,1:2|0:3,2:0:0:0:
272,143,85716,2,0,P|240:166|226:202,1,66.0000020141602,2|2,0:3|0:3,2:0:0:0:
271,271,86050,2,0,L|409:251,1,132.00000402832,8|2,0:2|1:2,2:0:0:0:
485,306,86550,1,0,0:2:0:0:
416,370,86716,6,0,L|346:358,1,66.0000020141602,2|0,0:2|0:2,0:2:0:0:
259,351,87050,2,0,B|218:361|218:361|186:351|186:351|125:368,2,132.00000402832,2|8|0,0:2|0:2|0:2,0:2:0:0:
314,263,87883,1,0,0:2:0:0:
255,186,88050,6,0,P|224:172|135:211,1,132.00000402832,0|2,1:2|0:3,2:0:0:0:
101,290,88550,1,2,0:3:0:0:
31,228,88716,2,0,L|44:155,1,66.0000020141602,8|0,0:2|2:0,2:0:0:0:
125,107,89050,2,0,L|112:34,1,66.0000020141602,2|0,1:2|0:2,0:2:0:0:
29,2,89383,1,2,0:2:0:0:
499,169,90716,5,0,0:2:0:0:
499,169,91050,2,0,L|508:219,1,41.9999987182618,2|0,0:2|0:2,0:2:0:0:
468,275,91383,1,2,0:2:0:0:
344,244,91716,1,0,0:2:0:0:
344,244,91883,2,0,P|303:271|327:346,1,125.999996154785,2|0,0:2|0:2,0:2:0:0:
439,370,92716,1,2,0:2:0:0:
507,250,93050,1,2,0:2:0:0:
464,124,93550,5,2,0:2:0:0:
464,124,93716,2,0,L|474:76,1,41.9999987182618,2|0,0:2|0:2,0:2:0:0:
381,173,94050,2,0,L|370:131,1,41.9999987182618,2|0,0:2|2:0,0:2:0:0:
325,50,94383,1,0,0:2:0:0:
325,50,94550,2,0,P|269:50|240:86,1,83.9999974365235,2|0,0:2|2:0,0:2:0:0:
237,149,95050,1,0,0:2:0:0:
349,239,95383,2,0,B|350:276|350:276|338:305|338:305|341:358,1,107.999996704102,10|0,0:2|2:0,2:0:0:0:
256,356,95883,1,0,0:2:0:0:
256,356,96050,6,0,P|208:344|182:344,1,53.9999983520508,0|0,1:2|0:2,2:0:0:0:
176,268,96383,2,0,P|148:272|113:290,1,53.9999983520508,2|0,0:2|0:2,0:2:0:0:
72,348,96716,2,0,L|64:237,1,107.999996704102,10|2,0:2|1:2,0:2:0:0:
12,176,97216,2,0,L|28:63,1,107.999996704102,2|0,0:2|2:0,0:2:0:0:
96,27,97716,1,0,0:2:0:0:
168,115,98050,1,10,0:2:0:0:
248,36,98383,2,0,L|311:44,2,53.9999983520508,2|0|0,0:2|0:2|1:2,0:2:0:0:
256,168,99050,6,0,L|252:226,1,53.9999983520508,2|0,0:2|0:2,2:0:0:0:
336,272,99383,2,0,L|339:218,1,53.9999983520508,10|0,0:2|0:2,0:2:0:0:
368,140,99716,1,2,1:2:0:0:
368,140,99883,2,0,P|432:140|462:181,1,107.999996704102,2|0,0:2|2:0,0:2:0:0:
461,258,100383,1,2,0:2:0:0:
344,336,100716,2,0,B|303:330|303:330|280:339|280:339|230:336,1,107.999996704102,10|0,0:2|2:0,2:0:0:0:
96,312,101383,6,0,L|81:196,1,107.999996704102,2|0,1:2|2:0,0:2:0:0:
132,91,102050,2,0,L|125:29,2,53.9999983520508,10|2|2,0:2|0:2|1:2,2:0:0:0:
188,152,102550,1,2,0:2:0:0:
188,152,102716,2,0,P|228:120|288:120,1,107.999996704102,2|2,0:2|0:2,0:2:0:0:
348,228,103383,2,0,P|388:260|446:259,1,107.999996704102,10|0,0:2|2:0,0:2:0:0:
488,124,104050,6,0,P|460:111|434:108,1,53.9999983520508,2|2,1:2|0:2,2:0:0:0:
440,28,104383,2,0,P|408:32|386:49,1,53.9999983520508,2|2,0:2|0:2,2:0:0:0:
340,108,104716,2,0,L|347:166,2,53.9999983520508,10|2|2,0:2|0:2|1:2,2:0:0:0:
272,60,105216,1,2,0:2:0:0:
272,60,105383,2,0,B|224:50|224:50|160:64,1,107.999996704102,2|2,0:2|0:2,0:2:0:0:
100,180,106050,2,0,B|150:191|150:191|208:183,1,107.999996704102,10|0,0:2|2:0,0:2:0:0:
352,196,106716,6,0,L|410:204,2,53.9999983520508,2|2|2,1:2|0:2|0:2,2:0:0:0:
292,252,107216,1,2,0:2:0:0:
292,252,107383,2,0,L|237:243,2,53.9999983520508,10|0|2,0:2|0:2|1:2,0:2:0:0:
428,343,108050,2,0,L|441:230,1,107.999996704102,2|2,0:2|0:2,0:2:0:0:
432,100,108716,2,0,B|372:100|400:129|331:132,1,107.999996704102,10|0,0:2|2:0,0:2:0:0:
220,44,109383,6,0,L|164:40,2,53.9999983520508,2|2|2,1:2|0:2|0:2,2:0:0:0:
256,120,109883,1,2,0:2:0:0:
256,120,110050,2,0,P|256:144|268:176,1,53.9999983520508,10|2,0:2|0:2,2:0:0:0:
312,240,110383,2,0,P|296:264|288:289,1,53.9999983520508,2|2,1:2|0:2,2:0:0:0:
216,328,110716,2,0,B|155:311|155:311|104:322,1,107.999996704102,2|2,0:2|0:2,0:2:0:0:
44,192,111383,2,0,B|81:204|81:204|152:184,1,107.999996704102,10|2,0:2|0:2,0:2:0:0:
460,40,122716,6,0,L|451:176,1,132.00000402832,4|2,1:2|0:3,2:0:0:0:
381,231,123216,1,2,0:3:0:0:
302,171,123383,2,0,P|262:163|224:176,1,66.0000020141602,8|0,0:2|0:0,0:0:0:0:
150,228,123716,1,2,1:2:0:0:
150,228,123883,1,2,0:2:0:0:
70,141,124050,6,0,L|137:132,1,66.0000020141602,2|0,0:2|0:2,0:2:0:0:
184,52,124383,2,0,L|253:58,1,66.0000020141602,2|0,0:2|0:2,0:2:0:0:
281,144,124716,2,0,L|352:139,1,66.0000020141602,10|0,0:2|0:2,0:2:0:0:
414,83,125050,1,2,0:2:0:0:
414,83,125216,1,0,0:2:0:0:
456,168,125383,6,0,B|452:211|452:211|462:251|462:251|453:299,1,132.00000402832,0|2,1:2|0:3,2:0:0:0:
380,348,125883,1,2,0:3:0:0:
340,268,126050,2,0,P|312:272|283:298,1,66.0000020141602,8|2,0:2|0:2,2:0:0:0:
224,219,126383,2,0,P|200:243|197:277,1,66.0000020141602,2|2,1:2|0:2,2:0:0:0:
140,340,126716,6,0,L|74:329,1,66.0000020141602,2|0,0:2|0:2,0:2:0:0:
33,251,127050,2,0,P|33:199|97:162,1,132.00000402832,2|8,0:2|0:2,0:2:0:0:
168,216,127550,1,0,0:2:0:0:
248,176,127716,2,0,L|254:111,1,66.0000020141602,2|0,0:2|0:2,0:2:0:0:
203,45,128050,6,0,B|135:47|163:77|70:78,1,132.00000402832,0|2,1:2|0:3,2:0:0:0:
42,158,128550,1,2,0:3:0:0:
104,241,128716,2,0,L|177:224,1,66.0000020141602,8|0,0:2|0:0,0:0:0:0:
255,277,129050,1,2,1:2:0:0:
255,277,129216,1,0,0:2:0:0:
352,264,129383,6,0,L|364:335,1,66.0000020141602,2|0,0:2|0:2,0:2:0:0:
424,216,129716,2,0,P|384:184|305:199,2,132.00000402832,2|8|2,0:2|0:2|0:2,0:2:0:0:
502,245,130550,1,0,0:2:0:0:
504,148,130716,6,0,P|504:120|484:88,1,66.0000020141602,0|0,1:2|0:2,2:0:0:0:
408,32,131050,2,0,P|380:36|346:57,1,66.0000020141602,2|2,0:3|0:3,2:0:0:0:
297,137,131383,2,0,L|229:131,1,66.0000020141602,8|2,0:2|0:2,2:0:0:0:
185,45,131716,1,2,1:2:0:0:
185,45,131883,1,2,0:2:0:0:
128,128,132050,6,0,L|136:197,1,66.0000020141602,2|2,0:2|0:2,2:0:0:0:
198,270,132383,2,0,P|244:236|317:244,2,132.00000402832,2|10|2,0:2|0:2|0:2,0:2:0:0:
121,324,133216,1,0,0:2:0:0:
63,243,133383,6,0,B|46:108,1,132.00000402832,4|2,1:2|0:3,2:0:0:0:
87,26,133883,1,2,0:3:0:0:
193,29,134050,2,0,L|274:38,1,66.0000020141602,8|2,0:2|0:2,0:0:0:0:
369,35,134383,1,2,1:2:0:0:
369,35,134550,1,2,0:2:0:0:
453,99,134716,6,0,L|446:172,1,66.0000020141602,2|0,0:2|0:2,0:2:0:0:
433,254,135050,2,0,P|401:250|373:228,1,66.0000020141602,2|0,0:2|0:2,0:2:0:0:
321,307,135383,2,0,P|297:283|285:249,1,66.0000020141602,10|0,0:2|0:2,0:2:0:0:
282,165,135716,1,2,0:2:0:0:
282,165,135883,1,0,0:2:0:0:
200,124,136050,6,0,B|132:113|152:155|70:147,1,132.00000402832,0|2,1:2|0:3,2:0:0:0:
9,214,136550,1,2,0:3:0:0:
27,297,136716,2,0,L|37:365,1,66.0000020141602,8|2,0:2|0:2,2:0:0:0:
139,365,137050,2,0,L|128:299,1,66.0000020141602,2|2,1:2|0:2,2:0:0:0:
177,218,137383,6,0,P|209:202|244:206,1,66.0000020141602,2|0,0:2|0:2,0:2:0:0:
320,244,137716,2,0,P|379:248|434:200,2,132.00000402832,2|8|2,0:2|0:2|0:2,0:2:0:0:
301,148,138550,1,0,0:2:0:0:
233,78,138716,6,0,P|217:102|206:142,1,66.0000020141602,0|2,1:2|0:3,2:0:0:0:
152,215,139050,2,0,P|168:239|179:275,1,66.0000020141602,2|2,0:3|0:3,2:0:0:0:
224,356,139383,2,0,L|294:344,1,66.0000020141602,8|0,0:2|0:0,0:0:0:0:
378,291,139716,1,2,1:2:0:0:
378,291,139883,1,2,0:2:0:0:
464,233,140050,6,0,L|456:164,1,66.0000020141602,2|0,0:2|0:2,0:2:0:0:
388,112,140383,2,0,P|428:80|506:92,2,132.00000402832,2|8|0,0:2|0:2|0:2,0:2:0:0:
345,204,141216,1,0,0:2:0:0:
259,164,141383,6,0,B|190:145|190:145|132:177,1,132.00000402832,0|2,1:2|0:3,2:0:0:0:
59,212,141883,1,2,0:3:0:0:
20,128,142050,2,0,L|25:54,1,66.0000020141602,8|0,0:2|2:0,2:0:0:0:
108,24,142383,2,0,L|120:88,1,66.0000020141602,2|2,1:2|0:0,0:0:0:0:
200,119,142716,6,0,P|227:119|262:101,1,66.0000020141602,2|0,0:2|0:0,0:0:0:0:
318,33,143050,2,0,B|391:31|363:68|449:62,2,132.00000402832,2|8|2,0:2|0:0|0:0,0:0:0:0:
