osu file format v14

[General]
AudioFilename: audio.mp3
AudioLeadIn: 0
PreviewTime: 3550
Countdown: 0
SampleSet: Soft
StackLeniency: 0.7
Mode: 0
LetterboxInBreaks: 0
WidescreenStoryboard: 0

[Editor]
DistanceSpacing: 0.8
BeatDivisor: 8
GridSize: 4
TimelineZoom: 1

[Metadata]
Title:Sunflower
TitleUnicode:Sunflower
Artist:Post Malone, Swae Lee
ArtistUnicode:Post Malone, Swae Lee
Creator:Sotarks
Version:Insane
Source:Spider-Man: Into the Spider-Verse
Tags:Kowari [_Eli_] Elinor Myxomatosis Myxo english pop rap hip-hop hiphop r&b rae sremmurd trap ballad carter lang louis bell spiderman spider man spiderverse marvel super hero superhero single soundtrack ost miles morales
BeatmapID:2328676
BeatmapSetID:1114768

[Difficulty]
HPDrainRate:5.2
CircleSize:4.2
OverallDifficulty:8
ApproachRate:9
SliderMultiplier:2.02
SliderTickRate:1

[Events]
//Background and Video events
0,0,"bg.jpg",0,0
Video,-1480,"video.mp4"
//Break Periods
2,48249,58116
//Storyboard Layer 0 (Background)
//Storyboard Layer 1 (Fail)
//Storyboard Layer 2 (Pass)
//Storyboard Layer 3 (Foreground)
//Storyboard Layer 4 (Overlay)
//Storyboard Sound Samples

[TimingPoints]
50,666.666666666667,4,2,22,32,1,0
50,-138.888888888889,4,2,22,32,0,0
1050,-98.0392156862745,4,2,22,32,0,0
2383,-238.095238095238,4,2,22,32,0,0
3716,-138.888888888889,4,2,22,32,0,0
4716,-833.333333333333,4,2,22,32,0,0
5300,-833.333333333333,4,2,22,5,0,0
5383,-108.695652173913,4,2,22,42,0,0
26716,-98.0392156862745,4,2,22,52,0,0
36633,-98.0392156862745,4,2,22,5,0,0
36716,-98.0392156862745,4,2,22,52,0,0
58716,-192.307692307692,4,2,22,32,0,0
68716,-192.307692307692,4,2,22,52,0,0
69383,-81.9672131147541,4,2,22,62,0,1
89383,-81.9672131147541,4,2,22,52,0,0
89716,-238.095238095238,4,2,22,42,0,0
91050,-138.888888888889,4,2,22,42,0,0
95550,-121.951219512195,4,2,22,42,0,0
96050,-108.695652173913,4,2,22,52,0,0
112050,-192.307692307692,4,2,22,42,0,0
117383,-238.095238095238,4,2,22,32,0,0
122050,-98.0392156862744,4,2,22,52,0,0
122716,-81.9672131147541,4,2,22,62,0,1
144050,-81.9672131147541,4,2,22,42,0,0

[Colours]
Combo1 : 183,72,133
Combo2 : 159,95,167
Combo3 : 111,111,185
Combo4 : 136,237,255

[HitObjects]
196,121,50,6,0,P|236:113|261:106,1,36.3600008876953,0|0,1:2|3:2,0:2:0:0:
137,158,383,2,0,P|119:154|101:151,1,36.3600008876953,0|0,3:2|3:2,0:2:0:0:
199,196,716,1,8,3:2:0:0:
199,196,1050,6,0,P|194:271|188:338,2,103.020000628784,0|0|0,1:2|3:2|3:2,0:2:0:0:
264,238,1883,1,0,3:2:0:0:
331,209,2050,1,8,3:2:0:0:
340,221,2383,6,0,L|345:250,1,21.2099993527222,0|0,3:2|3:2,0:2:0:0:
395,164,2716,5,0,1:2:0:0:
329,136,2883,1,0,3:2:0:0:
261,165,3050,1,0,3:2:0:0:
194,153,3216,1,0,3:2:0:0:
270,95,3383,1,8,3:2:0:0:
270,95,3716,6,0,P|264:50|262:31,1,36.3600008876953,0|0,1:2|3:2,0:2:0:0:
329,136,4050,2,0,P|334:69|337:36,1,72.7200017753907,0|0,3:2|3:2,0:2:0:0:
395,164,4716,6,0,L|393:141,1,21.2100005178223,8|0,3:2|0:2,0:2:0:0:
442,92,5383,5,2,1:2:0:0:
463,164,5550,1,0,3:2:0:0:
321,152,5716,1,0,3:2:0:0:
300,224,5883,1,0,3:2:0:0:
426,303,6050,1,8,3:2:0:0:
168,82,6383,5,2,1:2:0:0:
173,94,6716,6,0,P|168:127|166:148,1,46.4599984403687,0|0,3:2|0:2,0:2:0:0:
102,117,7050,1,0,3:2:0:0:
244,90,7216,1,0,3:2:0:0:
54,165,7383,1,8,3:2:0:0:
59,175,7716,6,0,P|64:208|66:229,1,46.4599984403687,0|0,0:2|0:2,0:2:0:0:
191,296,8050,5,2,1:2:0:0:
168,223,8216,1,0,3:2:0:0:
308,319,8383,1,0,3:2:0:0:
367,210,8550,1,0,3:2:0:0:
259,82,8716,1,8,3:2:0:0:
265,92,9050,6,0,P|259:146|259:156,1,46.4599984403687,2|0,1:2|0:2,0:2:0:0:
177,65,9383,2,0,P|188:131|190:176,1,92.9199968807374,2|0,0:2|3:2,0:2:0:0:
88,39,10050,5,10,0:2:0:0:
95,195,10216,2,0,P|99:149|108:104,1,92.9199968807374,0|0,3:2|0:2,0:2:0:0:
25,214,10716,5,2,1:2:0:0:
97,273,10883,1,0,3:2:0:0:
204,193,11050,1,0,3:2:0:0:
334,276,11216,1,0,3:2:0:0:
457,159,11383,1,8,0:2:0:0:
159,358,11716,5,2,1:2:0:0:
171,368,12050,6,0,P|162:310|158:291,1,46.4599984403687,0|0,3:2|0:2,0:2:0:0:
240,335,12383,1,0,3:2:0:0:
211,268,12550,1,0,3:2:0:0:
309,373,12716,1,8,3:2:0:0:
323,366,13050,6,0,P|332:308|336:289,1,46.4599984403687,0|0,0:2|0:2,0:2:0:0:
438,175,13383,5,2,1:2:0:0:
364,232,13550,1,0,3:2:0:0:
234,130,13716,1,0,3:2:0:0:
104,246,13883,1,0,3:2:0:0:
20,83,14050,1,8,3:2:0:0:
30,94,14383,6,0,B|146:80|76:152|232:134,1,185.839993761475,0|0,1:2|3:2,0:2:0:0:
418,68,15383,5,10,0:2:0:0:
299,97,15550,2,0,P|356:115|395:140,1,92.9199968807374,0|0,3:2|0:2,0:2:0:0:
403,295,16050,5,2,1:2:0:0:
336,251,16216,1,0,3:2:0:0:
383,184,16383,1,0,3:2:0:0:
450,228,16549,1,0,3:2:0:0:
351,90,16716,1,8,3:2:0:0:
209,343,17050,5,2,1:2:0:0:
202,328,17383,6,0,P|193:285|186:267,1,46.4599984403687,0|0,3:2|0:2,0:2:0:0:
191,154,17716,1,0,3:2:0:0:
163,216,17883,1,0,3:2:0:0:
193,46,18050,1,8,3:2:0:0:
179,35,18383,6,0,P|172:57|169:80,1,46.4599984403687,0|0,0:2|0:2,0:2:0:0:
289,233,18716,5,2,1:2:0:0:
394,160,18883,1,0,3:2:0:0:
322,65,19050,1,0,3:2:0:0:
217,138,19217,1,0,3:2:0:0:
45,40,19383,1,8,3:2:0:0:
53,51,19716,6,0,P|46:73|43:96,1,46.4599984403687,2|0,1:2|0:2,0:2:0:0:
82,256,20050,2,0,P|72:202|67:147,1,92.9199968807374,2|0,0:2|3:2,0:2:0:0:
40,321,20716,5,10,0:2:0:0:
89,381,20883,2,0,P|112:358|181:354,1,92.9199968807374,0|0,3:2|0:2,0:2:0:0:
312,257,21383,5,2,1:2:0:0:
291,329,21550,1,0,3:2:0:0:
194,290,21716,1,0,3:2:0:0:
173,218,21883,1,0,3:2:0:0:
257,158,22050,1,8,3:2:0:0:
351,380,22383,5,2,1:2:0:0:
352,365,22716,6,0,P|358:328|362:310,1,46.4599984403687,0|0,3:2|0:2,0:2:0:0:
274,235,23050,1,0,3:2:0:0:
342,250,23216,1,0,3:2:0:0:
214,279,23383,1,8,3:2:0:0:
203,271,23716,6,0,P|197:234|193:216,1,46.4599984403687,0|0,0:2|0:2,0:2:0:0:
225,97,24050,5,2,1:2:0:0:
177,152,24216,1,0,3:2:0:0:
310,68,24383,1,0,3:2:0:0:
249,108,24549,1,0,3:2:0:0:
407,63,24716,1,8,3:2:0:0:
423,82,25050,6,0,B|297:74|385:159|226:143,1,185.839993761475,2|0,1:2|0:2,0:2:0:0:
52,73,26050,1,10,0:2:0:0:
110,119,26216,1,0,0:2:0:0:
117,46,26383,2,0,P|104:113|105:118,1,46.4599984403687,2|0,0:2|0:2,0:2:0:0:
172,247,26716,5,2,1:2:0:0:
260,209,26883,1,2,0:2:0:0:
243,290,27050,2,0,P|305:305|317:311,1,51.5100003143921,2|0,0:2|0:2,0:0:0:0:
186,163,27383,2,0,P|124:178|112:184,1,51.5100003143921,10|0,0:2|0:0,0:0:0:0:
345,172,27716,1,2,1:2:0:0:
345,172,28050,2,0,P|350:89|362:21,2,103.020000628784,2|2|10,0:2|0:2|0:2,0:0:0:0:
388,351,29050,2,0,P|397:294|400:281,1,51.5100003143921,0|0,0:2|0:0,0:0:0:0:
298,320,29383,5,2,1:2:0:0:
223,356,29550,1,2,0:2:0:0:
232,274,29716,2,0,P|170:252|149:252,1,51.5100003143921,2|0,0:2|0:2,0:2:0:0:
288,114,30050,2,0,P|263:121|240:133,1,51.5100003143921,10|0,0:2|0:2,0:2:0:0:
395,29,30383,2,0,P|372:16|347:9,1,51.5100003143921,2|0,1:2|0:2,0:2:0:0:
403,201,30716,1,2,0:2:0:0:
379,135,30883,1,2,0:2:0:0:
332,189,31050,1,2,0:2:0:0:
136,37,31383,2,0,P|123:96|120:109,1,51.5100003143921,10|0,0:2|0:2,0:2:0:0:
213,136,31716,2,0,P|207:110|201:85,1,51.5100003143921,0|0,0:2|0:2,0:2:0:0:
134,166,32050,5,2,1:2:0:0:
151,243,32216,1,2,0:2:0:0:
131,318,32383,2,0,P|75:301|66:302,1,51.5100003143921,2|0,0:2|0:2,0:2:0:0:
272,239,32716,2,0,P|246:243|224:256,1,51.5100003143921,10|0,0:2|0:2,0:2:0:0:
402,286,33050,2,0,P|376:281|354:268,1,51.5100003143921,2|0,1:2|0:2,0:2:0:0:
466,232,33383,1,2,0:2:0:0:
419,166,33550,1,2,0:2:0:0:
454,92,33716,1,2,0:2:0:0:
397,152,33883,1,2,0:2:0:0:
321,121,34050,1,10,0:2:0:0:
81,87,34383,1,0,0:2:0:0:
154,119,34550,1,0,0:2:0:0:
133,38,34716,6,0,P|122:100|123:113,1,51.5100003143921,2|0,1:2|0:2,0:2:0:0:
145,209,35050,2,0,P|141:183|134:158,1,51.5100003143921,2|0,0:2|0:2,0:2:0:0:
229,72,35383,2,0,P|240:134|239:147,1,51.5100003143921,10|0,0:2|0:2,0:2:0:0:
217,243,35717,2,0,P|220:217|227:192,1,51.5100003143921,2|0,1:2|0:2,0:2:0:0:
320,121,36050,1,2,0:2:0:0:
363,182,36216,1,2,0:2:0:0:
390,114,36383,2,0,P|430:121|470:142,1,77.2650004715881,2|0,0:2|0:2,0:2:0:0:
471,151,36716,2,0,P|450:166|426:192,1,51.5100003143921,10|0,0:2|0:2,0:2:0:0:
501,218,37050,2,0,P|480:233|456:259,1,51.5100003143921,0|0,0:2|0:2,0:2:0:0:
321,241,37383,5,2,1:2:0:0:
246,210,37550,1,2,0:2:0:0:
285,311,37716,2,0,P|228:288|213:289,1,51.5100003143921,2|0,0:2|0:2,0:2:0:0:
297,153,38050,2,0,P|318:138|342:130,1,51.5100003143921,10|0,0:2|0:2,0:2:0:0:
253,95,38383,2,0,P|274:80|298:72,1,51.5100003143921,2|0,1:2|0:2,0:2:0:0:
218,164,38716,1,2,0:2:0:0:
149,130,38883,1,2,0:2:0:0:
77,146,39050,1,2,0:2:0:0:
334,248,39383,1,10,0:2:0:0:
110,349,39716,2,0,P|102:290|96:273,1,51.5100003143921,0|0,0:2|0:2,0:2:0:0:
195,193,40050,5,2,1:2:0:0:
163,257,40216,1,2,0:2:0:0:
202,315,40383,1,2,0:2:0:0:
168,125,40716,2,0,P|105:114|99:115,1,51.5100003143921,10|0,0:2|0:2,0:2:0:0:
174,384,41050,2,0,P|199:381|223:372,1,51.5100003143921,2|0,1:2|0:2,0:2:0:0:
290,214,41383,1,2,0:2:0:0:
361,228,41550,1,2,0:2:0:0:
400,292,41716,1,2,0:2:0:0:
320,129,42050,1,10,0:2:0:0:
249,143,42217,1,0,0:2:0:0:
210,207,42383,2,0,P|199:266|200:290,1,51.5100003143921,0|0,0:2|0:2,0:2:0:0:
295,45,42716,5,2,1:2:0:0:
366,59,42883,1,2,0:2:0:0:
405,123,43050,1,2,0:2:0:0:
225,69,43383,2,0,P|173:86|145:90,1,51.5100003143921,10|0,0:2|0:2,0:2:0:0:
394,195,43716,2,0,P|369:188|345:178,1,51.5100003143921,2|0,1:2|0:2,0:2:0:0:
445,332,44050,1,2,0:2:0:0:
380,298,44216,1,2,0:2:0:0:
306,311,44383,1,2,0:2:0:0:
371,277,44550,1,2,0:2:0:0:
445,290,44717,1,10,0:2:0:0:
229,322,45050,1,0,0:2:0:0:
164,298,45216,1,0,0:2:0:0:
113,240,45383,6,0,P|96:304|95:318,1,51.5100003143921,2|0,1:2|0:2,0:2:0:0:
157,149,45716,2,0,P|174:213|175:227,1,51.5100003143921,2|0,0:2|0:2,0:2:0:0:
98,101,46050,2,0,P|81:165|80:179,1,51.5100003143921,10|0,0:2|0:2,0:2:0:0:
142,10,46383,2,0,P|159:74|160:88,1,51.5100003143921,2|0,1:2|0:2,0:2:0:0:
111,261,46716,1,2,0:2:0:0:
173,221,46883,1,2,0:2:0:0:
246,225,47050,1,2,0:2:0:0:
41,256,47383,2,0,P|87:235|216:320,1,206.040001257568,10|2,0:2|0:2,0:2:0:0:
369,102,58716,6,0,P|321:112|251:117,1,105.039999358887,2|0,0:2|0:2,0:2:0:0:
328,222,59716,2,0,P|230:183|128:163,1,210.079998717773,2|0,0:2|0:2,0:2:0:0:
7,340,61383,2,0,P|44:330|49:329,2,26.2599998397217,2|0|0,0:2|0:2|0:2,0:2:0:0:
124,261,62050,2,0,P|154:268|160:270,1,26.2599998397217,2|0,0:2|0:2,0:2:0:0:
191,330,62383,2,0,P|288:291|391:270,1,210.079998717773,2|0,0:2|0:2,0:2:0:0:
433,81,64050,6,0,P|394:74|386:72,1,26.2599998397217,2|0,0:2|0:2,0:2:0:0:
343,55,64383,2,0,P|330:57|317:59,1,26.2599998397217,2|0,0:2|0:2,0:2:0:0:
263,103,64716,1,2,0:2:0:0:
263,103,64883,1,2,0:2:0:0:
205,45,65050,2,0,P|192:102|176:270,1,210.079998717773,2|0,0:2|0:2,0:2:0:0:
275,331,66716,2,0,P|265:266|262:212,1,105.039999358887,2|0,0:2|0:2,0:2:0:0:
269,148,67550,1,2,0:2:0:0:
321,99,67716,2,0,P|304:152|290:274,1,157.55999903833,2|8,0:2|0:2,0:2:0:0:
249,75,69050,1,0,0:2:0:0:
170,330,69383,5,4,1:2:0:0:
99,301,69550,1,2,0:3:0:0:
125,229,69716,1,2,0:3:0:0:
196,258,69883,1,2,0:3:0:0:
266,218,70050,1,8,0:2:0:0:
49,244,70383,5,2,1:2:0:0:
177,171,70550,1,2,0:2:0:0:
49,244,70716,2,0,P|59:176|60:155,1,61.6099974617463,2|0,0:2|0:2,0:2:0:0:
120,241,71050,2,0,P|130:173|131:152,1,61.6099974617463,2|0,0:2|0:2,0:2:0:0:
337,317,71383,2,0,P|327:249|326:228,1,61.6099974617463,10|0,0:2|0:2,0:2:0:0:
266,314,71717,2,0,P|256:246|255:225,1,61.6099974617463,2|0,0:2|0:2,0:2:0:0:
337,85,72050,5,0,1:2:0:0:
266,114,72217,1,0,0:0:0:0:
129,104,72383,1,2,0:3:0:0:
200,75,72550,1,2,0:3:0:0:
135,32,72716,1,8,0:2:0:0:
197,151,72883,5,2,0:2:0:0:
263,27,73050,1,2,1:2:0:0:
129,104,73216,1,2,0:2:0:0:
279,173,73383,2,0,P|265:108|264:87,1,61.6099974617463,2|0,0:2|0:2,0:2:0:0:
174,272,73716,2,0,P|192:186|199:104,1,123.219994923493,2|8,0:2|0:2,0:2:0:0:
200,75,74216,1,0,0:2:0:0:
355,169,74383,2,0,P|341:104|340:83,1,61.6099974617463,2|0,0:2|0:2,0:2:0:0:
318,240,74716,5,0,1:2:0:0:
342,317,74883,1,2,0:3:0:0:
262,163,75050,1,2,0:3:0:0:
238,240,75217,1,2,0:3:0:0:
361,85,75383,1,8,0:2:0:0:
361,85,75716,6,0,P|293:70|282:67,1,61.6099974617463,2|0,1:2|0:2,0:2:0:0:
404,162,76050,2,0,P|336:177|325:180,1,61.6099974617463,2|0,0:2|0:2,0:2:0:0:
407,278,76383,2,0,P|325:251|263:247,1,123.219994923493,2|8,0:2|0:2,0:2:0:0:
217,256,76883,1,0,0:2:0:0:
322,175,77050,2,0,P|254:160|243:157,1,61.6099974617463,2|0,0:2|0:2,0:2:0:0:
119,52,77383,5,0,1:2:0:0:
189,133,77550,1,0,0:2:0:0:
208,41,77716,1,2,0:3:0:0:
103,141,77883,1,2,0:3:0:0:
256,215,78050,1,8,0:2:0:0:
189,133,78216,5,2,0:2:0:0:
151,231,78383,1,2,1:2:0:0:
287,121,78550,1,2,0:2:0:0:
330,287,78716,1,2,0:2:0:0:
256,215,78883,1,2,0:2:0:0:
327,139,79050,2,0,P|328:206|323:220,1,61.6099974617463,2|0,0:2|0:2,0:2:0:0:
254,355,79383,2,0,P|251:324|256:294,1,61.6099974617463,10|0,0:2|0:2,0:2:0:0:
183,346,79716,2,0,P|180:315|185:285,1,61.6099974617463,2|0,0:2|0:2,0:2:0:0:
282,71,80050,5,4,1:2:0:0:
217,152,80216,1,2,0:3:0:0:
206,77,80383,1,2,0:3:0:0:
292,146,80550,1,2,0:3:0:0:
170,217,80716,1,8,0:2:0:0:
217,152,80883,5,2,0:2:0:0:
251,237,81050,1,2,1:2:0:0:
326,61,81216,1,2,0:2:0:0:
292,146,81383,2,0,P|359:130|371:129,1,61.6099974617463,2|0,0:2|0:2,0:2:0:0:
318,212,81716,2,0,P|385:196|397:195,1,61.6099974617463,2|0,0:2|0:2,0:2:0:0:
206,77,82050,2,0,P|139:61|127:60,1,61.6099974617463,10|0,0:2|0:2,0:2:0:0:
180,143,82383,2,0,P|113:127|101:126,1,61.6099974617463,2|0,0:2|0:2,0:2:0:0:
238,291,82716,5,0,1:2:0:0:
165,267,82883,1,0,0:2:0:0:
265,358,83050,1,2,0:3:0:0:
337,335,83217,1,2,0:3:0:0:
220,216,83383,1,8,0:2:0:0:
179,341,83550,5,2,0:2:0:0:
306,260,83716,1,2,1:2:0:0:
265,135,83883,1,2,0:2:0:0:
238,291,84050,2,0,P|166:279|147:280,1,61.6099974617463,2|0,0:2|0:2,0:2:0:0:
366,194,84383,2,0,P|291:216|207:214,1,123.219994923493,2|8,0:2|0:2,0:2:0:0:
178,184,84883,1,0,0:2:0:0:
325,123,85050,2,0,P|294:126|264:134,1,61.6099974617463,2|0,0:2|0:2,0:2:0:0:
406,48,85383,5,0,1:2:0:0:
440,139,85550,1,2,0:3:0:0:
400,228,85716,1,2,0:3:0:0:
435,334,85883,1,2,0:3:0:0:
331,150,86050,1,8,0:2:0:0:
331,150,86383,6,0,P|327:222|323:245,1,61.6099974617463,2|0,1:2|0:2,0:2:0:0:
245,105,86716,2,0,P|245:135|247:166,1,61.6099974617463,2|0,0:2|0:2,0:2:0:0:
170,53,87050,2,0,P|160:140|155:205,1,123.219994923493,2|8,0:2|0:2,0:2:0:0:
174,254,87550,1,0,0:2:0:0:
86,139,87716,2,0,P|88:169|88:200,1,61.6099974617463,0|0,0:2|0:2,0:2:0:0:
27,363,88050,5,0,1:2:0:0:
114,323,88216,1,0,0:2:0:0:
36,277,88383,1,2,0:3:0:0:
224,330,88550,1,2,0:3:0:0:
0,210,88716,1,8,0:2:0:0:
0,210,89050,6,0,P|66:193|80:193,1,61.6099974617463,2|0,1:2|0:2,0:2:0:0:
258,219,89383,1,2,0:2:0:0:
258,219,89716,6,0,P|216:213|175:199,1,84.8399974108887,2|0,0:2|0:2,0:2:0:0:
175,199,90550,1,0,0:2:0:0:
175,199,90716,1,0,0:2:0:0:
396,68,91050,6,0,P|405:119|409:134,1,36.3600008876953,2|0,0:2|0:2,0:2:0:0:
324,56,91383,2,0,P|332:126|340:161,1,72.7200017753907,2|0,0:2|0:2,0:2:0:0:
254,16,91883,2,0,P|251:77|256:135,1,109.080002663086,2|0,0:2|0:2,0:2:0:0:
281,198,92716,1,2,0:2:0:0:
281,198,93050,2,0,P|273:268|265:303,1,72.7200017753907,2|0,0:2|0:2,0:2:0:0:
212,317,93550,5,2,0:2:0:0:
157,264,93716,2,0,P|200:252|206:252,1,36.3600008876953,2|0,0:2|0:2,0:2:0:0:
142,332,94050,2,0,P|99:324|59:307,1,72.7200017753907,2|0,0:2|0:2,0:2:0:0:
103,217,94550,2,0,P|24:246|-10:252,1,109.080002663086,2|0,0:2|0:2,0:2:0:0:
159,113,95383,5,10,0:2:0:0:
237,143,95550,2,0,P|174:154|150:185,1,82.8200012637329,0|0,3:2|0:2,0:2:0:0:
311,258,96050,5,0,1:2:0:0:
372,153,96216,1,0,0:2:0:0:
311,258,96383,2,0,P|322:321|328:335,1,46.4599984403687,2|0,0:2|0:2,0:2:0:0:
264,154,96716,2,0,P|262:177|258:199,1,46.4599984403687,10|0,0:2|0:2,0:2:0:0:
304,91,97050,1,2,1:2:0:0:
304,91,97216,2,0,P|243:141|163:104,1,139.379995321106,2|0,0:2|0:2,0:2:0:0:
188,129,98050,6,0,P|198:74|198:62,1,46.4599984403687,10|0,0:2|0:2,0:2:0:0:
123,111,98383,2,0,P|133:56|133:44,1,46.4599984403687,2|0,0:2|0:2,0:2:0:0:
213,201,98716,5,0,1:2:0:0:
148,229,98883,1,0,0:2:0:0:
244,327,99050,1,2,0:2:0:0:
121,355,99216,1,0,0:2:0:0:
244,327,99383,2,0,P|306:342|314:348,1,46.4599984403687,10|0,0:2|0:2,0:2:0:0:
173,300,99716,1,2,1:2:0:0:
173,300,99883,2,0,P|246:295|282:226,1,139.379995321106,2|0,0:2|0:2,0:2:0:0:
280,244,100716,5,10,0:2:0:0:
185,35,101383,6,0,B|83:37|159:85|44:81,1,139.379995321106,2|0,1:2|0:2,0:2:0:0:
173,113,102050,1,10,0:2:0:0:
294,76,102216,1,2,0:2:0:0:
333,202,102383,1,2,1:2:0:0:
212,239,102549,1,2,0:2:0:0:
250,156,102716,6,0,P|302:161|339:169,1,46.4599984403687,2|0,0:2|0:2,0:2:0:0:
223,84,103050,2,0,P|246:82|269:79,1,46.4599984403687,2|0,0:2|0:2,0:2:0:0:
37,126,103383,2,0,P|107:132|175:143,1,139.379995321106,10|0,0:2|0:2,0:2:0:0:
84,56,104050,5,2,1:2:0:0:
132,207,104216,1,2,0:2:0:0:
250,66,104383,1,2,0:2:0:0:
159,117,104550,1,2,0:2:0:0:
320,222,104716,1,10,0:2:0:0:
252,156,104883,1,2,0:2:0:0:
176,332,105050,1,2,1:2:0:0:
248,252,105216,1,2,0:2:0:0:
94,307,105383,6,0,P|42:297|34:295,1,46.4599984403687,2|0,0:2|0:2,0:2:0:0:
108,241,105716,2,0,P|85:237|62:232,1,46.4599984403687,2|0,0:2|0:2,0:2:0:0:
298,271,106050,2,0,P|198:284|157:292,1,139.379995321106,10|0,0:2|0:2,0:2:0:0:
247,201,106716,5,2,1:2:0:0:
375,262,106883,1,2,0:2:0:0:
319,178,107050,1,2,0:2:0:0:
423,131,107216,1,2,0:2:0:0:
338,102,107383,2,0,P|346:46|346:28,1,46.4599984403687,10|0,0:2|0:2,0:2:0:0:
405,206,107716,1,2,1:2:0:0:
339,101,107883,1,2,0:2:0:0:
405,206,108050,6,0,P|407:229|412:251,1,46.4599984403687,2|0,0:2|0:2,0:2:0:0:
340,229,108383,2,0,P|342:252|347:274,1,46.4599984403687,2|0,0:2|0:2,0:2:0:0:
235,149,108716,2,0,P|220:241|214:309,1,139.379995321106,10|0,0:2|0:2,0:2:0:0:
130,163,109383,5,2,1:2:0:0:
41,136,109550,1,2,0:2:0:0:
11,232,109716,1,2,0:2:0:0:
100,259,109883,1,2,0:2:0:0:
235,149,110050,1,10,0:2:0:0:
324,122,110217,1,2,0:2:0:0:
354,218,110383,1,2,1:2:0:0:
265,245,110550,1,2,0:2:0:0:
152,95,110716,6,0,P|163:44|173:21,1,46.4599984403687,2|0,0:2|0:2,0:2:0:0:
220,123,111050,2,0,P|231:72|241:49,1,46.4599984403687,2|0,0:2|0:2,0:2:0:0:
79,204,111383,2,0,P|68:153|58:130,1,46.4599984403687,10|0,0:2|0:2,0:2:0:0:
11,232,111717,2,0,P|0:181|-10:158,1,46.4599984403687,2|0,0:2|0:2,0:2:0:0:
154,308,112050,6,0,P|201:315|258:347,1,105.039999358887,2|2,0:2|0:2,0:2:0:0:
319,358,112883,1,2,0:2:0:0:
384,328,113050,1,2,0:2:0:0:
402,261,113216,1,2,0:2:0:0:
362,203,113383,2,0,P|358:239|355:245,1,26.2599998397217,2|0,0:2|0:2,0:2:0:0:
288,212,113716,2,0,P|293:254|297:281,1,52.5199996794434,2|0,0:2|0:2,0:2:0:0:
170,175,114383,2,0,P|163:208|160:218,1,26.2599998397217,0|0,0:2|0:2,0:2:0:0:
184,271,114716,1,0,0:2:0:0:
184,271,115050,5,2,0:2:0:0:
117,276,115216,1,2,0:2:0:0:
87,334,115383,1,2,0:2:0:0:
153,333,115550,1,2,0:2:0:0:
212,367,115716,1,2,0:2:0:0:
279,357,115883,1,2,0:2:0:0:
325,311,116050,2,0,P|317:274|315:262,1,26.2599998397217,2|0,0:2|0:2,0:2:0:0:
399,320,116383,2,0,P|391:283|387:251,1,52.5199996794434,2|0,0:2|0:2,0:2:0:0:
428,126,117050,1,0,0:2:0:0:
428,126,117383,6,0,P|350:148|293:147,1,127.259996116333,2|0,0:2|0:2,0:2:0:0:
252,195,118716,2,0,P|174:173|117:174,1,127.259996116333,2|0,0:2|0:2,0:2:0:0:
98,110,120050,6,0,P|46:179|50:230,1,127.259996116333,2|0,0:2|0:2,0:2:0:0:
103,257,121383,2,0,P|92:294|88:335,1,63.6299980581666,2|0,0:2|0:2,0:2:0:0:
16,332,122050,6,0,B|120:316|57:388|203:365,1,154.530000943176,8|0,0:2|0:2,0:2:0:0:
292,139,122716,5,4,1:2:0:0:
367,124,122883,1,2,0:3:0:0:
384,199,123049,1,2,0:3:0:0:
308,212,123216,1,2,0:3:0:0:
454,128,123383,1,8,0:2:0:0:
164,66,123716,5,2,1:2:0:0:
292,139,123883,1,2,0:2:0:0:
164,66,124049,2,0,P|174:134|175:155,1,61.6099974617463,2|0,0:2|0:2,0:2:0:0:
235,69,124383,2,0,P|245:137|246:158,1,61.6099974617463,2|0,0:2|0:2,0:2:0:0:
21,254,124716,2,0,P|31:186|32:165,1,61.6099974617463,10|0,0:2|0:2,0:2:0:0:
92,251,125050,2,0,P|102:183|103:162,1,61.6099974617463,2|0,0:2|0:2,0:2:0:0:
367,311,125383,5,0,1:2:0:0:
296,282,125550,1,0,0:0:0:0:
159,292,125716,1,2,0:3:0:0:
230,321,125883,1,2,0:3:0:0:
165,364,126049,1,8,0:2:0:0:
362,242,126216,5,2,0:2:0:0:
296,366,126383,1,2,1:2:0:0:
430,289,126549,1,2,0:2:0:0:
216,261,126716,2,0,P|230:326|231:347,1,61.6099974617463,2|0,0:2|0:2,0:2:0:0:
318,160,127049,2,0,P|300:246|293:328,1,123.219994923493,2|8,0:2|0:2,0:2:0:0:
295,281,127549,1,0,0:2:0:0:
129,225,127716,2,0,P|143:290|144:311,1,61.6099974617463,2|0,0:2|0:2,0:2:0:0:
262,128,128049,5,0,1:2:0:0:
238,51,128216,1,2,0:3:0:0:
318,205,128383,1,2,0:3:0:0:
342,128,128550,1,2,0:3:0:0:
219,283,128716,1,8,0:2:0:0:
219,283,129049,6,0,P|287:298|298:301,1,61.6099974617463,2|0,1:2|0:2,0:2:0:0:
168,219,129383,2,0,P|236:204|247:201,1,61.6099974617463,2|0,0:2|0:2,0:2:0:0:
92,325,129716,2,0,P|174:352|236:356,1,123.219994923493,2|8,0:2|0:2,0:2:0:0:
210,355,130216,1,0,0:2:0:0:
341,326,130383,2,0,P|273:341|262:344,1,61.6099974617463,2|0,0:2|0:2,0:2:0:0:
411,361,130716,5,0,1:2:0:0:
341,257,130883,1,0,0:2:0:0:
371,109,131049,1,2,0:3:0:0:
411,197,131216,1,2,0:3:0:0:
269,113,131383,1,8,0:2:0:0:
398,28,131549,5,2,0:2:0:0:
326,179,131716,1,2,1:2:0:0:
209,181,131883,1,2,0:2:0:0:
154,30,132049,1,2,0:2:0:0:
187,208,132216,1,2,0:2:0:0:
113,336,132383,2,0,P|112:269|117:255,1,61.6099974617463,2|0,0:2|0:2,0:2:0:0:
189,56,132716,2,0,P|192:87|187:117,1,61.6099974617463,10|0,0:2|0:2,0:2:0:0:
260,65,133049,2,0,P|263:96|258:126,1,61.6099974617463,2|0,0:2|0:2,0:2:0:0:
197,283,133383,5,4,1:2:0:0:
262,202,133549,1,2,0:3:0:0:
273,277,133716,1,2,0:3:0:0:
187,208,133883,1,2,0:3:0:0:
299,344,134049,1,8,0:2:0:0:
340,284,134216,5,2,0:2:0:0:
236,337,134383,1,2,1:2:0:0:
144,384,134549,1,2,0:2:0:0:
408,322,134716,2,0,P|414:380|420:411,1,61.6099974617463,2|0,0:2|0:2,0:2:0:0:
338,308,135050,2,0,P|344:366|350:397,1,61.6099974617463,2|0,0:2|0:2,0:2:0:0:
172,289,135383,2,0,P|166:347|160:378,1,61.6099974617463,10|0,0:2|0:2,0:2:0:0:
242,275,135717,2,0,P|236:333|230:364,1,61.6099974617463,2|0,0:2|0:2,0:2:0:0:
316,129,136049,5,0,1:2:0:0:
338,198,136216,1,0,0:2:0:0:
146,172,136383,1,2,0:3:0:0:
168,103,136550,1,2,0:3:0:0:
243,172,136716,1,8,0:2:0:0:
109,276,136883,5,2,0:2:0:0:
201,239,137050,1,2,1:2:0:0:
246,336,137216,1,2,0:2:0:0:
149,375,137383,2,0,P|118:371|88:363,1,61.6099974617463,2|0,0:2|0:2,0:2:0:0:
246,336,137716,2,0,P|321:314|405:316,1,123.219994923493,2|8,0:2|0:2,0:2:0:0:
365,311,138216,1,0,0:2:0:0:
495,354,138383,2,0,P|464:351|434:343,1,61.6099974617463,2|0,0:2|0:2,0:2:0:0:
269,239,138716,5,0,1:2:0:0:
421,158,138883,1,2,0:3:0:0:
282,85,139050,1,2,0:3:0:0:
422,233,139216,1,2,0:3:0:0:
219,297,139383,1,8,0:2:0:0:
219,297,139716,6,0,P|213:334|211:363,1,61.6099974617463,2|0,1:2|0:2,0:2:0:0:
179,167,140050,2,0,P|184:197|186:228,1,61.6099974617463,2|0,0:2|0:2,0:2:0:0:
257,18,140383,2,0,P|251:79|244:140,1,123.219994923493,2|8,0:2|0:2,0:2:0:0:
244,140,140883,1,0,0:2:0:0:
282,257,141050,2,0,P|284:226|289:195,1,61.6099974617463,0|0,0:2|0:2,0:2:0:0:
177,95,141383,5,0,1:2:0:0:
107,215,141550,1,0,0:2:0:0:
64,151,141717,1,2,0:3:0:0:
200,231,141883,1,2,0:3:0:0:
52,339,142050,1,8,0:2:0:0:
52,339,142383,6,0,P|122:348|137:355,1,61.6099974617463,2|2,1:2|0:0,0:0:0:0:
67,262,142716,2,0,P|137:271|152:278,1,61.6099974617463,2|0,0:2|0:0,0:0:0:0:
317,297,143050,2,0,P|221:309|186:373,1,123.219994923493,2|8,0:2|0:0,0:0:0:0:
205,324,143550,1,0,0:0:0:0:
486,274,143716,2,0,P|425:279|374:246,1,123.219994923493,2|0,0:0|0:0,0:0:0:0:
