osu file format v14

[General]
AudioFilename: audio.mp3
AudioLeadIn: 0
PreviewTime: 26050
Countdown: 0
SampleSet: Soft
StackLeniency: 0.4
Mode: 0
LetterboxInBreaks: 0
WidescreenStoryboard: 1

[Editor]
Bookmarks: 5383,26716,48050,58716,69383
DistanceSpacing: 1
BeatDivisor: 8
GridSize: 4
TimelineZoom: 1.8

[Metadata]
Title:Sunflower
TitleUnicode:Sunflower
Artist:Post Malone, Swae Lee
ArtistUnicode:Post Malone, Swae Lee
Creator:Morrighan
Version:Normal
Source:Spider-Man: Into The Spider-Verse
Tags:Hip Hop English HipHop Hip-Hop Pop PostMalone big L r&b rae sremmurd trap ballad carter lang louis bell spiderman spider man spiderverse spider verse marvel super hero superhero single soundtrack ost miles morales hollywood hollywood's bleeding elicz1
BeatmapID:3039069
BeatmapSetID:1450998

[Difficulty]
HPDrainRate:4
CircleSize:3.4
OverallDifficulty:4.5
ApproachRate:5.5
SliderMultiplier:2
SliderTickRate:1

[Events]
//Background and Video events
0,0,"bg.jpg",0,0
Video,-1472,"video.mp4"
//Break Periods
2,48082,57591
//Storyboard Layer 0 (Background)
//Storyboard Layer 1 (Fail)
//Storyboard Layer 2 (Pass)
//Storyboard Layer 3 (Foreground)
//Storyboard Layer 4 (Overlay)
//Storyboard Sound Samples

[TimingPoints]
50,666.666666666667,4,2,2,20,1,0
1716,-100,4,2,3,20,0,0
1883,-100,4,2,2,20,0,0
2050,-100,4,2,3,20,0,0
2550,-100,4,2,2,20,0,0
3716,-100,4,2,2,22,0,0
4050,-100,4,2,2,24,0,0
4383,-100,4,2,3,24,0,0
4716,-100,4,2,2,26,0,0
5383,-111.111111111111,4,2,2,30,0,0
6716,-111.111111111111,4,2,3,30,0,0
6883,-111.111111111111,4,2,2,30,0,0
7050,-111.111111111111,4,2,3,30,0,0
7216,-111.111111111111,4,2,2,30,0,0
9716,-111.111111111111,4,2,3,30,0,0
9883,-111.111111111111,4,2,2,30,0,0
10216,-111.111111111111,4,2,3,30,0,0
10383,-111.111111111111,4,2,2,30,0,0
12050,-111.111111111111,4,2,3,30,0,0
12216,-111.111111111111,4,2,2,30,0,0
12383,-111.111111111111,4,2,3,30,0,0
12550,-111.111111111111,4,2,2,30,0,0
15050,-111.111111111111,4,2,3,30,0,0
15216,-111.111111111111,4,2,2,30,0,0
15550,-111.111111111111,4,2,3,30,0,0
15716,-111.111111111111,4,2,2,30,0,0
17383,-111.111111111111,4,2,3,30,0,0
17550,-111.111111111111,4,2,2,30,0,0
17716,-111.111111111111,4,2,3,30,0,0
17883,-111.111111111111,4,2,2,30,0,0
20383,-111.111111111111,4,2,3,30,0,0
20550,-111.111111111111,4,2,2,30,0,0
20883,-111.111111111111,4,2,3,30,0,0
21050,-111.111111111111,4,2,2,30,0,0
22716,-111.111111111111,4,2,3,30,0,0
22883,-111.111111111111,4,2,2,30,0,0
23050,-111.111111111111,4,2,3,30,0,0
23216,-111.111111111111,4,2,2,30,0,0
25716,-111.111111111111,4,2,3,30,0,0
25883,-111.111111111111,4,2,2,30,0,0
26216,-111.111111111111,4,2,3,30,0,0
26383,-111.111111111111,4,2,2,30,0,0
26716,-90.9090909090909,4,2,2,40,0,1
28050,-90.9090909090909,4,2,3,40,0,1
28216,-90.9090909090909,4,2,2,40,0,1
28383,-90.9090909090909,4,2,3,40,0,1
28550,-90.9090909090909,4,2,2,40,0,1
28716,-90.9090909090909,4,2,3,40,0,1
28883,-90.9090909090909,4,2,2,40,0,1
31050,-90.9090909090909,4,2,3,40,0,1
31216,-90.9090909090909,4,2,2,40,0,1
31550,-90.9090909090909,4,2,3,40,0,1
31716,-90.9090909090909,4,2,2,40,0,1
33383,-90.9090909090909,4,2,3,40,0,1
33550,-90.9090909090909,4,2,2,40,0,1
33716,-90.9090909090909,4,2,3,40,0,1
33883,-90.9090909090909,4,2,2,40,0,1
34050,-90.9090909090909,4,2,3,40,0,1
34216,-90.9090909090909,4,2,2,40,0,1
36383,-90.9090909090909,4,2,3,40,0,1
36550,-90.9090909090909,4,2,2,40,0,1
36883,-90.9090909090909,4,2,3,40,0,1
37050,-90.9090909090909,4,2,2,40,0,1
38716,-90.9090909090909,4,2,3,40,0,1
38883,-90.9090909090909,4,2,2,40,0,1
39050,-90.9090909090909,4,2,3,40,0,1
39216,-90.9090909090909,4,2,2,40,0,1
39383,-90.9090909090909,4,2,3,40,0,1
39550,-90.9090909090909,4,2,2,40,0,1
41716,-90.9090909090909,4,2,3,40,0,1
41883,-90.9090909090909,4,2,2,40,0,1
42216,-90.9090909090909,4,2,3,40,0,1
42383,-90.9090909090909,4,2,2,40,0,1
44050,-90.9090909090909,4,2,3,40,0,1
44216,-90.9090909090909,4,2,2,40,0,1
44383,-90.9090909090909,4,2,3,40,0,1
44550,-90.9090909090909,4,2,2,40,0,1
44716,-90.9090909090909,4,2,3,40,0,1
44883,-90.9090909090909,4,2,2,40,0,1
47050,-90.9090909090909,4,2,3,40,0,1
47216,-90.9090909090909,4,2,2,40,0,1
47550,-90.9090909090909,4,2,3,40,0,1
47716,-90.9090909090909,4,2,2,40,0,1
48050,-100,4,2,1,25,0,0
58716,-125,4,2,1,18,0,0
68716,-125,4,2,2,30,0,0
68883,-125,4,2,1,25,0,0
69383,-83.3333333333333,4,2,2,40,0,1
70716,-83.3333333333333,4,2,3,40,0,1
70883,-83.3333333333333,4,2,2,40,0,1
71050,-83.3333333333333,4,2,3,40,0,1
71216,-83.3333333333333,4,2,2,40,0,1
71383,-83.3333333333333,4,2,3,40,0,1
71550,-83.3333333333333,4,2,2,40,0,1
71716,-83.3333333333333,4,2,3,40,0,1
71883,-83.3333333333333,4,2,2,40,0,1
73716,-83.3333333333333,4,2,3,40,0,1
73883,-83.3333333333333,4,2,2,40,0,1
74216,-83.3333333333333,4,2,3,40,0,1
74383,-83.3333333333333,4,2,2,40,0,1
76050,-83.3333333333333,4,2,3,40,0,1
76216,-83.3333333333333,4,2,2,40,0,1
76383,-83.3333333333333,4,2,3,40,0,1
76550,-83.3333333333333,4,2,2,40,0,1
77050,-83.3333333333333,4,2,3,40,0,1
77216,-83.3333333333333,4,2,2,40,0,1
79050,-83.3333333333333,4,2,3,40,0,1
79216,-83.3333333333333,4,2,2,40,0,1
79550,-83.3333333333333,4,2,3,40,0,1
79716,-83.3333333333333,4,2,2,40,0,1
81383,-83.3333333333333,4,2,3,40,0,1
81550,-83.3333333333333,4,2,2,40,0,1
81716,-83.3333333333333,4,2,3,40,0,1
81883,-83.3333333333333,4,2,2,40,0,1
82050,-83.3333333333333,4,2,3,40,0,1
82216,-83.3333333333333,4,2,2,40,0,1
82383,-83.3333333333333,4,2,3,40,0,1
82550,-83.3333333333333,4,2,2,40,0,1
84383,-83.3333333333333,4,2,3,40,0,1
84550,-83.3333333333333,4,2,2,40,0,1
84883,-83.3333333333333,4,2,3,40,0,1
85050,-83.3333333333333,4,2,2,40,0,1
86716,-83.3333333333333,4,2,3,40,0,1
86883,-83.3333333333333,4,2,2,40,0,1
87050,-83.3333333333333,4,2,3,40,0,1
87216,-83.3333333333333,4,2,2,40,0,1
87716,-83.3333333333333,4,2,3,40,0,1
87883,-83.3333333333333,4,2,2,40,0,1
89383,-83.3333333333333,4,2,1,30,0,1
89716,-100,4,2,1,30,0,0
90716,-100,4,2,1,25,0,0
95383,-100,4,2,2,30,0,0
97383,-100,4,2,3,30,0,0
97550,-100,4,2,2,30,0,0
97716,-100,4,2,3,30,0,0
97883,-100,4,2,2,30,0,0
100383,-100,4,2,3,30,0,0
100550,-100,4,2,2,30,0,0
101050,-100,4,2,2,25,0,0
101383,-100,4,2,2,30,0,0
102716,-100,4,2,3,30,0,0
102883,-100,4,2,2,30,0,0
103050,-100,4,2,3,30,0,0
103216,-100,4,2,2,30,0,0
105716,-100,4,2,3,30,0,0
105883,-100,4,2,2,30,0,0
106216,-100,4,2,3,30,0,0
106383,-100,4,2,2,30,0,0
108050,-100,4,2,3,30,0,0
108216,-100,4,2,2,30,0,0
108383,-100,4,2,3,30,0,0
108550,-100,4,2,2,30,0,0
111050,-100,4,2,3,30,0,0
111216,-100,4,2,2,30,0,0
111550,-100,4,2,3,30,0,0
111716,-100,4,2,2,30,0,0
112050,-90.9090909090909,4,2,1,30,0,0
117383,-90.9090909090909,4,2,1,25,0,0
122050,-90.9090909090909,4,2,2,30,0,0
122133,-90.9090909090909,4,2,1,25,0,0
122716,-83.3333333333333,4,2,2,45,0,1
124050,-83.3333333333333,4,2,3,45,0,1
124216,-83.3333333333333,4,2,2,45,0,1
124383,-83.3333333333333,4,2,3,45,0,1
124550,-83.3333333333333,4,2,2,45,0,1
124716,-83.3333333333333,4,2,3,45,0,1
124883,-83.3333333333333,4,2,2,45,0,1
125050,-83.3333333333333,4,2,3,45,0,1
125216,-83.3333333333333,4,2,2,45,0,1
127050,-83.3333333333333,4,2,3,45,0,1
127216,-83.3333333333333,4,2,2,45,0,1
127550,-83.3333333333333,4,2,3,45,0,1
127716,-83.3333333333333,4,2,2,45,0,1
129383,-83.3333333333333,4,2,3,45,0,1
129550,-83.3333333333333,4,2,2,45,0,1
129716,-83.3333333333333,4,2,3,45,0,1
129883,-83.3333333333333,4,2,2,45,0,1
130383,-83.3333333333333,4,2,3,45,0,1
130550,-83.3333333333333,4,2,2,45,0,1
132383,-83.3333333333333,4,2,3,45,0,1
132550,-83.3333333333333,4,2,2,45,0,1
132883,-83.3333333333333,4,2,3,45,0,1
133050,-83.3333333333333,4,2,2,45,0,1
134716,-83.3333333333333,4,2,3,45,0,1
134883,-83.3333333333333,4,2,2,45,0,1
135050,-83.3333333333333,4,2,3,45,0,1
135216,-83.3333333333333,4,2,2,45,0,1
135383,-83.3333333333333,4,2,3,45,0,1
135550,-83.3333333333333,4,2,2,45,0,1
135716,-83.3333333333333,4,2,3,45,0,1
135883,-83.3333333333333,4,2,2,45,0,1
137716,-83.3333333333333,4,2,3,45,0,1
137883,-83.3333333333333,4,2,2,45,0,1
138216,-83.3333333333333,4,2,3,45,0,1
138383,-83.3333333333333,4,2,2,45,0,1
140050,-83.3333333333333,4,2,3,45,0,1
140216,-83.3333333333333,4,2,2,45,0,1
140383,-83.3333333333333,4,2,3,45,0,1
140550,-83.3333333333333,4,2,2,45,0,1
141050,-83.3333333333333,4,2,3,45,0,1
141216,-83.3333333333333,4,2,2,45,0,1
142716,-83.3333333333333,4,2,2,40,0,1
144050,-100,4,2,1,25,0,0

[Colours]
Combo1 : 160,0,0
Combo2 : 0,0,128
Combo3 : 0,0,255
Combo4 : 255,0,0

[HitObjects]
29,41,5383,6,0,L|125:50,1,89.9999972534181,6|0,1:2|3:2,0:0:0:0:
208,58,6050,1,8,3:2:0:0:
297,67,6383,1,6,1:2:0:0:
340,145,6716,6,0,P|295:154|251:180,1,89.9999972534181,2|0,3:2|3:2,0:0:0:0:
221,203,7216,1,2,3:2:0:0:
221,203,7383,1,8,3:2:0:0:
158,138,7716,1,2,3:3:0:0:
71,162,8050,6,0,P|51:206|57:245,1,89.9999972534181,2|6,1:2|3:2,0:0:0:0:
110,318,8716,1,10,3:2:0:0:
195,288,9050,1,6,1:2:0:0:
145,213,9383,2,0,P|149:166|166:117,3,89.9999972534181,2|2|10|4,3:2|3:2|3:2|3:2,0:0:0:0:
230,67,10716,6,0,L|326:76,1,89.9999972534181,6|0,1:2|3:2,0:0:0:0:
409,84,11383,1,8,3:2:0:0:
498,93,11716,1,6,1:2:0:0:
485,182,12050,6,0,P|482:227|495:277,1,89.9999972534181,2|0,3:2|3:2,0:0:0:0:
511,311,12550,1,2,3:2:0:0:
511,311,12717,1,8,3:2:0:0:
425,339,13050,1,2,3:3:0:0:
344,299,13383,6,0,P|332:244|313:206,1,89.9999972534181,2|4,1:2|3:2,0:0:0:0:
236,174,14050,1,8,3:2:0:0:
186,249,14383,2,0,P|198:304|217:342,1,89.9999972534181,6|0,1:2|3:2,0:0:0:0:
293,374,15050,1,2,3:2:0:0:
344,299,15383,2,0,B|365:310|365:310|380:333,2,44.999998626709,10|2|4,3:2|3:2|3:2,0:0:0:0:
254,290,16050,6,0,L|263:194,1,89.9999972534181,6|0,1:2|3:2,0:0:0:0:
271,111,16717,1,8,3:2:0:0:
280,23,17050,1,6,1:2:0:0:
190,18,17383,6,0,P|145:27|101:53,1,89.9999972534181,2|0,3:2|3:2,0:0:0:0:
71,76,17883,1,2,3:2:0:0:
71,76,18050,1,8,3:2:0:0:
122,149,18383,1,2,3:3:0:0:
55,209,18716,6,0,P|113:197|236:201,1,179.999994506836,2|8,1:2|3:2,0:0:0:0:
321,219,19716,1,6,1:2:0:0:
399,263,20050,2,0,B|431:226|384:158|426:135,1,134.999995880127,2|0,3:2|3:2,0:0:0:0:
467,125,20716,2,0,B|427:146|474:214|442:251,1,134.999995880127,10|0,3:2|3:2,0:0:0:0:
399,263,21383,5,6,1:2:0:0:
321,219,21716,1,0,3:2:0:0:
279,299,22050,1,8,3:2:0:0:
357,343,22383,1,6,1:2:0:0:
399,263,22716,6,0,P|406:217|398:167,1,89.9999972534181,2|0,3:2|3:2,0:0:0:0:
387,131,23216,1,2,3:2:0:0:
387,131,23383,1,8,3:2:0:0:
297,131,23716,1,2,3:3:0:0:
231,68,24050,6,0,B|189:48|189:48|134:64,2,89.9999972534181,2|4|8,1:2|3:2|3:2,0:0:0:0:
297,131,25050,2,0,B|317:173|317:173|301:228,1,89.9999972534181,6|0,1:2|3:2,0:0:0:0:
256,290,25716,1,2,3:2:0:0:
175,330,26049,2,0,B|162:309|162:309|160:282,2,44.999998626709,14|2|4,3:2|3:2|3:2,0:0:0:0:
256,290,26716,6,0,L|320:296,1,55.0000016784668,6|2,1:2|3:2,0:0:0:0:
365,301,27050,1,2,3:2:0:0:
437,218,27383,1,10,3:2:0:0:
357,141,27716,6,0,B|327:104|327:104|324:39,1,110.000003356934,6|2,1:2|3:2,0:0:0:0:
428,5,28383,2,0,B|456:40|456:40|459:105,1,110.000003356934,2|10,3:2|3:2,0:0:0:0:
437,218,29050,1,2,3:3:0:0:
365,301,29383,6,0,L|301:307,1,55.0000016784668,2|2,1:2|3:2,0:0:0:0:
256,312,29717,1,6,3:2:0:0:
187,225,30050,1,10,3:2:0:0:
256,138,30383,1,6,1:2:0:0:
187,51,30716,6,0,L|123:44,1,55.0000016784668,2|2,3:2|3:2,0:0:0:0:
77,41,31050,1,2,3:2:0:0:
6,124,31383,2,0,B|5:150|5:150|17:176,2,55.0000016784668,10|0|4,3:2|3:2|3:2,0:0:0:0:
77,41,32050,6,0,L|141:48,1,55.0000016784668,6|2,1:2|3:2,0:0:0:0:
187,51,32384,1,2,3:2:0:0:
287,8,32716,1,10,3:2:0:0:
356,95,33049,1,6,1:2:0:0:
300,190,33383,6,0,P|262:208|244:209,1,55.0000016784668,2|2,3:2|3:2,0:0:0:0:
194,207,33716,2,0,P|154:192|140:180,1,55.0000016784668,2|2,3:2|3:2,0:0:0:0:
113,138,34050,1,10,3:2:0:0:
220,113,34383,1,2,3:3:0:0:
306,45,34716,6,0,B|347:21|347:21|412:30,1,110.000003356934,2|6,1:2|3:2,0:0:0:0:
426,138,35383,2,0,B|386:159|386:159|322:151,1,110.000003356934,10|6,3:2|1:2,0:0:0:0:
220,113,36050,6,0,P|185:136|175:151,1,55.0000016784668,2|2,3:2|3:2,0:0:0:0:
152,196,36383,2,0,P|144:237|148:255,1,55.0000016784668,2|2,3:2|3:2,0:0:0:0:
171,301,36716,2,0,B|172:327|172:327|160:353,2,55.0000016784668,10|0|4,3:2|3:2|3:2,0:0:0:0:
152,196,37383,6,0,L|88:203,1,55.0000016784668,6|2,1:2|3:2,0:0:0:0:
42,208,37717,1,2,3:2:0:0:
80,311,38050,1,10,3:2:0:0:
188,295,38383,1,6,1:2:0:0:
262,214,38716,6,0,L|326:221,1,55.0000016784668,2|2,3:2|3:2,0:0:0:0:
372,226,39050,1,2,3:2:0:0:
334,329,39383,1,10,3:2:0:0:
225,312,39716,1,2,3:3:0:0:
171,215,40050,6,0,L|178:151,1,55.0000016784668,2|2,1:2|3:2,0:0:0:0:
183,105,40384,1,6,3:2:0:0:
75,159,40716,1,10,3:2:0:0:
12,55,41050,1,6,1:2:0:0:
118,25,41383,6,0,L|182:18,1,55.0000016784668,2|2,3:2|3:2,0:0:0:0:
227,11,41717,1,2,3:2:0:0:
282,105,42050,2,0,B|283:131|283:131|271:157,2,55.0000016784668,10|0|4,3:2|3:2|3:2,0:0:0:0:
348,17,42716,6,0,L|412:24,1,55.0000016784668,6|2,1:2|3:2,0:0:0:0:
457,29,43050,1,2,3:2:0:0:
375,102,43383,1,10,3:2:0:0:
461,169,43716,1,6,1:2:0:0:
425,273,44050,6,0,P|383:269|367:261,1,55.0000016784668,2|2,3:2|3:2,0:0:0:0:
325,235,44383,2,0,P|297:202|291:184,1,55.0000016784668,2|2,3:2|3:2,0:0:0:0:
289,135,44717,1,10,3:2:0:0:
394,166,45050,1,2,3:3:0:0:
320,247,45383,6,0,B|279:271|279:271|214:262,1,110.000003356934,2|6,1:2|3:2,0:0:0:0:
179,158,46050,2,0,B|219:137|219:137|283:145,1,110.000003356934,10|6,3:2|1:2,0:0:0:0:
394,166,46716,6,0,P|405:125|402:107,1,55.0000016784668,2|2,3:2|3:2,0:0:0:0:
392,59,47049,2,0,P|370:22|356:10,1,55.0000016784668,2|2,3:2|3:2,0:0:0:0:
307,2,47383,1,10,3:2:0:0:
252,11,47550,1,0,3:2:0:0:
210,46,47716,2,0,P|219:85|241:109,1,55.0000016784668,4|0,3:2|3:2,0:0:0:0:
357,265,58716,6,0,L|436:271,1,80,2|0,2:2|2:2,0:0:0:0:
440,352,59383,2,0,L|356:359,1,80,2|0,2:2|2:2,0:0:0:0:
296,212,60383,1,2,2:2:0:0:
143,260,61050,1,2,2:2:0:0:
108,332,61383,6,0,L|29:339,3,80,2|2|2|2,2:2|2:2|2:2|2:2,0:0:0:0:
15,179,63050,1,2,2:2:0:0:
38,20,63716,1,2,2:2:0:0:
118,28,64050,6,0,L|214:6,3,80,2|2|2|2,2:2|2:2|2:2|2:2,0:0:0:0:
318,113,65716,2,0,L|222:91,1,80,2|0,2:2|0:0,0:0:0:0:
275,23,66383,1,2,2:2:0:0:
256,192,66716,12,0,68716,0:0:0:0:
472,247,69383,6,0,L|399:250,1,59.9999981689454,6|0,1:2|3:2,0:0:0:0:
363,214,69716,2,0,L|290:217,1,59.9999981689454,0|0,3:2|3:2,0:0:0:0:
262,261,70050,1,8,3:2:0:0:
154,313,70383,6,0,P|149:272|136:243,1,59.9999981689454,6|2,1:2|3:2,0:0:0:0:
82,264,70716,2,0,P|109:223|108:149,1,119.999996337891,2|2,3:2|3:2,0:0:0:0:
27,66,71383,1,10,3:2:0:0:
141,29,71716,1,2,3:3:0:0:
141,29,71883,1,2,3:3:0:0:
141,29,72050,6,0,P|205:43|260:71,1,119.999996337891,2|4,1:2|3:2,0:0:0:0:
329,159,72716,1,8,3:2:0:0:
359,211,72883,6,0,P|327:226|296:230,2,59.9999981689454,2|6|2,3:2|1:2|3:2,0:0:0:0:
409,177,73383,1,2,3:2:0:0:
384,294,73716,2,0,P|318:270|151:286,1,239.999992675781,2|6,3:2|3:2,0:0:0:0:
34,257,74716,6,0,L|30:184,1,59.9999981689454,6|0,1:2|3:2,0:0:0:0:
67,148,75049,2,0,L|64:75,1,59.9999981689454,0|0,3:2|3:2,0:0:0:0:
20,47,75383,1,8,3:2:0:0:
132,6,75716,6,0,P|151:30|164:74,1,59.9999981689454,6|2,1:2|3:2,0:0:0:0:
148,116,76050,1,2,3:2:0:0:
263,148,76383,2,0,P|302:120|324:48,2,119.999996337891,2|8|2,3:2|3:2|3:3,0:0:0:0:
227,262,77383,6,0,L|299:265,1,59.9999981689454,2|0,1:2|3:2,0:0:0:0:
333,304,77716,2,0,L|405:307,1,59.9999981689454,4|0,3:2|3:2,0:0:0:0:
437,266,78050,1,8,3:2:0:0:
434,206,78216,5,2,3:2:0:0:
376,187,78383,2,0,P|379:139|385:120,1,59.9999981689454,6|2,1:2|3:2,0:0:0:0:
436,101,78716,2,0,P|404:64|394:47,1,59.9999981689454,2|2,3:2|3:2,0:0:0:0:
432,4,79050,1,2,3:2:0:0:
312,5,79383,2,0,P|245:16|182:39,1,119.999996337891,10|6,3:2|3:2,0:0:0:0:
120,126,80050,6,0,L|116:198,1,59.9999981689454,6|0,1:2|3:2,0:0:0:0:
78,232,80383,2,0,L|74:304,1,59.9999981689454,0|0,3:2|3:2,0:0:0:0:
116,336,80717,1,8,3:2:0:0:
174,348,80883,5,2,3:2:0:0:
228,321,81050,2,0,P|244:282|247:251,1,59.9999981689454,6|2,1:2|3:2,0:0:0:0:
190,242,81383,2,0,P|233:219|270:155,1,119.999996337891,2|2,3:2|3:2,0:0:0:0:
242,43,82050,1,10,3:2:0:0:
364,17,82383,1,2,3:3:0:0:
417,44,82550,1,2,3:3:0:0:
444,97,82717,6,0,P|430:161|402:216,1,119.999996337891,2|4,1:2|3:2,0:0:0:0:
311,283,83383,1,8,3:2:0:0:
258,312,83550,6,0,P|242:280|238:249,2,59.9999981689454,2|6|2,3:2|1:2|3:2,0:0:0:0:
293,361,84050,1,2,3:2:0:0:
177,329,84383,2,0,P|201:263|185:95,1,239.999992675781,2|6,3:2|3:2,0:0:0:0:
280,22,85383,6,0,L|352:26,1,59.9999981689454,6|0,1:2|3:2,0:0:0:0:
386,64,85716,2,0,L|458:68,1,59.9999981689454,0|0,3:2|3:2,0:0:0:0:
490,26,86050,1,8,3:2:0:0:
465,143,86383,6,0,P|460:173|471:217,1,59.9999981689454,6|2,1:2|3:2,0:0:0:0:
506,246,86717,1,2,3:2:0:0:
423,331,87050,2,0,P|375:326|320:274,2,119.999996337891,2|8|2,3:2|3:2|3:3,0:0:0:0:
417,210,88050,6,0,L|345:206,1,59.9999981689454,2|0,1:2|3:2,0:0:0:0:
311,168,88383,2,0,L|239:164,1,59.9999981689454,4|0,3:2|3:2,0:0:0:0:
207,206,88717,1,8,3:2:0:0:
101,149,89050,6,0,P|96:118|107:74,1,59.9999981689454,6|2,1:2|3:2,0:0:0:0:
142,47,89384,1,2,2:2:0:0:
432,144,91050,6,0,P|468:138|495:143,2,50,2|2|2,2:2|2:2|2:2,0:0:0:0:
338,179,91716,1,6,2:2:0:0:
338,179,91883,2,0,P|302:173|275:178,1,50,2|0,2:2|0:0,0:0:0:0:
209,235,92383,2,0,P|169:239|168:189,2,100,2|2|2,2:2|2:2|2:2,0:0:0:0:
305,261,93383,1,2,2:2:0:0:
350,281,93550,5,2,2:2:0:0:
394,257,93716,2,0,P|400:221|380:157,1,100,6|2,2:2|2:2,0:0:0:0:
383,64,94383,1,6,2:2:0:0:
383,64,94550,2,0,P|419:58|446:63,1,50,2|0,2:2|0:0,0:0:0:0:
485,144,95050,1,2,2:2:0:0:
488,243,95383,6,0,P|493:270|489:298,1,50,10|2,3:2|3:2,0:0:0:0:
448,319,95716,1,6,3:2:0:0:
358,273,96050,5,6,1:2:0:0:
394,180,96383,2,0,P|383:152|352:124,1,50,2|0,3:2|3:2,0:0:0:0:
320,137,96716,2,0,P|287:130|266:108,1,50,10|0,3:2|3:2,0:0:0:0:
276,69,97050,1,6,1:2:0:0:
276,69,97216,2,0,P|245:29|203:3,1,100,2|0,3:2|3:2,0:0:0:0:
157,22,97716,2,0,P|133:67|91:98,2,100,2|10|2,3:2|3:2|3:3,0:0:0:0:
58,2,98716,5,2,1:2:0:0:
6,87,99050,2,0,P|17:115|48:143,1,50,6|0,3:2|3:2,0:0:0:0:
80,130,99383,2,0,P|113:137|134:159,1,50,10|0,3:2|3:2,0:0:0:0:
124,198,99717,1,6,1:2:0:0:
124,198,99883,2,0,P|154:237|196:263,1,100,2|0,3:2|3:2,0:0:0:0:
243,245,100383,2,0,P|267:200|309:169,1,100,2|10,3:2|3:2,0:0:0:0:
397,131,101050,1,6,2:2:0:0:
477,190,101383,6,0,P|467:234|464:254,1,50,6|0,1:2|3:2,0:0:0:0:
422,262,101716,2,0,P|432:306|435:326,1,50,0|0,3:2|3:2,0:0:0:0:
469,345,102050,5,10,3:2:0:0:
454,384,102216,1,2,3:2:0:0:
403,381,102383,2,0,P|373:363|363:342,1,50,6|2,1:2|3:2,0:0:0:0:
374,301,102716,1,2,3:2:0:0:
305,227,103050,1,2,3:2:0:0:
332,130,103383,1,10,3:2:0:0:
268,53,103716,6,0,L|215:34,1,50,2|2,3:3|3:3,0:0:0:0:
175,56,104050,6,0,P|160:84|155:104,1,50,2|2,1:2|3:2,0:0:0:0:
112,127,104383,2,0,P|127:155|132:175,1,50,6|2,3:2|3:2,0:0:0:0:
163,210,104716,1,10,3:2:0:0:
98,287,105050,2,0,P|133:307|150:329,1,50,6|2,1:2|3:2,0:0:0:0:
156,361,105383,5,2,3:2:0:0:
248,322,105716,1,2,3:2:0:0:
343,353,106050,2,0,P|348:321|348:288,2,50,10|0|0,3:2|3:2|3:2,0:0:0:0:
248,322,106716,5,6,1:2:0:0:
215,284,106883,1,2,3:2:0:0:
212,233,107050,2,0,P|237:196|259:190,1,50,2|2,3:2|3:2,0:0:0:0:
290,198,107383,1,10,3:2:0:0:
389,189,107716,1,6,1:2:0:0:
385,138,107883,1,2,3:2:0:0:
360,94,108050,6,0,P|316:85|296:96,1,50,2|0,3:2|3:2,0:0:0:0:
270,113,108383,2,0,P|226:121|206:110,1,50,2|0,3:2|3:2,0:0:0:0:
187,84,108716,1,10,3:2:0:0:
99,132,109050,6,0,L|105:184,1,50,2|2,3:3|3:3,0:0:0:0:
127,226,109383,6,0,P|90:248|73:260,1,50,2|2,1:2|3:2,0:0:0:0:
38,271,109716,2,0,P|38:314|40:334,1,50,6|2,3:2|3:2,0:0:0:0:
76,354,110050,1,10,3:2:0:0:
163,306,110383,2,0,P|200:304|212:307,1,50,6|2,1:2|3:2,0:0:0:0:
241,347,110716,5,2,3:2:0:0:
306,271,111050,1,2,3:2:0:0:
260,181,111383,1,10,3:2:0:0:
325,105,111716,1,2,3:2:0:0:
196,75,112216,5,2,3:2:0:0:
157,113,112383,2,0,P|118:111|95:103,1,55.0000016784668,2|2,3:2|3:2,0:0:0:0:
74,73,112716,2,0,P|87:132|84:187,1,110.000003356934,10|2,3:2|3:2,0:0:0:0:
8,260,113383,1,2,3:2:0:0:
224,301,114050,1,8,3:2:0:0:
440,342,114716,1,2,3:2:0:0:
396,240,115050,5,2,3:2:0:0:
373,190,115216,1,2,3:2:0:0:
389,137,115383,2,0,P|404:105|419:90,1,55.0000016784668,10|2,3:2|3:2,0:0:0:0:
465,64,115716,2,0,P|450:32|435:17,1,55.0000016784668,2|2,3:2|3:2,0:0:0:0:
382,4,116050,2,0,P|325:8|272:19,1,110.000003356934,2|2,3:2|3:2,0:0:0:0:
166,46,116716,1,8,3:2:0:0:
111,259,117383,1,2,2:2:0:0:
111,259,119383,5,2,2:2:0:0:
111,259,122716,6,0,L|184:262,1,59.9999981689454,6|0,1:2|3:2,0:0:0:0:
220,226,123049,2,0,L|293:229,1,59.9999981689454,2|0,3:2|3:2,0:0:0:0:
321,273,123383,1,8,3:2:0:0:
382,260,123550,5,2,3:2:0:0:
382,260,123716,2,0,P|398:221|401:190,1,59.9999981689454,6|2,1:2|3:2,0:0:0:0:
348,175,124049,2,0,P|391:152|428:88,1,119.999996337891,2|2,3:2|3:2,0:0:0:0:
329,23,124716,1,10,3:2:0:0:
217,42,125049,1,2,3:3:0:0:
217,42,125216,1,2,3:3:0:0:
217,42,125383,6,0,P|199:89|185:100,1,59.9999981689454,2|0,1:2|3:2,0:0:0:0:
136,115,125716,2,0,P|154:162|168:173,1,59.9999981689454,6|0,3:2|3:2,0:0:0:0:
220,168,126049,1,8,3:2:0:0:
237,225,126216,6,0,P|269:240|300:244,2,59.9999981689454,2|6|2,3:2|1:2|3:2,0:0:0:0:
184,254,126716,1,2,3:2:0:0:
274,332,127049,2,0,P|208:308|41:324,1,239.999992675781,2|2,3:2|3:2,0:0:0:0:
83,210,128049,6,0,L|78:83,1,119.999996337891,6|0,1:2|3:2,0:0:0:0:
197,105,128716,1,8,3:2:0:0:
289,28,129049,6,0,P|313:9|357:-4,1,59.9999981689454,6|2,1:2|3:2,0:0:0:0:
399,12,129383,1,2,3:2:0:0:
476,103,129716,2,0,P|471:150|419:205,2,119.999996337891,2|8|2,3:2|3:2|3:3,0:0:0:0:
356,91,130716,6,0,L|284:94,1,59.9999981689454,2|0,1:2|3:2,0:0:0:0:
250,133,131049,2,0,L|178:136,1,59.9999981689454,4|0,3:2|3:2,0:0:0:0:
146,95,131383,1,8,3:2:0:0:
94,120,131549,5,2,3:2:0:0:
94,120,131716,2,0,P|97:168|103:187,1,59.9999981689454,6|2,1:2|3:2,0:0:0:0:
154,206,132049,2,0,P|122:243|112:260,1,59.9999981689454,2|2,3:2|3:2,0:0:0:0:
150,303,132383,1,2,3:2:0:0:
268,284,132716,2,0,P|257:217|234:154,1,119.999996337891,10|6,3:2|3:2,0:0:0:0:
223,48,133383,6,0,L|362:43,1,119.999996337891,6|0,1:2|3:2,0:0:0:0:
458,75,134050,1,8,3:2:0:0:
470,133,134216,5,2,3:2:0:0:
470,133,134383,2,0,P|436:158|407:169,1,59.9999981689454,6|2,1:2|3:2,0:0:0:0:
360,155,134716,2,0,P|348:202|296:254,1,119.999996337891,2|2,3:2|3:2,0:0:0:0:
247,144,135383,1,10,3:2:0:0:
178,45,135716,1,2,3:3:0:0:
125,72,135883,1,2,3:3:0:0:
98,125,136050,6,0,P|112:189|140:244,1,119.999996337891,2|6,1:2|3:2,0:0:0:0:
247,280,136716,1,8,3:2:0:0:
300,309,136883,6,0,P|316:277|320:246,2,59.9999981689454,2|6|2,3:2|1:2|3:2,0:0:0:0:
265,358,137383,1,2,3:2:0:0:
381,326,137716,2,0,P|357:260|373:92,1,239.999992675781,2|6,3:2|3:2,0:0:0:0:
268,32,138716,6,0,B|223:29|182:71|130:45,2,119.999996337891,6|2|10,1:2|3:2|3:2,0:0:0:0:
372,93,139716,6,0,P|377:122|366:166,1,59.9999981689454,6|2,1:2|3:2,0:0:0:0:
331,196,140050,1,2,3:2:0:0:
217,158,140383,2,0,P|169:163|114:215,2,119.999996337891,2|8|2,3:2|3:2|3:3,0:0:0:0:
256,271,141383,6,0,L|328:275,1,59.9999981689454,2|0,1:2|3:2,0:0:0:0:
362,313,141716,2,0,L|434:317,1,59.9999981689454,4|0,3:2|3:2,0:0:0:0:
466,275,142050,1,8,3:2:0:0:
417,165,142383,6,0,P|412:134|423:90,1,59.9999981689454,6|2,1:2|3:2,0:0:0:0:
458,63,142717,1,2,3:2:0:0:
340,40,143050,2,0,B|273:26|224:53|224:53|248:105|319:121,1,239.999992675781,2|6,3:2|3:2,0:0:0:0:
