osu file format v14

[General]
AudioFilename: audio.mp3
AudioLeadIn: 0
PreviewTime: 26050
Countdown: 0
SampleSet: Soft
StackLeniency: 0.6
Mode: 0
LetterboxInBreaks: 0
WidescreenStoryboard: 1

[Editor]
Bookmarks: 5383,26716,48050,58716,69383
DistanceSpacing: 0.8
BeatDivisor: 8
GridSize: 4
TimelineZoom: 1.8

[Metadata]
Title:Sunflower
TitleUnicode:Sunflower
Artist:Post Malone, Swae Lee
ArtistUnicode:Post Malone, Swae Lee
Creator:Morrighan
Version:Insane
Source:Spider-Man: Into The Spider-Verse
Tags:Hip Hop English HipHop Hip-Hop Pop PostMalone big L r&b rae sremmurd trap ballad carter lang louis bell spiderman spider man spiderverse spider verse marvel super hero superhero single soundtrack ost miles morales hollywood hollywood's bleeding elicz1
BeatmapID:3014599
BeatmapSetID:1450998

[Difficulty]
HPDrainRate:5
CircleSize:4.2
OverallDifficulty:8.1
ApproachRate:8.5
SliderMultiplier:1.4
SliderTickRate:1

[Events]
//Background and Video events
0,0,"bg.jpg",0,0
Video,-1472,"video.mp4"
//Break Periods
//Storyboard Layer 0 (Background)
//Storyboard Layer 1 (Fail)
//Storyboard Layer 2 (Pass)
//Storyboard Layer 3 (Foreground)
//Storyboard Layer 4 (Overlay)
//Storyboard Sound Samples

[TimingPoints]
50,666.666666666667,4,2,2,20,1,0
1716,-100,4,2,3,20,0,0
1883,-100,4,2,2,20,0,0
2050,-100,4,2,3,20,0,0
2550,-100,4,2,2,20,0,0
3716,-100,4,2,2,22,0,0
4050,-100,4,2,2,24,0,0
4383,-100,4,2,3,24,0,0
4716,-100,4,2,2,26,0,0
5383,-100,4,2,2,30,0,0
6716,-100,4,2,3,30,0,0
6883,-100,4,2,2,30,0,0
7050,-100,4,2,3,30,0,0
7216,-100,4,2,2,30,0,0
9716,-100,4,2,3,30,0,0
9883,-100,4,2,2,30,0,0
10216,-100,4,2,3,30,0,0
10383,-100,4,2,2,30,0,0
12050,-100,4,2,3,30,0,0
12216,-100,4,2,2,30,0,0
12383,-100,4,2,3,30,0,0
12550,-100,4,2,2,30,0,0
15050,-100,4,2,3,30,0,0
15216,-100,4,2,2,30,0,0
15550,-100,4,2,3,30,0,0
15716,-100,4,2,2,30,0,0
17383,-100,4,2,3,30,0,0
17550,-100,4,2,2,30,0,0
17716,-100,4,2,3,30,0,0
17883,-100,4,2,2,30,0,0
20383,-100,4,2,3,30,0,0
20550,-100,4,2,2,30,0,0
20883,-100,4,2,3,30,0,0
21050,-100,4,2,2,30,0,0
22716,-100,4,2,3,30,0,0
22883,-100,4,2,2,30,0,0
23050,-100,4,2,3,30,0,0
23216,-100,4,2,2,30,0,0
25716,-100,4,2,3,30,0,0
25883,-100,4,2,2,30,0,0
26216,-100,4,2,3,30,0,0
26383,-100,4,2,2,30,0,0
26716,-75.187969924812,4,2,2,40,0,1
28050,-75.187969924812,4,2,3,40,0,1
28216,-75.187969924812,4,2,2,40,0,1
28383,-75.187969924812,4,2,3,40,0,1
28550,-75.187969924812,4,2,2,40,0,1
28716,-75.187969924812,4,2,3,40,0,1
28883,-75.187969924812,4,2,2,40,0,1
29133,-75.187969924812,4,2,2,5,0,1
29383,-75.187969924812,4,2,2,40,0,1
31050,-75.187969924812,4,2,3,40,0,1
31216,-75.187969924812,4,2,2,40,0,1
31550,-75.187969924812,4,2,3,40,0,1
31716,-75.187969924812,4,2,2,40,0,1
33383,-75.187969924812,4,2,3,40,0,1
33550,-75.187969924812,4,2,2,40,0,1
33716,-75.187969924812,4,2,3,40,0,1
33883,-75.187969924812,4,2,2,40,0,1
34050,-75.187969924812,4,2,3,40,0,1
34216,-75.187969924812,4,2,2,40,0,1
34466,-75.187969924812,4,2,2,5,0,1
34716,-75.187969924812,4,2,2,40,0,1
36383,-75.187969924812,4,2,3,40,0,1
36550,-75.187969924812,4,2,2,40,0,1
36883,-75.187969924812,4,2,3,40,0,1
37050,-75.187969924812,4,2,2,40,0,1
38716,-75.187969924812,4,2,3,40,0,1
38883,-75.187969924812,4,2,2,40,0,1
39050,-75.187969924812,4,2,3,40,0,1
39216,-75.187969924812,4,2,2,40,0,1
39383,-75.187969924812,4,2,3,40,0,1
39550,-75.187969924812,4,2,2,40,0,1
39800,-75.187969924812,4,2,2,5,0,1
40050,-75.187969924812,4,2,2,40,0,1
40716,-56.4971751412429,4,2,2,40,0,1
40966,-56.4971751412429,4,2,2,5,0,1
41050,-56.4971751412429,4,2,2,40,0,1
41300,-56.4971751412429,4,2,2,5,0,1
41383,-56.4971751412429,4,2,2,40,0,1
41716,-75.187969924812,4,2,3,40,0,1
41883,-75.187969924812,4,2,2,40,0,1
42216,-75.187969924812,4,2,3,40,0,1
42383,-75.187969924812,4,2,2,40,0,1
44050,-75.187969924812,4,2,3,40,0,1
44216,-75.187969924812,4,2,2,40,0,1
44383,-75.187969924812,4,2,3,40,0,1
44550,-75.187969924812,4,2,2,40,0,1
44716,-75.187969924812,4,2,3,40,0,1
44883,-75.187969924812,4,2,2,40,0,1
45133,-75.187969924812,4,2,2,5,0,1
45383,-75.187969924812,4,2,2,40,0,1
47050,-75.187969924812,4,2,3,40,0,1
47216,-100,4,2,2,40,0,1
47300,-100,4,2,2,5,0,1
47383,-100,4,2,2,40,0,1
47466,-100,4,2,2,5,0,1
47550,-75.187969924812,4,2,3,40,0,1
47716,-75.187969924812,4,2,2,40,0,1
48050,-75.187969924812,4,2,1,25,0,0
54300,-75.187969924812,4,2,1,5,0,0
54383,-75.187969924812,4,2,1,25,0,0
58716,-100,4,2,1,18,0,0
68716,-100,4,2,2,30,0,0
68883,-100,4,2,1,25,0,0
69383,-100,4,2,2,40,0,0
70383,-50,4,2,2,40,0,1
70716,-50,4,2,3,40,0,1
70883,-50,4,2,2,40,0,1
71050,-50,4,2,3,40,0,1
71216,-50,4,2,2,40,0,1
71383,-50,4,2,3,40,0,1
71550,-50,4,2,2,40,0,1
71716,-50,4,2,3,40,0,1
71883,-50,4,2,2,40,0,1
72300,-50,4,2,2,5,0,1
72383,-50,4,2,2,40,0,1
73633,-50,4,2,2,5,0,1
73716,-50,4,2,3,40,0,1
73883,-50,4,2,2,40,0,1
74216,-50,4,2,3,40,0,1
74383,-50,4,2,2,40,0,1
76050,-50,4,2,3,40,0,1
76216,-50,4,2,2,40,0,1
76300,-50,4,2,2,5,0,1
76383,-50,4,2,3,40,0,1
76550,-50,4,2,2,40,0,1
76966,-50,4,2,2,5,0,1
77050,-50,4,2,3,40,0,1
77216,-50,4,2,2,40,0,1
79050,-50,4,2,3,40,0,1
79216,-50,4,2,2,40,0,1
79300,-50,4,2,2,5,0,1
79383,-50,4,2,2,40,0,1
79550,-50,4,2,3,40,0,1
79633,-50,4,2,3,5,0,1
79716,-50,4,2,2,40,0,1
81383,-50,4,2,3,40,0,1
81550,-50,4,2,2,40,0,1
81716,-50,4,2,3,40,0,1
81883,-50,4,2,2,40,0,1
82050,-50,4,2,3,40,0,1
82216,-50,4,2,2,40,0,1
82383,-50,4,2,3,40,0,1
82550,-50,4,2,2,40,0,1
84300,-50,4,2,2,5,0,1
84383,-50,4,2,3,40,0,1
84550,-50,4,2,2,40,0,1
84883,-50,4,2,3,40,0,1
85050,-50,4,2,2,40,0,1
86716,-50,4,2,3,40,0,1
86883,-50,4,2,2,40,0,1
86966,-50,4,2,2,5,0,1
87050,-50,4,2,3,40,0,1
87216,-50,4,2,2,40,0,1
87633,-50,4,2,2,5,0,1
87716,-50,4,2,3,40,0,1
87883,-50,4,2,2,40,0,1
89383,-50,4,2,1,30,0,1
89633,-50,4,2,1,5,0,1
89716,-100,4,2,1,30,0,0
90716,-100,4,2,1,25,0,0
91883,-200,4,2,1,25,0,0
93550,-100,4,2,1,25,0,0
94550,-200,4,2,1,25,0,0
95383,-200,4,2,2,30,0,0
96050,-100,4,2,2,30,0,0
97216,-200,4,2,2,30,0,0
97383,-200,4,2,3,30,0,0
97550,-200,4,2,2,30,0,0
97716,-100,4,2,3,30,0,0
97883,-100,4,2,2,30,0,0
99883,-200,4,2,2,30,0,0
100383,-100,4,2,3,30,0,0
100550,-100,4,2,2,30,0,0
101050,-100,4,2,2,25,0,0
101383,-100,4,2,2,30,0,0
102716,-75.187969924812,4,2,3,30,0,0
102883,-75.187969924812,4,2,2,30,0,0
102966,-75.187969924812,4,2,2,5,0,0
103050,-75.187969924812,4,2,3,30,0,0
103216,-75.187969924812,4,2,2,30,0,0
103300,-75.187969924812,4,2,2,5,0,0
103383,-75.187969924812,4,2,2,30,0,0
103633,-75.187969924812,4,2,2,5,0,0
103716,-75.187969924812,4,2,2,30,0,0
105383,-66.6666666666667,4,2,2,30,0,0
105633,-66.6666666666667,4,2,2,5,0,0
105716,-66.6666666666667,4,2,3,30,0,0
105883,-66.6666666666667,4,2,2,30,0,0
105966,-66.6666666666667,4,2,2,5,0,0
106050,-66.6666666666667,4,2,2,30,0,0
106216,-100,4,2,3,30,0,0
106383,-100,4,2,2,30,0,0
106716,-44.4444444444445,4,2,2,30,0,0
107633,-44.4444444444445,4,2,2,5,0,0
107716,-44.4444444444445,4,2,2,30,0,0
108050,-44.4444444444445,4,2,3,30,0,0
108216,-44.4444444444445,4,2,2,30,0,0
108383,-44.4444444444445,4,2,3,30,0,0
108550,-44.4444444444445,4,2,2,30,0,0
108716,-66.6666666666667,4,2,2,30,0,0
108966,-66.6666666666667,4,2,2,5,0,0
109050,-66.6666666666667,4,2,2,30,0,0
111050,-57.1428571428571,4,2,3,30,0,0
111216,-57.1428571428571,4,2,2,30,0,0
111550,-57.1428571428571,4,2,3,30,0,0
111716,-57.1428571428571,4,2,2,30,0,0
112050,-57.1428571428571,4,2,1,30,0,0
114050,-111.111111111111,4,2,1,30,0,0
116050,-57.1428571428571,4,2,1,30,0,0
116716,-111.111111111111,4,2,1,30,0,0
117383,-111.111111111111,4,2,1,25,0,0
117550,-100,4,2,1,25,0,0
119383,-166.666666666667,4,2,1,25,0,0
122050,-166.666666666667,4,2,2,30,0,0
122133,-166.666666666667,4,2,1,25,0,0
122716,-50,4,2,2,45,0,1
124050,-50,4,2,3,45,0,1
124216,-50,4,2,2,45,0,1
124383,-50,4,2,3,45,0,1
124550,-50,4,2,2,45,0,1
124716,-50,4,2,3,45,0,1
124883,-50,4,2,2,45,0,1
125050,-50,4,2,3,45,0,1
125216,-50,4,2,2,45,0,1
126966,-50,4,2,2,5,0,1
127050,-50,4,2,3,45,0,1
127216,-50,4,2,2,45,0,1
127550,-50,4,2,3,45,0,1
127716,-50,4,2,2,45,0,1
128300,-50,4,2,2,5,0,1
128383,-50,4,2,2,45,0,1
129383,-50,4,2,3,45,0,1
129550,-50,4,2,2,45,0,1
129633,-50,4,2,2,5,0,1
129716,-50,4,2,3,45,0,1
129883,-50,4,2,2,45,0,1
130300,-50,4,2,2,5,0,1
130383,-50,4,2,3,45,0,1
130550,-50,4,2,2,45,0,1
132383,-50,4,2,3,45,0,1
132550,-50,4,2,2,45,0,1
132633,-50,4,2,2,5,0,1
132716,-50,4,2,2,45,0,1
132883,-50,4,2,3,45,0,1
132966,-50,4,2,3,5,0,1
133050,-50,4,2,2,45,0,1
134716,-50,4,2,3,45,0,1
134883,-50,4,2,2,45,0,1
135050,-50,4,2,3,45,0,1
135216,-50,4,2,2,45,0,1
135383,-50,4,2,3,45,0,1
135550,-50,4,2,2,45,0,1
135716,-50,4,2,3,45,0,1
135883,-50,4,2,2,45,0,1
137633,-50,4,2,2,5,0,1
137716,-50,4,2,3,45,0,1
137883,-50,4,2,2,45,0,1
138216,-50,4,2,3,45,0,1
138383,-50,4,2,2,45,0,1
138716,-36.3636363636364,4,2,2,45,0,1
138966,-50,4,2,2,5,0,1
139049,-36.3636363636364,4,2,3,45,0,1
139300,-50,4,2,2,5,0,1
139383,-36.3636363636364,4,2,3,45,0,1
139633,-50,4,2,2,5,0,1
139716,-50,4,2,2,45,0,1
140050,-50,4,2,3,45,0,1
140216,-50,4,2,2,45,0,1
140300,-50,4,2,2,5,0,1
140383,-50,4,2,3,45,0,1
140550,-50,4,2,2,45,0,1
140966,-50,4,2,2,5,0,1
141050,-50,4,2,3,45,0,1
141216,-50,4,2,2,45,0,1
142716,-50,4,2,2,40,0,1
142966,-50,4,2,2,5,0,1
143050,-100,4,2,2,40,0,1
144050,-100,4,2,1,25,0,0

[Colours]
Combo1 : 160,0,0
Combo2 : 0,0,128
Combo3 : 0,0,255
Combo4 : 255,0,0

[HitObjects]
238,331,50,5,0,1:2:0:0:
306,350,216,1,0,3:2:0:0:
291,354,383,1,0,3:2:0:0:
278,360,550,1,0,3:2:0:0:
281,212,716,1,8,3:2:0:0:
328,275,1050,1,0,1:2:0:0:
238,331,1383,1,0,3:2:0:0:
311,349,1716,1,0,3:2:0:0:
311,349,1883,1,0,3:2:0:0:
281,212,2050,1,8,3:2:0:0:
353,234,2383,1,0,3:2:0:0:
353,234,2550,1,0,3:2:0:0:
213,254,2716,5,0,1:2:0:0:
145,273,2882,1,0,3:2:0:0:
160,277,3049,1,0,3:2:0:0:
173,283,3216,1,0,3:2:0:0:
170,135,3382,1,8,3:2:0:0:
123,198,3716,1,2,1:2:0:0:
138,353,4049,1,2,3:2:0:0:
318,365,4382,1,0,3:2:0:0:
434,97,4716,1,10,3:2:0:0:
227,7,5049,1,2,0:0:0:0:
194,125,5383,5,6,1:2:0:0:
309,0,5550,1,0,3:2:0:0:
336,71,5716,1,0,3:2:0:0:
407,44,5883,1,0,3:2:0:0:
265,98,6050,1,8,3:2:0:0:
407,44,6383,1,6,1:2:0:0:
423,61,6550,1,0,3:2:0:0:
394,136,6716,6,0,P|438:147|463:160,1,70,2|0,3:2|3:2,0:0:0:0:
341,78,7216,1,2,3:2:0:0:
319,0,7383,2,0,P|287:14|253:22,1,70,8|2,3:2|3:3,0:0:0:0:
135,13,8050,5,2,1:2:0:0:
185,175,8217,1,2,3:2:0:0:
110,162,8383,1,6,3:2:0:0:
98,237,8550,1,2,3:2:0:0:
122,87,8717,1,10,3:2:0:0:
152,360,9050,5,6,1:2:0:0:
110,162,9383,1,2,3:2:0:0:
152,360,9716,5,2,3:2:0:0:
110,162,10050,1,10,3:2:0:0:
98,237,10216,1,2,3:2:0:0:
152,360,10383,5,4,3:2:0:0:
110,162,10716,5,6,1:2:0:0:
272,212,10883,1,0,3:2:0:0:
259,137,11049,1,0,3:2:0:0:
334,125,11216,1,0,3:2:0:0:
184,149,11383,1,8,3:2:0:0:
334,125,11716,1,6,1:2:0:0:
350,108,11883,1,0,3:2:0:0:
321,33,12050,6,0,P|365:22|390:9,1,70,2|0,3:2|3:2,0:0:0:0:
268,91,12549,1,2,3:2:0:0:
246,169,12716,2,0,P|214:154|180:146,1,70,8|2,3:2|3:3,0:0:0:0:
65,225,13383,6,0,L|48:252,1,17.5,2|2,1:2|3:2,0:0:0:0:
264,317,13716,1,4,3:2:0:0:
269,297,13883,1,0,3:2:0:0:
246,169,14050,2,0,L|202:158,1,35,8|0,3:2|3:2,0:0:0:0:
140,252,14383,2,0,L|224:239,1,70,6|0,1:2|3:2,0:0:0:0:
467,255,15050,5,2,3:2:0:0:
269,297,15384,1,10,3:2:0:0:
344,309,15550,1,2,3:2:0:0:
467,255,15717,5,4,3:2:0:0:
306,73,16050,5,6,1:2:0:0:
356,235,16217,1,0,3:2:0:0:
281,222,16383,1,0,3:2:0:0:
269,297,16550,1,0,3:2:0:0:
293,147,16717,1,8,3:2:0:0:
269,297,17050,1,6,1:2:0:0:
252,313,17217,1,0,3:2:0:0:
177,284,17384,6,0,P|166:328|153:353,1,70,2|0,3:2|3:2,0:0:0:0:
235,231,17883,1,2,3:2:0:0:
313,209,18050,2,0,P|298:177|290:143,1,70,8|2,3:2|3:3,0:0:0:0:
323,37,18716,5,2,1:2:0:0:
161,87,18883,1,2,3:2:0:0:
174,12,19049,1,4,3:2:0:0:
99,0,19216,1,0,3:2:0:0:
249,24,19383,1,8,3:2:0:0:
6,143,19716,5,6,1:2:0:0:
174,12,20050,1,2,3:2:0:0:
174,274,20383,5,2,3:2:0:0:
6,143,20716,1,10,3:2:0:0:
81,155,20882,1,2,3:2:0:0:
174,274,21050,5,4,3:2:0:0:
327,224,21383,5,6,1:2:0:0:
377,62,21550,1,0,3:2:0:0:
302,75,21716,1,0,3:2:0:0:
290,0,21883,1,0,3:2:0:0:
314,150,22050,1,8,3:2:0:0:
251,238,22216,1,0,3:2:0:0:
377,62,22383,1,6,1:2:0:0:
261,92,22716,6,0,P|217:81|192:68,1,70,2|0,3:2|3:2,0:0:0:0:
314,150,23215,1,2,3:2:0:0:
336,228,23382,2,0,P|368:213|402:205,1,70,8|2,3:2|3:3,0:0:0:0:
483,292,24050,6,0,L|500:319,1,17.5,2|2,1:2|3:2,0:0:0:0:
284,384,24383,1,4,3:2:0:0:
279,364,24550,1,0,3:2:0:0:
302,236,24717,2,0,L|346:225,1,35,8|0,3:2|3:2,0:0:0:0:
408,319,25050,2,0,L|324:306,1,70,6|0,1:2|3:2,0:0:0:0:
81,322,25716,5,2,3:2:0:0:
279,364,26050,1,14,3:2:0:0:
204,376,26216,1,2,3:2:0:0:
81,322,26383,5,4,3:2:0:0:
69,57,26716,5,6,1:2:0:0:
178,117,26883,1,2,3:2:0:0:
162,202,27050,2,0,L|172:252,1,46.5499980821992,2|0,3:2|3:2,0:0:0:0:
357,197,27383,1,10,3:2:0:0:
341,122,27717,5,6,1:2:0:0:
162,202,28050,1,2,3:2:0:0:
178,117,28382,5,2,3:2:0:0:
357,197,28716,1,10,3:2:0:0:
258,29,29050,6,0,L|263:1,1,23.2749990410996,2|0,3:3|0:0,0:0:0:0:
255,231,29383,5,2,1:2:0:0:
357,197,29550,1,2,3:2:0:0:
435,334,29716,2,0,L|485:324,1,46.5499980821992,6|0,3:2|3:2,0:0:0:0:
215,295,30050,2,0,B|203:309|203:309|185:313|163:324,1,46.5499980821992,10|0,3:2|3:2,0:0:0:0:
285,347,30383,2,0,B|296:361|296:361|314:365|336:376,1,46.5499980821992,6|0,1:2|3:2,0:0:0:0:
477,206,30716,5,2,3:2:0:0:
355,285,30883,1,2,3:2:0:0:
255,231,31050,2,0,L|205:221,1,46.5499980821992,2|0,3:2|3:2,0:0:0:0:
355,285,31383,5,10,3:2:0:0:
249,145,31549,1,0,3:2:0:0:
255,231,31716,1,4,3:2:0:0:
14,38,32050,5,6,1:2:0:0:
83,142,32217,1,2,3:2:0:0:
152,85,32384,2,0,L|202:79,1,46.5499980821992,2|0,3:2|3:2,0:0:0:0:
108,229,32716,2,0,B|96:243|96:243|78:247|56:258,1,46.5499980821992,10|0,3:2|3:2,0:0:0:0:
178,281,33049,2,0,B|189:295|189:295|207:299|229:310,1,46.5499980821992,6|0,1:2|3:2,0:0:0:0:
386,212,33383,5,2,3:2:0:0:
301,239,33550,1,2,3:2:0:0:
436,287,33716,5,2,3:2:0:0:
297,221,33883,1,2,3:2:0:0:
343,90,34050,1,10,3:2:0:0:
354,301,34383,6,0,L|359:329,1,23.2749990410996,2|0,3:3|0:0,0:0:0:0:
113,224,34716,6,0,L|53:211,1,46.5499980821992,2|0,1:2|3:2,0:0:0:0:
180,270,35050,1,6,3:2:0:0:
190,288,35216,1,0,3:2:0:0:
105,140,35383,2,0,L|45:127,1,46.5499980821992,10|0,3:2|3:2,0:0:0:0:
27,308,35716,2,0,L|87:295,1,46.5499980821992,6|0,1:2|3:2,0:0:0:0:
200,190,36050,5,2,3:2:0:0:
322,269,36217,1,2,3:2:0:0:
422,215,36384,2,0,L|472:205,1,46.5499980821992,2|2,3:2|3:2,0:0:0:0:
322,269,36717,5,10,3:2:0:0:
428,129,36883,1,0,3:2:0:0:
422,215,37050,1,4,3:2:0:0:
379,14,37383,5,6,1:2:0:0:
270,74,37550,1,2,3:2:0:0:
286,159,37717,2,0,L|276:209,1,46.5499980821992,2|0,3:2|3:2,0:0:0:0:
91,154,38050,1,10,3:2:0:0:
107,79,38383,5,6,1:2:0:0:
286,159,38716,1,2,3:2:0:0:
214,128,38883,1,2,3:2:0:0:
91,154,39050,1,2,3:2:0:0:
273,72,39383,1,10,3:2:0:0:
52,19,39716,6,0,L|24:24,1,23.2749990410996,2|0,3:3|0:0,0:0:0:0:
243,182,40050,5,2,1:2:0:0:
141,148,40217,1,2,3:2:0:0:
63,285,40383,2,0,L|69:338,1,46.5499980821992,6|0,3:2|3:2,0:0:0:0:
315,300,40717,2,2,B|320:278|277:255|204:275|232:292,1,92.9250030130864,10|0,3:2|0:0,0:1:0:0:
150,326,41050,2,2,B|145:304|188:281|261:301|233:318,1,92.9250030130864,6|0,1:2|0:0,0:1:0:0:
275,364,41383,5,2,3:2:0:0:
154,228,41550,1,2,3:2:0:0:
180,119,41717,2,0,L|190:69,1,46.5499980821992,2|0,3:2|3:2,0:0:0:0:
154,228,42050,5,10,3:2:0:0:
288,74,42216,1,0,3:2:0:0:
180,119,42383,1,4,3:2:0:0:
397,202,42550,1,0,3:0:0:0:
379,299,42716,5,6,1:2:0:0:
309,160,42883,1,2,3:2:0:0:
373,85,43050,2,0,L|379:35,1,46.5499980821992,2|0,3:2|3:2,0:0:0:0:
237,189,43383,2,2,B|223:201|223:201|219:219|208:241,1,46.5499980821992,10|0,3:2|3:2,0:1:0:0:
251,50,43716,2,2,B|240:36|240:36|222:32|200:21,1,46.5499980821992,6|0,1:2|3:2,0:1:0:0:
70,156,44049,5,2,3:2:0:0:
174,124,44216,1,2,3:2:0:0:
99,283,44382,5,2,3:2:0:0:
154,117,44549,1,2,3:2:0:0:
287,120,44716,1,10,3:2:0:0:
37,230,45050,6,0,L|9:235,1,23.2749990410996,2|0,3:3|0:0,0:0:0:0:
286,253,45383,6,0,L|273:193,1,46.5499980821992,2|0,1:2|3:2,0:0:0:0:
365,299,45717,1,6,3:2:0:0:
383,309,45883,1,0,3:2:0:0:
198,205,46050,2,0,L|185:145,1,46.5499980821992,10|0,3:2|3:2,0:0:0:0:
411,52,46383,2,0,L|398:112,1,46.5499980821992,6|0,1:2|3:2,0:0:0:0:
382,208,46716,5,2,3:2:0:0:
260,129,46883,1,2,3:2:0:0:
141,265,47050,2,0,P|87:274|62:294,1,69.8249971232988,2|0,3:2|0:0,0:0:0:0:
68,290,47383,6,0,P|71:276|67:258,1,17.5,10|0,3:2|0:0,0:0:0:0:
33,157,47550,1,0,3:2:0:0:
19,135,47716,1,4,3:2:0:0:
4,126,47883,1,0,3:2:0:0:
0,136,48050,6,0,L|50:122,1,46.5499980821992,2|2,3:2|3:2,0:0:0:0:
102,214,48383,2,0,L|161:210,1,46.5499980821992,2|2,3:2|3:2,0:0:0:0:
261,144,48716,1,10,3:2:0:0:
350,168,48883,1,0,3:2:0:0:
410,144,49050,2,0,L|346:135,1,46.5499980821992,2|0,3:2|3:2,0:0:0:0:
270,161,49383,2,0,L|209:172,2,46.5499980821992,2|2|2,3:2|3:2|3:2,0:0:0:0:
350,155,49883,1,0,3:2:0:0:
420,202,50050,2,0,L|465:212,1,46.5499980821992,10|0,3:2|3:2,0:0:0:0:
363,271,50383,5,2,3:3:0:0:
292,318,50550,1,2,3:3:0:0:
383,296,50716,6,0,L|318:285,1,46.5499980821992,2|2,3:2|3:2,0:0:0:0:
283,210,51050,2,0,L|227:180,1,46.5499980821992,2|0,3:2|3:2,0:0:0:0:
175,112,51383,1,10,3:2:0:0:
72,155,51550,1,0,3:2:0:0:
20,116,51716,2,0,L|87:127,1,46.5499980821992,2|0,3:2|3:2,0:0:0:0:
188,103,52050,2,0,L|244:76,1,46.5499980821992,2|2,3:2|3:2,0:0:0:0:
326,175,52383,2,0,L|268:161,1,46.5499980821992,2|0,3:2|3:2,0:0:0:0:
187,205,52716,1,10,3:2:0:0:
116,252,52883,1,0,3:2:0:0:
240,267,53050,5,0,3:2:0:0:
311,314,53217,1,0,3:2:0:0:
220,292,53383,6,0,L|285:281,1,46.5499980821992,2|2,3:2|3:2,0:0:0:0:
348,256,53716,2,0,L|310:291,1,46.5499980821992,2|2,3:2|3:2,0:0:0:0:
262,177,54050,2,0,L|253:93,1,69.8249971232988,10|0,3:2|0:0,0:0:0:0:
251,78,54383,1,2,3:2:0:0:
251,78,54550,1,2,3:2:0:0:
327,29,54716,2,0,L|379:41,2,46.5499980821992,2|2|2,3:2|3:2|3:2,0:0:0:0:
233,2,55216,1,0,3:2:0:0:
171,88,55383,2,0,L|115:104,1,46.5499980821992,10|0,3:2|3:2,0:0:0:0:
32,180,55716,5,2,3:3:0:0:
103,227,55883,1,2,3:3:0:0:
12,205,56049,6,0,L|78:216,1,46.5499980821992,2|2,3:2|3:2,0:0:0:0:
133,135,56383,2,0,L|191:124,1,46.5499980821992,2|2,3:2|3:2,0:0:0:0:
275,67,56716,1,10,3:2:0:0:
378,110,56883,1,0,3:2:0:0:
430,71,57049,2,0,L|363:82,1,46.5499980821992,2|0,3:2|3:2,0:0:0:0:
291,107,57383,2,0,L|239:96,1,46.5499980821992,2|2,3:2|3:2,0:0:0:0:
147,168,57716,2,0,L|211:159,1,46.5499980821992,2|0,3:2|3:2,0:0:0:0:
326,205,58050,1,10,3:2:0:0:
397,252,58217,1,0,3:2:0:0:
273,267,58384,5,0,3:2:0:0:
202,314,58551,1,0,3:2:0:0:
293,292,58717,6,0,P|296:320|313:361,1,70,2|0,2:2|2:2,0:0:0:0:
293,292,61383,6,0,P|296:320|313:361,1,70,2|2,2:2|2:2,0:0:0:0:
233,78,64050,6,0,P|222:131|213:147,1,70,2|2,2:2|2:2,0:0:0:0:
233,78,66716,6,0,P|222:131|213:147,2,70,2|0|2,2:2|0:0|2:2,0:0:0:0:
256,192,67716,12,0,68550,0:0:0:0:
111,209,68716,5,10,3:2:0:0:
35,228,69050,5,2,2:2:0:0:
29,261,69216,1,0,0:0:0:0:
134,286,69383,5,6,1:2:0:0:
243,119,69550,1,0,3:2:0:0:
192,187,69716,1,0,3:2:0:0:
111,209,69883,1,0,3:2:0:0:
25,347,70050,1,8,3:2:0:0:
104,123,70383,5,6,1:2:0:0:
111,209,70550,1,2,3:2:0:0:
243,119,70716,2,0,P|243:84|229:52,1,70,2|0,3:2|3:2,0:0:0:0:
100,222,71050,2,0,P|99:256|113:288,1,70,2|0,3:2|3:2,0:0:0:0:
265,196,71383,5,10,3:2:0:0:
188,240,71550,1,0,3:2:0:0:
295,269,71716,1,2,3:3:0:0:
305,294,71883,1,2,3:3:0:0:
355,359,72050,6,0,P|355:313|363:250,1,105,2|0,1:2|0:0,0:0:0:0:
376,247,72383,1,4,3:2:0:0:
453,216,72550,1,0,3:2:0:0:
460,29,72716,1,8,3:2:0:0:
393,81,72883,5,2,3:2:0:0:
509,154,73050,1,6,1:2:0:0:
293,234,73216,1,2,3:2:0:0:
279,139,73383,2,0,P|324:143|410:176,1,105,2|0,3:2|0:0,0:0:0:0:
399,189,73716,5,2,3:2:0:0:
426,330,73883,1,0,3:2:0:0:
409,194,74050,1,8,3:2:0:0:
436,335,74216,1,0,3:2:0:0:
276,353,74383,1,6,3:2:0:0:
260,367,74550,1,0,3:2:0:0:
144,207,74716,6,0,L|213:197,2,70,6|0|0,1:2|3:2|3:2,0:0:0:0:
27,171,75216,1,0,3:2:0:0:
127,12,75383,1,8,3:2:0:0:
429,181,75716,5,6,1:2:0:0:
347,218,75883,1,2,3:2:0:0:
235,150,76050,2,0,P|286:141|339:137,1,105,2|0,3:2|0:0,0:0:0:0:
348,144,76383,1,2,3:2:0:0:
401,71,76550,1,0,3:2:0:0:
258,37,76716,2,0,P|246:51|221:146,1,105,8|0,3:2|0:0,0:0:0:0:
235,150,77049,1,2,3:3:0:0:
245,175,77216,1,2,3:3:0:0:
201,83,77383,6,0,P|155:83|102:90,1,70,2|0,1:2|3:2,0:0:0:0:
17,197,77716,1,4,3:2:0:0:
100,155,77883,1,0,3:2:0:0:
237,201,78050,1,8,3:2:0:0:
160,209,78216,5,2,3:2:0:0:
282,268,78383,1,6,1:2:0:0:
137,298,78550,1,2,3:2:0:0:
222,330,78716,5,2,3:2:0:0:
89,236,78883,1,2,3:2:0:0:
195,134,79050,2,0,P|189:74|179:30,1,105,2|0,3:2|0:0,0:0:0:0:
169,23,79383,2,0,P|175:83|185:127,1,105,10|0,3:2|0:0,0:0:0:0:
195,134,79716,1,6,3:2:0:0:
219,126,79883,1,0,3:2:0:0:
288,260,80050,6,0,L|279:182,1,70,6|0,1:2|3:2,0:0:0:0:
438,81,80383,1,0,3:2:0:0:
362,138,80550,1,0,3:2:0:0:
370,293,80716,1,8,3:2:0:0:
419,207,80883,5,2,3:2:0:0:
265,339,81049,1,6,1:2:0:0:
179,332,81216,1,2,3:2:0:0:
269,200,81383,2,0,P|304:200|336:214,1,70,2|0,3:2|3:2,0:0:0:0:
166,343,81716,2,0,P|132:344|100:330,1,70,2|0,3:2|3:2,0:0:0:0:
165,201,82050,5,10,3:2:0:0:
87,241,82217,1,0,3:2:0:0:
47,61,82383,1,2,3:3:0:0:
72,71,82550,1,2,3:3:0:0:
209,116,82717,6,0,P|163:116|112:123,1,70,2|2,1:2|3:2,0:0:0:0:
33,151,83050,1,4,3:2:0:0:
97,250,83217,1,0,3:2:0:0:
218,131,83383,1,8,3:2:0:0:
169,50,83550,5,2,3:2:0:0:
319,110,83717,1,6,1:2:0:0:
323,268,83883,1,2,3:2:0:0:
230,144,84050,2,0,P|234:99|267:13,1,105,2|0,3:2|0:0,0:0:0:0:
276,38,84383,5,2,3:2:0:0:
417,74,84550,1,0,3:2:0:0:
402,176,84717,1,8,3:2:0:0:
297,188,84883,1,0,3:2:0:0:
384,298,85050,1,6,3:2:0:0:
399,284,85217,1,0,3:2:0:0:
289,181,85383,6,0,L|220:171,2,70,6|0|0,1:2|3:2|3:2,0:0:0:0:
394,163,85883,1,0,3:2:0:0:
232,253,86050,1,8,3:2:0:0:
25,201,86383,5,6,1:2:0:0:
107,238,86550,1,2,3:2:0:0:
219,170,86717,2,0,P|168:161|115:157,1,105,2|0,3:2|0:0,0:0:0:0:
106,164,87050,1,2,3:2:0:0:
53,91,87217,1,0,3:2:0:0:
196,57,87383,2,0,P|208:71|233:166,1,105,8|0,3:2|0:0,0:0:0:0:
219,170,87716,1,2,3:3:0:0:
209,195,87883,1,2,3:3:0:0:
81,241,88050,6,0,P|81:195|88:142,1,70,2|0,1:2|3:2,0:0:0:0:
196,57,88383,1,4,3:2:0:0:
128,0,88550,1,0,3:2:0:0:
147,135,88717,1,8,3:2:0:0:
347,171,89050,5,6,1:2:0:0:
265,208,89217,1,2,3:2:0:0:
153,140,89384,2,0,P|204:131|257:127,1,105,2|0,2:2|0:0,0:0:0:0:
272,136,89717,2,0,P|266:76|244:-3,1,140,2|2,2:2|2:2,0:0:0:0:
244,0,90716,1,6,2:2:0:0:
67,71,91050,6,0,L|75:107,1,35,2|2,2:2|2:2,0:0:0:0:
91,184,91383,1,2,2:2:0:0:
208,209,91717,1,6,2:2:0:0:
192,288,91883,2,0,L|184:324,1,35,2|0,2:2|0:0,0:0:0:0:
105,338,92383,2,0,L|70:345,2,35,2|2|2,2:2|2:2|2:2,0:0:0:0:
184,322,93383,1,2,2:2:0:0:
265,361,93550,5,2,2:2:0:0:
265,361,93716,2,0,L|257:325,1,35,6|0,2:2|0:0,0:0:0:0:
241,248,94050,1,2,2:2:0:0:
123,222,94384,1,6,2:2:0:0:
140,144,94550,2,0,L|148:108,1,35,2|0,2:2|0:0,0:0:0:0:
227,94,95049,5,2,2:2:0:0:
425,136,95383,1,10,3:2:0:0:
350,148,95549,1,2,3:2:0:0:
227,94,95716,5,6,3:2:0:0:
227,94,96050,2,0,L|234:52,1,35,6|0,1:2|3:2,0:0:0:0:
183,241,96383,6,0,L|148:244,1,35,2|0,3:2|3:2,0:0:0:0:
249,323,96716,2,0,L|214:319,1,35,10|0,3:2|3:2,0:0:0:0:
347,332,97050,1,6,1:2:0:0:
315,241,97216,2,0,L|280:244,1,35,2|0,3:2|3:2,0:0:0:0:
447,241,97716,2,0,L|412:244,1,35,2|0,3:2|3:2,0:0:0:0:
347,332,98050,2,0,L|381:335,1,35,10|0,3:2|3:2,0:0:0:0:
444,366,98383,2,0,L|409:369,1,35,2|2,3:3|3:3,0:0:0:0:
404,384,98716,1,2,1:2:0:0:
404,384,98883,1,0,3:2:0:0:
464,334,99050,6,0,L|498:330,1,35,6|0,3:2|3:2,0:0:0:0:
398,252,99383,2,0,L|432:255,1,35,10|0,3:2|3:2,0:0:0:0:
300,243,99717,1,6,1:2:0:0:
332,334,99883,2,0,L|366:330,1,35,2|0,3:2|3:2,0:0:0:0:
180,339,100383,1,2,3:2:0:0:
180,339,100716,6,0,L|167:378,1,35,10|0,3:2|0:0,0:0:0:0:
180,339,101050,2,0,L|167:378,1,35,6|0,2:2|0:0,0:0:0:0:
91,277,101383,5,6,1:2:0:0:
103,288,101550,1,0,3:2:0:0:
115,287,101716,1,0,3:2:0:0:
121,276,101883,1,0,3:2:0:0:
152,206,102050,5,10,3:2:0:0:
221,162,102216,1,2,3:2:0:0:
306,167,102383,1,6,1:2:0:0:
372,219,102550,1,2,3:2:0:0:
401,294,102716,6,0,P|384:309|326:330,1,69.8249971232988,2|0,3:2|0:0,0:0:0:0:
322,313,103050,2,0,P|300:305|253:266,1,69.8249971232988,2|0,3:2|0:0,0:0:0:0:
264,249,103383,2,0,B|241:280|241:280|236:318,1,69.8249971232988,10|0,3:2|0:0,0:0:0:0:
245,332,103716,1,2,3:3:0:0:
253,354,103883,1,2,3:3:0:0:
260,340,104050,5,2,1:2:0:0:
234,272,104216,1,2,3:2:0:0:
280,218,104383,1,6,3:2:0:0:
238,139,104550,1,2,3:2:0:0:
292,223,104716,5,10,3:2:0:0:
184,193,104883,1,2,3:2:0:0:
312,122,105050,1,6,1:2:0:0:
198,65,105216,1,2,3:2:0:0:
340,23,105383,6,0,P|376:16|420:17,1,78.7500030040742,2|0,3:2|0:0,0:0:0:0:
440,38,105716,2,0,P|401:37|363:45,1,78.7500030040742,2|0,3:2|0:0,0:0:0:0:
352,62,106050,1,10,3:2:0:0:
445,166,106216,1,0,3:2:0:0:
399,241,106383,2,0,L|404:285,1,35,0|0,3:2|3:2,0:0:0:0:
449,337,106716,5,6,1:2:0:0:
367,167,106883,1,2,3:2:0:0:
463,48,107050,1,2,3:2:0:0:
393,88,107216,1,2,3:2:0:0:
265,12,107383,2,0,P|171:-3|125:4,1,118.125004506111,10|0,3:2|0:0,0:0:0:0:
133,17,107716,1,6,1:2:0:0:
300,94,107883,1,2,3:2:0:0:
118,179,108050,6,0,P|96:134|89:86,1,78.7500030040742,2|0,3:2|3:2,0:0:0:0:
207,219,108383,2,0,P|210:169|228:123,1,78.7500030040742,2|0,3:2|3:2,0:0:0:0:
313,237,108716,2,0,P|284:264|264:298,1,78.7500030040742,10|0,3:2|0:0,0:0:0:0:
270,329,109050,1,2,3:3:0:0:
282,348,109216,1,2,3:3:0:0:
358,335,109383,5,2,1:2:0:0:
276,312,109550,1,2,3:2:0:0:
371,353,109716,1,6,3:2:0:0:
439,247,109883,1,2,3:2:0:0:
447,331,110050,5,10,3:2:0:0:
341,257,110216,1,2,3:2:0:0:
415,155,110383,1,6,1:2:0:0:
372,84,110550,1,2,3:2:0:0:
416,20,110716,2,0,L|474:6,1,52.5000020027161,2|0,3:2|3:2,0:0:0:0:
426,163,111050,5,2,3:2:0:0:
240,62,111383,1,10,3:2:0:0:
279,125,111549,1,0,3:2:0:0:
426,163,111717,5,2,3:2:0:0:
426,163,112216,5,2,3:2:0:0:
279,125,112383,1,2,3:2:0:0:
147,198,112549,1,2,3:2:0:0:
338,187,112716,5,10,3:2:0:0:
382,260,112883,1,2,3:2:0:0:
320,319,113050,1,2,3:2:0:0:
279,125,113216,1,2,3:2:0:0:
351,80,113383,6,0,L|416:88,3,61.2500005841255,2|2|2|0,3:2|3:2|3:2|3:2,0:0:0:0:
279,125,114050,2,0,L|242:130,3,31.4999990386963,8|0|2|2,3:2|3:2|3:3|3:3,0:0:0:0:
338,187,114716,1,2,3:2:0:0:
165,147,115050,5,2,3:2:0:0:
275,46,115216,1,2,3:2:0:0:
124,6,115383,1,10,3:2:0:0:
158,163,115550,1,2,3:2:0:0:
121,237,115716,5,2,3:2:0:0:
81,84,115883,1,2,3:2:0:0:
2,262,116050,6,0,L|10:327,3,61.2500005841255,2|2|2|0,3:2|3:2|3:2|3:2,0:0:0:0:
47,190,116717,2,0,L|52:153,3,31.4999990386963,8|0|0|0,3:2|3:2|3:2|3:2,0:0:0:0:
121,237,117383,1,2,2:2:0:0:
191,161,117550,5,2,2:2:0:0:
191,161,117716,2,0,L|194:198,1,35,2|2,2:2|2:2,0:0:0:0:
266,198,118050,2,0,L|263:235,1,35,2|2,2:2|2:2,0:0:0:0:
197,268,118383,2,0,L|200:305,1,35,2|2,2:2|2:2,0:0:0:0:
272,305,118717,2,0,L|269:342,3,35,2|2|2|0,2:2|2:2|2:2|2:2,0:0:0:0:
281,315,119383,2,0,L|283:340,3,20.9999993591309,2|0|2|0,2:2|0:0|2:2|0:0,0:0:0:0:
271,327,120050,1,2,2:2:0:0:
256,192,121383,12,10,122050,3:2:0:0:
125,276,122716,6,0,P|183:293|200:295,1,70,6|0,1:2|3:2,0:0:0:0:
270,144,123049,1,2,3:2:0:0:
323,239,123216,1,0,3:2:0:0:
202,300,123383,1,8,3:2:0:0:
192,384,123550,5,2,3:2:0:0:
123,267,123716,1,6,1:2:0:0:
217,214,123883,1,2,3:2:0:0:
98,110,124049,2,0,P|63:110|31:124,1,70,2|0,3:2|3:2,0:0:0:0:
191,142,124383,2,0,P|226:142|258:156,1,70,2|0,3:2|3:2,0:0:0:0:
162,71,124716,2,0,P|173:37|174:0,1,70,10|0,3:2|3:2,0:0:0:0:
271,165,125049,1,2,3:3:0:0:
286,176,125216,1,2,3:3:0:0:
217,214,125383,6,0,B|197:254|209:269|213:272|203:290,1,70,2|0,1:2|3:2,0:0:0:0:
33,135,125716,2,0,B|13:95|25:80|29:77|19:59,1,70,6|0,3:2|3:2,0:0:0:0:
92,251,126050,1,8,3:2:0:0:
210,131,126216,5,2,3:2:0:0:
98,83,126383,1,6,1:2:0:0:
17,212,126550,1,2,3:2:0:0:
224,121,126716,2,0,B|264:101|291:147|326:132,1,105,2|0,3:2|0:0,0:0:0:0:
395,178,127049,5,2,3:2:0:0:
422,37,127216,1,0,3:2:0:0:
405,173,127383,1,8,3:2:0:0:
432,32,127549,1,0,3:2:0:0:
272,14,127716,1,2,3:2:0:0:
254,31,127883,1,0,3:2:0:0:
298,95,128050,6,0,B|285:108|291:115|266:130|248:121|232:115|217:125|197:141,1,105,6|0,1:2|0:0,0:0:0:0:
122,136,128383,1,0,3:2:0:0:
224,96,128550,1,0,3:2:0:0:
336,224,128716,1,8,3:2:0:0:
71,51,129049,5,6,1:2:0:0:
34,133,129216,1,2,3:2:0:0:
112,239,129383,2,0,P|121:188|125:135,1,105,2|0,3:2|0:0,0:0:0:0:
114,125,129716,1,2,3:2:0:0:
134,238,129883,1,0,3:2:0:0:
191,98,130050,2,0,P|205:86|300:61,1,105,8|0,3:2|0:0,0:0:0:0:
307,77,130382,1,2,3:3:0:0:
317,102,130549,1,2,3:3:0:0:
150,29,130716,6,0,P|104:29|51:36,1,70,2|0,1:2|3:2,0:0:0:0:
242,33,131049,1,4,3:2:0:0:
217,116,131216,1,0,3:2:0:0:
343,183,131383,1,8,3:2:0:0:
401,119,131549,5,2,3:2:0:0:
408,284,131716,1,6,1:2:0:0:
332,169,131883,1,2,3:2:0:0:
471,172,132049,5,2,3:2:0:0:
322,259,132216,1,2,3:2:0:0:
478,352,132383,2,0,P|487:292|489:247,1,105,2|0,3:2|0:0,0:0:0:0:
481,238,132716,2,0,P|471:297|469:342,1,105,10|0,3:2|0:0,0:0:0:0:
478,352,133049,1,6,3:2:0:0:
489,331,133216,1,0,3:2:0:0:
326,274,133383,6,0,L|413:263,1,70,6|0,1:2|3:2,0:0:0:0:
467,131,133716,1,0,3:2:0:0:
394,187,133883,1,0,3:2:0:0:
228,122,134049,1,8,3:2:0:0:
402,199,134216,5,2,3:2:0:0:
329,44,134382,1,6,1:2:0:0:
219,124,134549,1,2,3:2:0:0:
328,240,134716,2,0,P|363:240|395:226,1,70,2|0,3:2|3:2,0:0:0:0:
235,208,135050,2,0,P|200:208|168:194,1,70,2|0,3:2|3:2,0:0:0:0:
264,279,135383,2,0,P|253:313|252:350,1,70,10|0,3:2|3:2,0:0:0:0:
168,234,135716,1,2,3:3:0:0:
158,209,135883,1,2,3:3:0:0:
113,72,136050,6,0,P|113:118|106:169,1,70,2|0,1:2|3:2,0:0:0:0:
17,292,136383,1,6,3:2:0:0:
74,214,136550,1,0,3:2:0:0:
239,200,136716,1,8,3:2:0:0:
131,309,136883,5,2,3:2:0:0:
185,135,137050,1,6,1:2:0:0:
28,98,137216,1,2,3:2:0:0:
254,202,137383,2,0,P|261:157|252:65,1,105,2|0,3:2|0:0,0:0:0:0:
249,78,137716,5,2,3:2:0:0:
97,145,137883,1,0,3:2:0:0:
19,9,138050,1,8,3:2:0:0:
167,30,138216,1,0,3:2:0:0:
169,222,138383,1,6,3:2:0:0:
154,208,138550,1,0,3:2:0:0:
190,138,138716,6,0,B|243:122|291:163|359:114,1,144.375001376867,6|0,1:2|0:0,0:0:0:0:
352,96,139050,2,0,P|343:167|364:236,1,144.375001376867,2|0,3:2|0:0,0:0:0:0:
395,315,139383,2,0,L|415:162,1,144.375001376867,10|0,3:2|0:0,0:0:0:0:
442,168,139716,5,6,1:2:0:0:
361,252,139883,1,2,3:2:0:0:
213,157,140050,2,0,P|264:149|317:147,1,105,2|0,3:2|0:0,0:0:0:0:
329,159,140383,1,2,3:2:0:0:
363,63,140550,1,0,3:2:0:0:
207,47,140716,2,0,P|199:63|199:161,1,105,8|0,3:2|0:0,0:0:0:0:
213,157,141049,1,2,3:3:0:0:
223,132,141216,1,2,3:3:0:0:
151,285,141383,6,0,P|151:239|158:186,1,70,2|0,1:2|3:2,0:0:0:0:
224,51,141716,1,4,3:2:0:0:
152,106,141883,1,0,3:2:0:0:
282,205,142050,1,8,3:2:0:0:
475,26,142383,5,6,1:2:0:0:
512,108,142550,1,2,3:2:0:0:
444,220,142716,2,0,P|435:169|431:116,1,105,2|0,3:2|0:0,0:0:0:0:
440,100,143050,2,0,P|434:160|412:239,1,140,2|6,3:2|3:2,0:0:0:0:
