osu file format v14

[General]
AudioFilename: audio.mp3
AudioLeadIn: 0
PreviewTime: 26797
Countdown: 0
SampleSet: Soft
StackLeniency: 0.7
Mode: 0
LetterboxInBreaks: 0
WidescreenStoryboard: 1

[Editor]
Bookmarks: 14369,28083,41797,55512,69226,82940,96655,109940,110155,110369,110583,110797,124083,137797,151512,164797,165012,165226,165440,165655,178940,192655,206369,218369
DistanceSpacing: 1
BeatDivisor: 4
GridSize: 4
TimelineZoom: 2.499999

[Metadata]
Title:Psycho (UkrTrashDub Ver .)
TitleUnicode:Psycho (UkrTrashDub Ver .)
Artist:Post Malone
ArtistUnicode:Post Malone
Creator:Rubiha
Version:Insane
Source:
Tags:
BeatmapID:2187704
BeatmapSetID:830993

[Difficulty]
HPDrainRate:6
CircleSize:4.5
OverallDifficulty:7
ApproachRate:8.7
SliderMultiplier:1.6
SliderTickRate:1

[Events]
//Background and Video events
0,0,"BGbyRubiha.jpg",0,0
//Break Periods
//Storyboard Layer 0 (Background)
//Storyboard Layer 1 (Fail)
//Storyboard Layer 2 (Pass)
//Storyboard Layer 3 (Foreground)
//Storyboard Layer 4 (Overlay)
//Storyboard Sound Samples

[TimingPoints]
655,428.571428571429,4,2,0,50,1,0
655,-133.333333333333,4,2,0,50,0,0
13083,-100,4,2,0,50,0,0
28083,-80,4,2,0,50,0,1
30226,-80,4,3,3,50,0,1
30333,-80,4,2,0,50,0,1
31297,-80,4,3,2,50,0,1
31405,-80,4,2,0,50,0,1
33655,-80,4,3,3,50,0,1
33762,-80,4,2,0,50,0,1
34297,-80,4,3,2,50,0,1
34619,-80,4,2,0,50,0,1
38155,-80,4,3,2,50,0,1
38262,-80,4,2,0,50,0,1
40512,-80,4,3,3,50,0,1
40619,-80,4,2,0,50,0,1
41155,-80,4,3,2,50,0,1
41476,-80,4,2,0,50,0,1
41797,-86.9565217391304,4,2,0,50,0,0
42869,-86.9565217391304,4,3,2,50,0,0
43190,-86.9565217391304,4,2,0,50,0,0
43940,-86.9565217391304,4,3,3,50,0,0
44155,-86.9565217391304,4,3,2,50,0,0
44262,-86.9565217391304,4,2,0,50,0,0
45012,-86.9565217391304,4,3,2,50,0,0
45119,-86.9565217391304,4,2,0,50,0,0
45869,-86.9565217391304,4,3,2,50,0,0
45976,-86.9565217391304,4,2,0,50,0,0
46297,-86.9565217391304,4,3,2,50,0,0
46405,-86.9565217391304,4,2,0,50,0,0
47155,-86.9565217391304,4,3,2,50,0,0
47369,-86.9565217391304,4,3,3,50,0,0
47476,-86.9565217391304,4,2,0,50,0,0
48012,-86.9565217391304,4,3,2,50,0,0
48333,-86.9565217391304,4,2,0,50,0,0
49726,-86.9565217391304,4,3,2,50,0,0
50047,-86.9565217391304,4,2,0,50,0,0
50797,-86.9565217391304,4,3,3,50,0,0
51012,-86.9565217391304,4,3,2,50,0,0
51119,-86.9565217391304,4,2,0,50,0,0
51869,-86.9565217391304,4,3,2,50,0,0
51979,-86.9565217391304,4,2,0,50,0,0
52726,-86.9565217391304,4,3,2,50,0,0
52833,-86.9565217391304,4,2,0,50,0,0
53155,-86.9565217391304,4,3,2,50,0,0
53262,-86.9565217391304,4,2,0,50,0,0
54226,-86.9565217391304,4,3,3,50,0,0
54333,-86.9565217391304,4,2,0,50,0,0
54869,-86.9565217391304,4,3,2,50,0,0
55190,-86.9565217391304,4,2,0,50,0,0
55512,-100,4,2,0,50,0,0
69226,-50,4,2,0,100,0,1
69333,-50,4,2,0,50,0,1
71583,-50,4,3,2,50,0,1
71690,-50,4,2,0,50,0,1
72440,-50,4,3,2,50,0,1
72655,-50,4,2,0,100,0,1
72762,-50,4,2,0,50,0,1
74583,-50,4,3,2,50,0,1
74690,-50,4,2,0,50,0,1
75440,-50,4,3,2,50,0,1
75762,-50,4,2,0,50,0,1
76083,-50,4,2,0,100,0,1
76190,-50,4,2,0,50,0,1
78440,-50,4,3,2,50,0,1
78547,-50,4,2,0,50,0,1
79297,-50,4,3,2,50,0,1
79512,-50,4,2,0,100,0,1
79619,-50,4,2,0,50,0,1
81869,-66.6666666666667,4,2,0,50,0,1
82297,-66.6666666666667,4,3,2,50,0,1
82619,-66.6666666666667,4,2,0,50,0,1
82940,-100,4,2,0,50,0,0
110369,-80,4,2,0,50,0,1
112512,-80,4,3,3,50,0,1
112619,-80,4,2,0,50,0,1
113583,-80,4,3,2,50,0,1
113690,-80,4,2,0,50,0,1
115940,-80,4,3,3,50,0,1
116047,-80,4,2,0,50,0,1
116583,-80,4,3,2,50,0,1
116905,-80,4,2,0,50,0,1
120440,-80,4,3,2,50,0,1
120547,-80,4,2,0,50,0,1
122797,-80,4,3,3,50,0,1
122905,-80,4,2,0,50,0,1
123440,-80,4,3,2,50,0,1
123762,-80,4,2,0,50,0,1
124083,-86.9565217391304,4,2,0,50,0,0
125155,-86.9565217391304,4,3,2,50,0,0
125262,-86.9565217391304,4,2,0,50,0,0
125369,-86.9565217391304,4,3,2,50,0,0
125476,-86.9565217391304,4,2,0,50,0,0
126226,-86.9565217391304,4,3,3,50,0,0
126333,-86.9565217391304,4,2,0,50,0,0
127297,-86.9565217391304,4,3,2,50,0,0
127405,-86.9565217391304,4,2,0,50,0,0
128155,-86.9565217391304,4,3,2,50,0,0
128262,-86.9565217391304,4,2,0,50,0,0
128583,-86.9565217391304,4,3,2,50,0,0
128690,-86.9565217391304,4,2,0,50,0,0
129440,-86.9565217391304,4,3,2,50,0,0
129655,-86.9565217391304,4,3,3,50,0,0
129762,-86.9565217391304,4,2,0,50,0,0
130297,-86.9565217391304,4,3,2,50,0,0
130619,-86.9565217391304,4,2,0,50,0,0
132012,-86.9565217391304,4,3,2,50,0,0
132333,-86.9565217391304,4,2,0,50,0,0
133083,-86.9565217391304,4,3,3,50,0,0
133297,-86.9565217391304,4,3,2,50,0,0
133405,-86.9565217391304,4,2,0,50,0,0
134155,-86.9565217391304,4,3,2,50,0,0
134262,-86.9565217391304,4,2,0,50,0,0
135012,-86.9565217391304,4,3,2,50,0,0
135119,-86.9565217391304,4,2,0,50,0,0
135440,-86.9565217391304,4,3,2,50,0,0
135547,-86.9565217391304,4,2,0,50,0,0
136512,-86.9565217391304,4,3,3,50,0,0
137155,-86.9565217391304,4,3,2,50,0,0
137476,-86.9565217391304,4,2,0,50,0,0
137797,-100,4,2,0,50,0,0
151512,-80,4,2,0,50,0,0
152583,-80,4,3,2,50,0,0
152905,-80,4,2,0,50,0,0
153655,-80,4,3,3,50,0,0
153869,-80,4,3,2,50,0,0
153976,-80,4,2,0,50,0,0
154726,-80,4,3,2,50,0,0
154833,-80,4,2,0,50,0,0
155583,-80,4,3,2,50,0,0
155690,-80,4,2,0,50,0,0
156012,-80,4,3,2,50,0,0
156119,-80,4,2,0,50,0,0
156869,-80,4,3,2,50,0,0
157083,-80,4,3,3,50,0,0
157190,-80,4,2,0,50,0,0
157726,-80,4,3,2,50,0,0
158047,-80,4,2,0,50,0,0
159440,-80,4,3,2,50,0,0
159762,-80,4,2,0,50,0,0
160512,-80,4,3,3,50,0,0
160726,-80,4,3,2,50,0,0
160833,-80,4,2,0,50,0,0
161583,-80,4,3,2,50,0,0
161690,-80,4,2,0,50,0,0
162440,-80,4,3,2,50,0,0
162547,-80,4,2,0,50,0,0
162869,-80,4,3,2,50,0,0
162976,-80,4,2,0,50,0,0
163940,-80,4,3,3,50,0,0
164047,-80,4,2,0,50,0,0
164583,-80,4,3,2,50,0,0
164797,-86.9565217391304,4,2,0,50,0,0
165226,-100,4,2,0,50,0,0
192655,-80,4,2,0,50,0,1
194797,-80,4,3,3,50,0,1
194905,-80,4,2,0,50,0,1
195869,-80,4,3,2,50,0,1
195976,-80,4,2,0,50,0,1
198226,-80,4,3,3,50,0,1
198333,-80,4,2,0,50,0,1
198869,-80,4,3,2,50,0,1
199190,-80,4,2,0,50,0,1
202726,-80,4,3,2,50,0,1
202833,-80,4,2,0,50,0,1
205083,-80,4,3,3,50,0,1
205190,-80,4,2,0,50,0,1
205726,-80,4,3,2,50,0,1
206047,-80,4,2,0,50,0,1
206369,-100,4,2,0,50,0,0

[Colours]
Combo1 : 204,183,168
Combo2 : 244,168,240
Combo3 : 250,211,131
Combo4 : 163,203,135

[HitObjects]
89,98,655,6,0,B|155:83|190:36|190:36|254:37|301:73|301:73|365:61|418:82|418:82|444:148|500:185,1,480.000018310548,2|0,1:3|0:0,0:0:0:0:
491,296,2797,6,0,P|430:376|378:290,1,240.000009155274,2|0,1:3|0:0,0:0:0:0:
427,181,4083,6,0,B|462:128|453:69|453:69|260:108|90:15,1,480.000018310548,2|0,1:3|0:0,0:0:0:0:
55,132,6226,6,0,P|31:202|33:261,1,120.000004577637,2|0,2:3|0:0,0:0:0:0:
97,227,6869,2,0,P|129:293|173:332,1,120.000004577637,2|0,2:3|0:0,0:0:0:0:
194,263,7512,6,0,B|315:324|428:299|428:299|447:241|501:206|501:206|446:173|485:96,1,480.000018310548,2|0,1:3|0:0,0:0:0:0:
366,70,9655,6,0,B|303:67|250:39|250:39|226:95|171:126,1,240.000009155274,2|0,1:3|0:0,0:0:0:0:
244,221,10940,6,0,B|245:163|285:134|285:134|382:160|449:125|449:125|400:258|462:332,1,480.000018310548,2|0,1:3|0:0,0:0:0:0:
189,326,13083,6,0,P|173:289|175:249,1,80,2|0,1:3|0:0,0:0:0:0:
197,118,13512,1,0,0:0:0:0:
263,272,13726,1,2,1:3:0:0:
301,117,13940,1,0,0:0:0:0:
374,262,14155,1,0,0:0:0:0:
374,262,14262,1,0,0:0:0:0:
374,262,14369,2,0,P|423:294|481:286,1,120,10|0,2:3|0:0,0:0:0:0:
493,247,14797,1,0,0:0:0:0:
393,110,15012,5,8,2:2:0:0:
374,277,15226,1,8,2:2:0:0:
500,149,15440,1,0,0:0:0:0:
304,186,15655,1,8,0:1:0:0:
485,253,15869,1,0,0:0:0:0:
355,129,16083,2,0,P|294:113|239:143,1,120,4|0,1:1|0:0,0:0:0:0:
221,169,16512,1,2,2:3:0:0:
260,82,16726,5,8,2:2:0:0:
110,139,16940,1,8,2:2:0:0:
261,189,17155,1,0,0:0:0:0:
108,242,17369,1,8,0:1:0:0:
255,302,17583,1,0,0:0:0:0:
255,302,17690,1,0,0:0:0:0:
255,302,17797,2,0,P|225:352|170:372,1,120,10|0,2:3|0:0,0:0:0:0:
128,373,18226,1,0,0:0:0:0:
135,166,18440,5,8,2:2:0:0:
149,340,18655,1,8,2:2:0:0:
250,231,18869,1,0,0:0:0:0:
170,372,19083,1,8,0:1:0:0:
94,198,19297,1,0,0:0:0:0:
287,159,19512,2,0,P|345:161|387:203,1,120,4|0,1:1|0:0,0:0:0:0:
377,241,19940,1,2,2:3:0:0:
278,273,20155,5,8,2:2:0:0:
344,132,20369,1,8,2:2:0:0:
479,208,20583,1,2,2:3:0:0:
414,350,20797,1,8,0:1:0:0:
295,246,21012,1,0,0:0:0:0:
505,233,21226,2,0,L|504:338,1,80,10|0,1:3|0:0,0:0:0:0:
393,136,21655,1,0,0:0:0:0:
340,285,21869,5,8,2:2:0:0:
463,200,22083,1,8,2:2:0:0:
283,227,22297,1,0,0:0:0:0:
466,304,22511,1,8,0:1:0:0:
278,337,22726,1,0,0:0:0:0:
507,338,22940,2,0,P|505:298|486:263,1,80,4|0,1:1|0:0,0:0:0:0:
301,375,23369,2,0,P|276:343|267:304,1,80,10|8,1:3|2:2,0:0:0:0:
388,291,23797,5,8,2:2:0:0:
214,211,24012,1,0,0:0:0:0:
408,185,24226,1,8,0:1:0:0:
193,106,24440,1,0,0:0:0:0:
455,89,24655,2,0,P|486:110|507:144,1,80,10|0,1:3|0:0,0:0:0:0:
327,331,25083,1,0,0:0:0:0:
418,94,25297,5,8,2:2:0:0:
256,216,25512,1,8,2:2:0:0:
468,178,25726,1,0,0:0:0:0:
250,186,25940,1,8,0:1:0:0:
464,212,26155,1,0,0:0:0:0:
464,212,26262,1,0,0:0:0:0:
464,212,26369,2,0,L|384:188,1,80,8|0,1:3|0:0,0:0:0:0:
382,66,26797,6,0,L|302:42,1,80,2|0,2:3|0:0,0:0:0:0:
237,188,27226,1,4,0:0:0:0:
389,285,27440,2,0,L|458:329,1,80,2|0,2:3|0:0,0:0:0:0:
398,139,27869,1,0,0:0:0:0:
174,185,28083,2,0,L|36:123,1,150,10|0,1:3|0:0,0:0:0:0:
19,170,28512,1,0,0:0:0:0:
159,98,28726,5,0,0:0:0:0:
198,319,28940,1,8,3:1:0:0:
104,185,29155,1,4,3:3:0:0:
351,236,29369,1,4,3:3:0:0:
249,42,29583,1,2,2:2:0:0:
178,238,29797,2,0,P|191:295|271:341,1,150,4|0,1:1|0:0,0:0:0:0:
303,373,30226,1,10,0:0:0:0:
135,316,30440,5,8,3:3:0:0:
197,158,30655,1,8,3:1:0:0:
345,239,30869,1,2,2:2:0:0:
112,289,31083,1,2,2:2:0:0:
204,131,31297,1,6,0:0:0:0:
335,271,31512,2,0,P|381:305|472:287,1,150,10|0,1:3|0:0,0:0:0:0:
469,240,31940,1,0,0:0:0:0:
318,286,32155,5,8,3:3:0:0:
188,156,32369,1,8,3:1:0:0:
379,92,32583,1,8,3:3:0:0:
262,295,32797,1,0,0:0:0:0:
219,79,33012,1,2,2:2:0:0:
401,229,33226,2,0,P|423:296|401:375,1,150,4|0,1:1|0:0,0:0:0:0:
353,370,33655,1,10,0:0:0:0:
333,125,33869,5,0,0:0:0:0:
401,322,34083,1,8,3:1:0:0:
324,96,34297,1,6,0:0:0:0:
441,270,34512,1,6,3:3:0:0:
441,270,34619,1,2,2:2:0:0:
441,270,34726,1,2,2:2:0:0:
262,303,34940,2,0,P|205:310|165:298,1,100,10|2,1:3|2:2,0:0:0:0:
0,185,35369,1,0,0:0:0:0:
214,116,35583,6,0,P|271:109|311:121,1,100,0|8,0:0|3:1,0:0:0:0:
503,228,36012,1,4,3:3:0:0:
300,312,36226,1,4,3:3:0:0:
106,208,36440,1,2,2:2:0:0:
311,121,36655,2,0,P|360:116|407:132,1,100,4|8,1:1|2:2,0:0:0:0:
240,181,37083,1,2,2:3:0:0:
139,56,37297,5,8,3:3:0:0:
167,262,37512,1,8,3:1:0:0:
242,74,37726,1,2,2:2:0:0:
99,300,37940,1,2,2:2:0:0:
90,120,38155,1,6,0:0:0:0:
230,314,38369,2,0,P|264:349|310:369,1,100,10|2,1:3|2:2,0:0:0:0:
445,301,38797,1,0,0:0:0:0:
279,143,39012,5,8,3:3:0:0:
361,302,39226,1,8,3:1:0:0:
197,241,39440,1,8,3:3:0:0:
406,226,39655,1,0,0:0:0:0:
164,140,39869,1,2,2:2:0:0:
381,88,40083,6,0,P|430:83|477:99,1,100,4|4,1:1|3:3,0:0:0:0:
299,272,40512,2,0,P|348:276|395:260,1,100,10|0,0:0|0:0,0:0:0:0:
292,82,40940,5,8,3:1:0:0:
327,297,41155,1,6,0:0:0:0:
193,126,41369,1,6,3:3:0:0:
193,126,41476,1,0,2:2:0:0:
193,126,41583,1,2,2:2:0:0:
252,319,41797,2,0,P|272:351|320:375,1,92.0000017547608,10|2,1:3|2:2,0:0:0:0:
333,112,42226,2,0,P|354:188|330:293,1,184.000003509522,2|8,2:2|3:1,0:0:0:0:
73,198,42869,5,6,0:0:0:0:
73,198,43083,2,0,L|184:198,1,92.0000017547608,6|2,3:3|2:2,0:0:0:0:
211,197,43405,1,0,2:2:0:0:
255,207,43512,1,2,2:2:0:0:
255,207,43726,1,8,2:2:0:0:
255,207,43940,1,10,0:0:0:0:
255,207,44155,2,0,L|366:207,1,92.0000017547608,10|8,0:0|3:1,0:0:0:0:
438,208,44583,1,2,2:2:0:0:
245,84,44797,2,0,L|330:136,1,92.0000017547608,2|6,1:2|0:0,0:0:0:0:
464,229,45226,5,10,3:3:0:0:
235,229,45440,1,2,2:2:0:0:
451,294,45655,1,2,2:2:0:0:
222,164,45869,1,10,0:0:0:0:
394,327,46083,1,8,3:1:0:0:
258,108,46297,1,10,0:0:0:0:
302,315,46512,5,2,2:2:0:0:
409,101,46726,1,2,2:2:0:0:
409,101,46833,1,0,2:2:0:0:
409,101,46940,1,2,2:2:0:0:
261,212,47155,1,10,0:0:0:0:
512,206,47369,1,10,0:0:0:0:
454,328,47583,2,0,P|429:356|378:375,1,92.0000017547608,4|8,1:1|3:1,0:0:0:0:
250,331,48012,1,6,0:0:0:0:
302,111,48226,6,0,P|264:109|216:133,1,92.0000017547608,6|2,0:0|2:2,0:0:0:0:
158,272,48655,1,10,3:3:0:0:
97,133,48869,1,2,2:2:0:0:
158,302,49083,1,2,2:2:0:0:
217,133,49297,1,2,2:2:0:0:
158,333,49512,1,8,3:1:0:0:
82,104,49726,1,6,0:0:0:0:
158,363,49940,1,6,0:0:0:0:
227,104,50155,1,2,2:2:0:0:
227,104,50262,1,0,2:2:0:0:
227,104,50369,1,2,2:2:0:0:
55,264,50583,1,8,2:2:0:0:
245,362,50797,1,10,0:0:0:0:
227,104,51012,6,0,P|243:180|214:284,1,184.000003509522,10|2,0:0|2:2,0:0:0:0:
115,175,51655,2,0,L|210:175,1,92.0000017547608,2|6,1:2|0:0,0:0:0:0:
369,174,52083,5,10,3:3:0:0:
262,317,52297,1,2,2:2:0:0:
202,156,52512,1,2,2:2:0:0:
354,312,52726,1,10,0:0:0:0:
179,242,52940,5,8,3:1:0:0:
369,174,53155,1,10,0:0:0:0:
247,343,53369,1,2,2:2:0:0:
282,117,53583,1,2,2:2:0:0:
282,117,53690,1,0,2:2:0:0:
282,117,53797,1,2,2:2:0:0:
365,340,54012,1,8,3:3:0:0:
207,175,54226,1,10,0:0:0:0:
330,372,54440,6,0,P|345:282|318:195,1,184.000003509522,2|6,1:2|0:0,0:0:0:0:
285,46,55083,1,6,0:0:0:0:
285,46,55190,1,0,2:2:0:0:
285,46,55297,1,2,2:2:0:0:
500,101,55512,5,10,1:3:0:0:
334,133,55726,1,0,0:0:0:0:
499,175,55940,1,0,0:0:0:0:
313,204,56155,1,8,2:2:0:0:
489,249,56369,1,8,2:2:0:0:
264,260,56583,1,0,0:0:0:0:
465,320,56797,5,0,0:0:0:0:
199,296,57012,1,0,0:0:0:0:
421,376,57226,1,8,0:1:0:0:
331,191,57440,1,2,2:3:0:0:
512,342,57655,2,0,P|474:354|435:346,1,80,10|8,1:3|1:3,0:0:0:0:
257,227,58083,2,0,P|218:218|180:231,1,80,4|0,0:0|0:0,0:0:0:0:
102,368,58512,2,0,L|103:259,1,80,4|0,1:1|0:0,0:0:0:0:
104,121,58940,5,10,1:3:0:0:
278,219,59155,1,0,0:0:0:0:
105,319,59369,1,0,0:0:0:0:
162,104,59583,1,8,2:2:0:0:
262,277,59797,5,8,2:2:0:0:
62,276,60012,1,0,0:0:0:0:
220,118,60226,1,0,0:0:0:0:
220,319,60440,1,0,0:0:0:0:
47,218,60655,1,8,0:1:0:0:
262,161,60869,1,2,2:3:0:0:
210,375,61083,2,0,P|196:295|222:220,1,160,10|4,1:3|0:0,0:0:0:0:
144,131,61726,2,0,P|171:205|231:257,1,160,2|0,1:3|0:0,0:0:0:0:
180,332,62369,6,0,L|63:332,1,80,10|0,2:3|0:0,0:0:0:0:
55,162,62797,1,0,0:0:0:0:
225,116,63012,1,8,2:2:0:0:
270,286,63226,1,8,2:2:0:0:
100,332,63440,1,0,0:0:0:0:
73,124,63655,5,0,0:0:0:0:
242,169,63869,1,0,0:0:0:0:
196,339,64083,1,8,0:1:0:0:
31,294,64297,1,2,2:3:0:0:
156,116,64512,2,0,P|231:138|286:195,1,160,10|4,2:3|0:0,0:0:0:0:
368,355,65369,5,4,1:1:0:0:
317,178,65584,1,0,0:0:0:0:
227,370,65797,2,0,L|206:285,1,80,10|0,2:3|0:0,0:0:0:0:
151,96,66226,5,8,2:2:0:0:
50,243,66440,1,0,0:0:0:0:
302,273,66655,1,8,2:2:0:0:
210,137,66869,1,0,0:0:0:0:
89,318,67083,1,0,0:0:0:0:
308,159,67297,1,0,0:0:0:0:
294,356,67512,1,8,0:1:0:0:
435,106,67726,1,2,2:3:0:0:
486,319,67940,2,0,L|508:241,2,80,10|8|0,2:3|1:3|0:0,0:0:0:0:
337,347,68583,5,0,1:1:0:0:
415,187,68797,1,0,1:1:0:0:
254,102,69012,1,0,1:1:0:0:
120,304,69226,6,0,B|144:384|8:368|8:368|128:208|8:48|8:48|96:-8|160:48|160:48|160:136|256:192|256:192|336:136|368:48|368:48|432:-8|504:48|504:48|384:208|509:340,1,1440,10|8,1:3|2:2,0:0:0:0:
290,50,71369,5,4,2:2:0:0:
405,313,71583,1,6,0:0:0:0:
198,91,71797,1,8,3:1:0:0:
465,241,72012,1,2,2:2:0:0:
182,190,72226,1,2,2:2:0:0:
483,153,72440,1,10,0:0:0:0:
199,302,72655,6,0,B|123:352|47:337|47:337|52:280|22:229|22:229|142:249|205:159|205:159|277:198|351:165|351:165|337:255|362:329|362:329|450:349|504:280|504:280|498:197|448:130|448:130|495:114|502:75|502:75|495:32|448:27|448:27|375:78|280:88,1,1440,10|6,1:3|0:0,0:0:0:0:
99,131,74797,5,2,2:2:0:0:
99,131,75012,1,2,2:2:0:0:
387,103,75226,1,8,3:1:0:0:
387,103,75440,1,6,0:0:0:0:
187,300,75655,1,6,0:0:0:0:
191,305,75762,1,0,2:2:0:0:
191,305,75869,1,2,2:2:0:0:
471,150,76083,6,0,B|513:115|528:-64|382:-82|272:-64|209:6|136:218|304:160|272:224|471:65|466:212|466:226|414:247|438:206|512:192|528:240|520:312|504:336|487:361|475:373|464:384|425:385|376:392|304:392|216:398|108:407|235:325|248:248|258:150|323:160|371:161|387:170|388:166|415:127|475:150|487:77|453:45|414:70|386:28|351:62|345:17|389:105|376:85|307:128|266:202|156:113,1,1440,10|8,1:3|2:2,0:0:0:0:
126,347,78226,5,2,2:2:0:0:
271,75,78440,1,6,0:0:0:0:
309,380,78654,1,8,3:1:0:0:
100,155,78869,1,2,2:2:0:0:
401,215,79083,1,2,2:2:0:0:
126,347,79297,1,6,0:0:0:0:
443,300,79512,6,0,B|509:167|418:21|418:21|289:8|216:22|216:22|259:53|323:75|323:75|193:83|193:83|249:126|340:143|340:143|208:163|208:163|256:204|357:215|357:215|229:247|229:247|259:274|369:290,1,1440,10|4,1:3|3:3,0:0:0:0:
184,352,81655,5,2,2:2:0:0:
184,352,81869,2,0,B|72:338|73:248|73:248|93:191|72:133,1,240.000009155274,2|6,2:2|0:0,0:0:0:0:
137,72,82512,1,6,0:0:0:0:
137,72,82619,1,0,0:0:0:0:
137,72,82726,1,2,2:2:0:0:
137,72,82940,6,0,B|211:114|221:198|221:198|271:137|343:94|343:94|341:181|305:259|305:259|386:216|470:233,1,640,8|0,0:0|0:0,0:0:0:0:
508,306,84869,5,2,0:0:0:0:
431,363,85083,1,2,0:0:0:0:
335,373,85297,1,0,0:0:0:0:
238,369,85512,2,0,L|152:331,1,80,0|0,0:0|1:0,0:0:0:0:
86,281,85940,1,0,1:0:0:0:
70,186,86155,1,2,0:0:0:0:
111,99,86369,6,0,P|173:51|159:311,1,640,8|0,0:0|0:0,0:0:0:0:
96,261,88297,5,2,0:0:0:0:
28,194,88512,1,2,0:0:0:0:
96,126,88726,1,0,0:0:0:0:
164,194,88940,2,0,L|258:194,1,80,0|0,0:0|1:0,0:0:0:0:
340,197,89369,1,0,1:0:0:0:
408,129,89583,1,2,0:0:0:0:
340,61,89797,6,0,B|271:117|191:78|191:78|136:144|51:145|51:145|66:224|13:295|13:295|33:383|163:364,1,640,8|0,0:0|0:0,0:0:0:0:
234,354,91726,5,2,0:0:0:0:
327,333,91940,1,2,0:0:0:0:
419,307,92155,1,0,0:0:0:0:
419,211,92369,2,0,L|418:114,1,80,0|0,0:0|1:0,0:0:0:0:
419,35,92797,1,0,1:0:0:0:
327,9,93012,1,2,0:0:0:0:
235,35,93226,6,0,B|96:45|82:188|82:188|160:154|202:184|202:184|187:221|160:248|160:248|224:249|271:218|271:218|277:296|277:296|321:272|370:296,1,720,8|0,0:0|0:0,0:0:0:0:
475,313,95369,5,2,1:2:0:0:
376,200,95583,1,0,0:0:0:0:
414,366,95797,1,12,3:1:0:0:
472,173,96012,1,2,2:2:0:0:
283,167,96226,2,0,L|232:196,3,40,2|0|2|0,2:2|0:0|2:2|0:0,0:0:0:0:
326,104,96655,6,0,P|269:88|216:114,1,120,10|0,2:3|0:0,0:0:0:0:
186,140,97083,1,0,0:0:0:0:
303,237,97297,5,8,0:2:0:0:
225,68,97512,1,8,0:2:0:0:
230,269,97726,1,0,0:0:0:0:
337,114,97940,1,8,0:1:0:0:
128,203,98155,1,0,0:0:0:0:
318,321,98369,2,0,P|374:336|427:310,1,120,4|0,1:1|0:0,0:0:0:0:
452,278,98797,1,2,2:3:0:0:
339,175,99012,5,8,0:0:0:0:
437,38,99226,1,8,0:0:0:0:
462,233,99440,1,0,0:0:0:0:
342,59,99655,1,8,0:1:0:0:
511,154,99869,1,0,0:0:0:0:
278,242,100083,2,0,L|165:290,1,120,10|0,2:3|0:0,0:0:0:0:
130,304,100512,1,0,0:0:0:0:
181,132,100726,5,8,0:0:0:0:
310,285,100940,1,8,0:0:0:0:
100,300,101155,1,0,0:0:0:0:
215,134,101369,1,8,0:1:0:0:
299,318,101583,1,0,0:0:0:0:
100,300,101797,2,0,P|50:268|33:212,1,120,4|0,1:1|0:0,0:0:0:0:
31,172,102226,1,2,2:3:0:0:
176,53,102440,5,8,0:0:0:0:
342,76,102655,1,8,0:0:0:0:
370,241,102869,1,2,2:3:0:0:
222,319,103083,1,8,0:1:0:0:
102,201,103297,1,0,0:0:0:0:
176,53,103512,2,0,L|278:66,1,80,10|0,1:3|0:0,0:0:0:0:
409,83,103940,1,0,0:0:0:0:
266,172,104155,5,8,0:0:0:0:
436,261,104369,1,8,0:0:0:0:
253,318,104583,1,0,0:0:0:0:
406,244,104797,1,0,0:0:0:0:
236,157,105012,1,8,0:1:0:0:
413,116,105226,2,0,L|496:99,1,80,4|0,1:1|0:0,0:0:0:0:
253,285,105655,2,0,L|159:304,1,80,10|8,1:3|0:0,0:0:0:0:
284,123,106083,5,8,0:0:0:0:
351,314,106297,1,0,0:0:0:0:
436,145,106512,1,8,0:1:0:0:
212,251,106726,1,0,0:0:0:0:
472,289,106940,2,0,P|477:328|466:366,1,80,10|0,1:3|0:0,0:0:0:0:
326,343,107369,1,0,0:0:0:0:
393,169,107583,5,8,0:0:0:0:
265,107,107797,1,8,0:0:0:0:
243,301,108012,1,0,0:0:0:0:
368,125,108226,1,8,0:1:0:0:
148,219,108440,1,0,0:0:0:0:
148,219,108547,1,0,0:0:0:0:
148,219,108655,2,0,L|52:256,1,80,8|0,1:3|0:0,0:0:0:0:
192,372,109083,6,0,L|288:335,1,80,2|0,2:3|0:0,0:0:0:0:
431,278,109512,1,4,0:0:0:0:
495,247,109726,1,2,0:0:0:0:
489,319,109940,1,0,0:0:0:0:
305,197,110155,1,0,0:0:0:0:
305,197,110262,1,0,0:0:0:0:
305,197,110369,2,0,L|156:95,1,150,10|0,1:3|0:0,0:0:0:0:
138,85,110797,1,0,0:0:0:0:
43,220,111012,5,0,0:0:0:0:
201,316,111226,1,8,3:1:0:0:
145,122,111440,1,4,3:3:0:0:
82,344,111655,1,4,3:3:0:0:
273,180,111869,1,2,2:2:0:0:
188,358,112083,2,0,P|118:335|85:270,1,150,4|0,1:1|0:0,0:0:0:0:
82,219,112512,1,10,0:0:0:0:
251,71,112726,5,8,3:3:0:0:
178,260,112940,1,8,3:1:0:0:
128,79,113155,1,2,2:2:0:0:
315,227,113369,1,2,2:2:0:0:
39,163,113583,1,6,0:0:0:0:
306,195,113797,2,0,P|309:268|259:321,1,150,10|0,1:3|0:0,0:0:0:0:
208,327,114226,1,0,0:0:0:0:
274,121,114440,5,8,3:3:0:0:
345,344,114655,1,8,3:1:0:0:
202,184,114869,1,8,3:3:0:0:
429,286,115083,1,0,0:0:0:0:
202,184,115297,1,2,2:2:0:0:
473,198,115512,2,0,P|476:271|426:324,1,150,4|0,1:1|0:0,0:0:0:0:
375,325,115940,1,10,0:0:0:0:
64,243,116155,5,0,0:0:0:0:
110,27,116369,1,8,3:1:0:0:
325,72,116583,1,6,0:0:0:0:
263,299,116797,1,6,0:0:0:0:
307,324,116904,1,0,0:0:0:0:
357,333,117012,1,2,2:2:0:0:
407,327,117119,1,0,0:0:0:0:
453,308,117226,2,0,P|508:257|512:184,1,150,10|0,1:3|0:0,0:0:0:0:
496,138,117654,1,0,0:0:0:0:
237,123,117869,5,0,0:0:0:0:
395,200,118083,1,8,3:1:0:0:
97,216,118297,1,4,3:3:0:0:
373,323,118512,1,4,3:3:0:0:
250,25,118726,1,2,2:2:0:0:
182,304,118940,2,0,P|114:331|47:302,1,150,4|0,1:1|0:0,0:0:0:0:
27,255,119368,1,2,2:3:0:0:
175,225,119583,5,8,3:3:0:0:
418,357,119797,1,8,3:1:0:0:
114,262,120012,1,2,2:2:0:0:
447,291,120226,1,2,2:2:0:0:
182,304,120440,1,6,0:0:0:0:
386,192,120655,2,0,B|477:137,1,100,10|2,1:3|2:2,0:0:0:0:
349,36,121083,1,0,0:0:0:0:
446,244,121297,5,8,3:3:0:0:
443,49,121512,1,8,3:1:0:0:
360,216,121726,1,8,3:3:0:0:
309,73,121941,1,0,0:0:0:0:
305,289,122155,1,2,2:2:0:0:
171,146,122369,2,0,L|82:217,1,100,4|4,1:1|3:3,0:0:0:0:
381,100,122797,2,0,L|484:110,1,100,10|0,0:0|0:0,0:0:0:0:
461,314,123226,5,8,3:1:0:0:
209,361,123440,1,6,0:0:0:0:
249,168,123655,1,6,0:0:0:0:
272,123,123762,1,0,0:0:0:0:
312,93,123869,1,2,2:2:0:0:
358,75,123976,1,0,0:0:0:0:
403,67,124083,2,0,L|506:68,1,92.0000017547608,10|2,1:3|2:2,0:0:0:0:
413,238,124512,1,2,2:2:0:0:
211,177,124726,5,2,2:2:0:0:
387,101,124940,1,8,3:1:0:0:
253,318,125155,2,0,L|313:308,3,46.0000008773804,6|0|6|0,0:0|0:0|0:0|0:0,0:0:0:0:
292,264,125583,1,2,2:2:0:0:
292,264,125690,1,0,2:2:0:0:
292,264,125797,2,0,L|195:280,1,92.0000017547608,2|8,2:2|2:2,0:0:0:0:
314,166,126226,1,10,0:0:0:0:
106,229,126440,5,12,3:3:0:0:
43,100,126655,1,8,3:1:0:0:
168,31,126869,1,2,2:2:0:0:
12,252,127083,1,2,1:2:0:0:
88,29,127297,1,6,0:0:0:0:
217,193,127512,2,0,L|276:266,1,92.0000017547608,10|2,3:3|2:2,0:0:0:0:
94,153,127940,1,2,2:2:0:0:
0,262,128155,5,10,0:0:0:0:
228,162,128369,1,8,3:1:0:0:
82,349,128583,5,10,0:0:0:0:
215,134,128797,1,2,2:2:0:0:
347,267,129012,1,2,2:2:0:0:
347,267,129119,1,0,2:0:0:0:
347,267,129226,2,0,L|450:254,1,92.0000017547608,2|10,2:2|0:0,0:0:0:0:
499,154,129655,1,10,0:0:0:0:
429,345,129869,5,4,1:1:0:0:
271,254,130083,1,8,3:1:0:0:
415,50,130297,1,6,0:0:0:0:
402,267,130512,1,6,0:0:0:0:
393,312,130619,1,0,2:2:0:0:
364,348,130726,1,2,2:2:0:0:
321,366,130833,1,0,0:0:0:0:
275,367,130940,2,0,L|179:368,1,92.0000017547608,10|2,3:3|2:2,0:0:0:0:
423,289,131369,2,0,P|465:270|491:233,1,92.0000017547608,2|2,2:2|2:2,0:0:0:0:
288,134,131797,5,8,3:1:0:0:
78,175,132012,1,6,0:0:0:0:
192,276,132226,1,6,0:0:0:0:
308,54,132440,1,2,2:2:0:0:
308,54,132547,1,0,2:2:0:0:
308,54,132655,2,0,P|349:72|375:109,1,92.0000017547608,2|8,2:2|2:2,0:0:0:0:
212,244,133083,2,0,P|231:285|268:311,1,92.0000017547608,10|10,0:0|0:0,0:0:0:0:
345,175,133512,5,8,3:1:0:0:
242,343,133726,1,2,2:2:0:0:
473,206,133940,1,2,1:2:0:0:
249,252,134155,1,6,0:0:0:0:
427,324,134369,2,0,P|472:327|512:306,1,92.0000017547608,10|2,3:3|2:2,0:0:0:0:
333,255,134797,1,2,2:2:0:0:
405,68,135012,5,10,0:0:0:0:
261,167,135226,1,8,3:1:0:0:
121,73,135440,1,10,0:0:0:0:
262,206,135655,1,2,2:2:0:0:
405,108,135869,1,2,2:2:0:0:
405,108,135976,1,0,2:0:0:0:
405,108,136083,2,0,P|445:128|490:125,1,92.0000017547608,2|8,2:2|3:3,0:0:0:0:
285,31,136512,1,10,0:0:0:0:
352,236,136726,5,2,1:2:0:0:
146,109,136940,1,8,3:1:0:0:
217,296,137155,1,6,0:0:0:0:
312,128,137369,1,6,0:0:0:0:
354,143,137476,1,0,2:0:0:0:
386,176,137583,1,2,2:2:0:0:
401,219,137690,1,0,0:0:0:0:
404,258,137797,2,0,P|445:278|488:274,1,80,10|0,1:3|0:0,0:0:0:0:
468,134,138226,1,0,0:0:0:0:
393,302,138440,5,8,2:2:0:0:
231,244,138655,1,8,2:2:0:0:
485,229,138869,1,0,0:0:0:0:
291,304,139083,1,0,0:0:0:0:
290,157,139297,1,0,0:0:0:0:
469,316,139512,2,0,L|381:343,1,80,8|2,0:1|2:3,0:0:0:0:
492,146,139940,2,0,L|401:173,1,80,10|8,1:3|1:3,0:0:0:0:
207,234,140369,5,4,0:0:0:0:
335,91,140583,1,0,0:0:0:0:
381,308,140797,1,4,1:1:0:0:
340,119,141012,1,0,0:0:0:0:
274,338,141226,2,0,L|184:361,1,80,10|0,1:3|0:0,0:0:0:0:
262,183,141655,1,0,0:0:0:0:
486,298,141869,5,8,2:2:0:0:
360,101,142083,1,8,2:2:0:0:
509,190,142297,1,0,0:0:0:0:
277,171,142512,1,0,0:0:0:0:
374,309,142726,1,0,0:0:0:0:
475,114,142940,2,0,L|356:139,1,120,8|0,0:1|0:0,0:0:0:0:
418,278,143369,2,0,L|295:306,1,120,10|0,1:3|0:0,0:0:0:0:
154,214,143797,6,0,L|41:239,1,80,4|2,0:0|1:3,0:0:0:0:
164,340,144226,2,0,P|203:345|241:333,1,80,2|0,0:0|0:0,0:0:0:0:
185,30,144655,2,0,L|244:232,1,200,10|0,2:3|0:0,0:0:0:0:
255,259,145297,5,8,2:2:0:0:
106,201,145512,1,8,2:2:0:0:
328,189,145726,1,0,0:0:0:0:
178,324,145940,1,0,0:0:0:0:
273,132,146155,1,0,0:0:0:0:
374,262,146369,6,0,P|423:294|481:286,1,120,8|0,0:1|0:0,0:0:0:0:
378,164,146797,2,0,P|319:155|270:187,1,120,10|0,2:3|0:0,0:0:0:0:
338,333,147226,2,0,P|395:320|430:274,1,120,4|0,0:0|0:0,0:0:0:0:
339,140,147655,6,0,L|339:266,1,120,4|0,1:1|0:0,0:0:0:0:
233,351,148083,6,0,L|233:231,1,120,10|0,2:3|0:0,0:0:0:0:
369,117,148512,2,0,L|369:239,1,120
339,260,148940,5,8,0:2:0:0:
248,126,149155,1,0,0:0:0:0:
453,263,149369,1,0,0:0:0:0:
318,48,149583,1,0,0:0:0:0:
392,334,149797,2,0,L|472:371,1,80,8|2,0:1|2:3,0:0:0:0:
186,331,150226,2,0,B|99:348,1,80,10|8,2:3|1:3,0:0:0:0:
178,176,150655,5,8,0:0:0:0:
274,363,150869,1,8,0:0:0:0:
350,281,151083,1,0,0:0:0:0:
124,272,151297,1,0,0:0:0:0:
136,85,151512,2,0,B|184:189,1,100,10|2,1:3|2:2,0:0:0:0:
405,111,151940,2,0,B|329:194,1,100,2|2,1:2|2:2,0:0:0:0:
160,207,152369,5,8,3:1:0:0:
335,144,152583,1,6,0:0:0:0:
307,286,152797,1,6,0:0:0:0:
199,89,153012,1,2,2:2:0:0:
199,89,153119,1,0,2:0:0:0:
199,89,153226,2,0,P|142:82|102:94,1,100,2|8,2:2|2:2,0:0:0:0:
267,248,153655,2,0,P|324:255|364:243,1,100,10|10,0:0|0:0,0:0:0:0:
498,139,154083,5,8,3:1:0:0:
333,298,154297,1,2,2:2:0:0:
343,108,154512,1,2,1:2:0:0:
494,343,154726,1,6,0:0:0:0:
247,258,154940,2,0,P|190:251|150:263,1,100,10|2,3:3|2:2,0:0:0:0:
415,182,155369,2,0,P|472:189|512:177,1,100,2|10,2:2|0:0,0:0:0:0:
335,66,155797,5,8,3:1:0:0:
157,218,156012,1,10,0:0:0:0:
388,203,156226,1,2,2:2:0:0:
98,129,156440,1,2,2:2:0:0:
98,129,156547,1,0,2:0:0:0:
98,129,156655,2,0,L|-4:144,1,100,2|10,2:2|0:0,0:0:0:0:
144,350,157083,2,0,L|246:334,1,100,10|2,0:0|2:2,0:0:0:0:
486,292,157512,5,8,3:1:0:0:
374,129,157726,1,6,0:0:0:0:
330,376,157940,1,6,0:0:0:0:
330,376,158047,1,0,2:0:0:0:
330,376,158155,1,2,2:2:0:0:
185,173,158369,2,0,P|136:160|87:167,1,100,10|2,3:3|2:2,0:0:0:0:
319,232,158797,2,0,P|367:244|416:237,1,100,2|2,2:2|2:2,0:0:0:0:
372,122,159226,5,8,3:1:0:0:
235,292,159440,1,6,0:0:0:0:
62,210,159655,1,6,0:0:0:0:
341,211,159869,1,2,2:2:0:0:
341,211,159976,1,0,2:0:0:0:
341,211,160083,2,0,P|363:255|367:304,1,100,2|8,2:2|2:2,0:0:0:0:
152,141,160512,2,0,P|129:96|125:47,1,100,10|10,0:0|0:0,0:0:0:0:
257,53,160940,5,8,3:1:0:0:
138,171,161155,1,2,2:2:0:0:
256,290,161369,1,2,1:2:0:0:
375,171,161583,1,6,0:0:0:0:
152,141,161797,2,0,P|104:125|67:93,1,100,10|2,3:3|2:2,0:0:0:0:
341,130,162226,2,0,P|388:145|425:177,1,100,2|10,2:2|0:0,0:0:0:0:
383,334,162655,5,8,3:1:0:0:
451,158,162869,1,10,0:0:0:0:
494,355,163083,1,2,2:2:0:0:
340,139,163297,1,2,2:2:0:0:
340,139,163405,1,0,2:0:0:0:
340,139,163512,2,0,P|333:89|347:41,1,100,2|8,2:2|3:3,0:0:0:0:
174,214,163940,2,0,P|180:263|166:311,1,100,10|2,0:0|2:2,0:0:0:0:
172,66,164369,5,8,3:1:0:0:
172,66,164583,1,6,0:0:0:0:
172,66,164797,2,0,L|264:45,1,92.0000017547608,6|2,0:0|2:2,0:0:0:0:
307,157,165226,2,0,P|408:199|468:105,1,240,2|0,1:3|0:2,0:0:0:0:
371,65,166083,5,8,1:0:0:0:
371,65,166297,1,8,1:0:0:0:
371,65,166512,2,0,L|283:47,1,80,8|0,0:2|0:0,0:0:0:0:
185,43,166940,2,0,P|119:76|100:138,1,120,8|0,1:1|0:0,0:0:0:0:
145,124,167369,2,0,L|120:227,1,80,10|0,2:3|0:0,0:0:0:0:
110,288,167797,5,0,1:0:0:0:
171,350,168011,1,0,1:0:0:0:
259,346,168226,1,8,1:2:0:0:
346,341,168440,1,0,0:0:0:0:
406,277,168655,2,0,B|412:164,1,80,10|0,2:3|0:0,0:0:0:0:
448,117,169083,2,0,P|427:62|375:34,1,120,8|0,0:1|0:0,0:0:0:0:
331,27,169512,5,0,1:0:0:0:
247,55,169726,1,0,1:0:0:0:
160,38,169940,1,8,0:2:0:0:
82,80,170155,1,0,0:0:0:0:
64,166,170369,2,0,P|84:220|136:248,1,120,8|0,0:1|0:0,0:0:0:0:
166,215,170797,2,0,P|217:242|238:297,1,120,10|0,2:3|0:0,0:0:0:0:
262,334,171226,5,8,1:2:0:0:
348,350,171440,1,2,2:3:0:0:
417,294,171655,1,8,0:2:0:0:
433,207,171869,1,0,0:0:0:0:
446,120,172083,6,0,P|423:57|320:35,1,160,10|0,1:3|0:0,0:0:0:0:
361,119,172726,1,8,1:2:0:0:
361,119,172940,2,0,P|329:189|255:210,1,160,8|0,1:2|0:0,0:0:0:0:
276,127,173583,1,8,1:2:0:0:
276,127,173797,2,0,P|201:147|170:218,1,160,8|10,1:2|1:3,0:0:0:0:
41,202,174655,5,0,1:0:0:0:
51,289,174869,1,0,1:0:0:0:
113,350,175083,1,8,0:2:0:0:
200,357,175297,1,0,0:0:0:0:
288,363,175512,2,0,P|362:343|394:272,1,160,10|8,1:3|0:1,0:0:0:0:
398,184,176155,5,0,1:0:0:0:
388,97,176369,1,0,1:0:0:0:
326,36,176583,1,8,0:2:0:0:
238,32,176797,2,0,L|210:111,1,80,8|8,0:1|0:1,0:0:0:0:
128,77,177226,2,0,L|100:156,1,80,8|0,1:2|0:0,0:0:0:0:
301,249,177655,6,0,L|329:170,1,80,2|0,2:2|0:0,0:0:0:0:
379,18,178083,1,8,3:1:0:0:
215,5,178297,1,6,2:2:0:0:
138,155,178512,1,2,2:2:0:0:
116,193,178619,1,0,2:0:0:0:
93,231,178726,1,2,2:2:0:0:
71,268,178833,1,0,0:0:0:0:
49,306,178940,2,0,P|87:350|145:358,1,120,10|0,2:3|0:0,0:0:0:0:
189,353,179369,1,0,0:0:0:0:
318,290,179583,5,8,0:0:0:0:
252,136,179797,1,8,0:0:0:0:
264,346,180012,1,0,0:0:0:0:
321,157,180226,1,8,0:1:0:0:
159,192,180440,1,0,0:0:0:0:
360,244,180655,2,0,P|417:230|451:183,1,120,4|0,1:1|0:0,0:0:0:0:
456,142,181083,1,2,2:3:0:0:
351,46,181297,5,8,0:0:0:0:
198,135,181512,1,8,0:0:0:0:
369,211,181726,1,0,0:0:0:0:
331,25,181940,1,8,0:1:0:0:
173,150,182155,1,0,0:0:0:0:
287,293,182369,2,0,P|252:340|195:353,1,120,10|0,2:3|0:0,0:0:0:0:
154,350,182797,1,0,0:0:0:0:
33,216,183012,5,8,0:0:0:0:
156,86,183226,1,8,0:0:0:0:
278,219,183440,1,0,0:0:0:0:
154,350,183655,1,8,0:1:0:0:
55,189,183869,1,0,0:0:0:0:
271,79,184083,2,0,P|329:72|377:106,1,120,4|0,1:1|0:0,0:0:0:0:
400,139,184512,1,2,2:3:0:0:
338,350,184726,5,8,0:0:0:0:
432,159,184941,1,8,0:0:0:0:
309,335,185155,1,0,0:0:0:0:
458,176,185369,1,8,0:1:0:0:
288,308,185584,1,0,0:0:0:0:
288,308,185797,2,0,L|214:360,1,80,10|0,1:3|0:0,0:0:0:0:
155,196,186226,1,0,0:0:0:0:
176,352,186440,5,8,0:0:0:0:
305,254,186654,1,8,0:0:0:0:
89,301,186869,5,0,0:0:0:0:
310,338,187083,1,8,0:1:0:0:
302,167,187297,1,0,0:0:0:0:
80,222,187512,2,0,B|-8:248,1,80,4|0,1:1|0:0,0:0:0:0:
180,119,187940,2,0,B|184:30,1,80,10|8,1:3|0:0,0:0:0:0:
308,159,188369,5,8,0:0:0:0:
412,271,188583,1,0,0:0:0:0:
291,368,188797,1,8,0:1:0:0:
184,254,189011,1,0,0:0:0:0:
60,350,189226,2,0,L|5:275,1,80,10|0,1:3|0:0,0:0:0:0:
222,171,189655,2,0,L|276:245,1,80,0|8,0:0|0:0,0:0:0:0:
191,363,190083,5,8,0:0:0:0:
341,270,190297,1,0,0:0:0:0:
208,147,190512,1,8,0:1:0:0:
57,226,190726,1,0,0:0:0:0:
57,226,190833,1,0,0:0:0:0:
57,226,190940,2,0,L|137:202,1,80,8|0,1:3|0:0,0:0:0:0:
123,60,191369,6,0,L|203:36,1,80,2|0,2:3|0:0,0:0:0:0:
268,182,191797,1,4,0:0:0:0:
116,279,192011,2,0,L|47:323,1,80,2|0,2:3|0:0,0:0:0:0:
92,122,192440,1,0,0:0:0:0:
331,179,192655,2,0,L|469:117,1,150,10|0,1:3|0:0,0:0:0:0:
486,164,193084,1,0,0:0:0:0:
346,92,193298,5,0,0:0:0:0:
307,313,193512,1,8,3:1:0:0:
401,179,193727,1,4,3:3:0:0:
154,230,193941,1,4,3:3:0:0:
256,36,194155,1,2,2:2:0:0:
327,232,194369,2,0,P|314:289|234:335,1,150,4|0,1:1|0:0,0:0:0:0:
202,367,194798,1,10,0:0:0:0:
370,310,195012,5,8,3:3:0:0:
308,152,195227,1,8,3:1:0:0:
160,233,195441,1,2,2:2:0:0:
393,283,195655,1,2,2:2:0:0:
301,125,195869,1,6,0:0:0:0:
170,265,196084,2,0,P|124:299|33:281,1,150,10|0,1:3|0:0,0:0:0:0:
36,234,196512,1,0,0:0:0:0:
187,280,196727,5,8,3:3:0:0:
317,150,196941,1,8,3:1:0:0:
126,86,197155,1,8,3:3:0:0:
243,289,197369,1,0,0:0:0:0:
286,73,197584,1,2,2:2:0:0:
104,223,197798,2,0,P|82:290|104:369,1,150,4|0,1:1|0:0,0:0:0:0:
152,364,198227,1,10,0:0:0:0:
172,119,198441,5,0,0:0:0:0:
104,316,198655,1,8,3:1:0:0:
181,90,198869,1,6,0:0:0:0:
64,264,199084,1,6,3:3:0:0:
64,264,199191,1,2,2:2:0:0:
64,264,199298,1,2,2:2:0:0:
243,297,199512,2,0,P|300:304|340:292,1,100,10|2,1:3|2:2,0:0:0:0:
505,179,199941,1,0,0:0:0:0:
291,110,200155,6,0,P|234:103|194:115,1,100,0|8,0:0|3:1,0:0:0:0:
2,222,200584,1,4,3:3:0:0:
205,306,200798,1,4,3:3:0:0:
399,202,201012,1,2,2:2:0:0:
194,115,201227,2,0,P|145:110|98:126,1,100,4|8,1:1|2:2,0:0:0:0:
265,175,201655,1,2,2:3:0:0:
366,50,201869,5,8,3:3:0:0:
338,256,202084,1,8,3:1:0:0:
263,68,202298,1,2,2:2:0:0:
406,294,202512,1,2,2:2:0:0:
415,114,202727,1,6,0:0:0:0:
275,308,202941,2,0,P|241:343|195:363,1,100,10|2,1:3|2:2,0:0:0:0:
60,295,203369,1,0,0:0:0:0:
226,137,203584,5,8,3:3:0:0:
144,296,203798,1,8,3:1:0:0:
308,235,204012,1,8,3:3:0:0:
99,220,204227,1,0,0:0:0:0:
341,134,204441,1,2,2:2:0:0:
124,82,204655,6,0,P|75:77|28:93,1,100,4|4,1:1|3:3,0:0:0:0:
206,266,205083,2,0,P|157:270|110:254,1,100,10|0,0:0|0:0,0:0:0:0:
262,338,205512,6,0,P|311:342|359:326,1,100,6|2,0:0|2:2,0:0:0:0:
506,174,205940,2,0,P|459:158|410:163,1,100,8|6,3:1|0:0,0:0:0:0:
175,327,206369,6,0,B|96:311|9:321|9:321|56:13|56:13|140:39|244:24,1,640,2|0,2:3|0:0,0:0:0:0:
390,51,208512,6,0,P|400:257|308:347,1,320,2|0,2:3|0:0,0:0:0:0:
155,335,209797,6,0,B|84:282|71:200|71:200|149:178|227:188|227:188|201:108|220:32|220:32|318:28|375:88,1,640,2|0,2:3|0:0,0:0:0:0:
434,244,211940,2,0,P|395:314|287:342,1,160,2|0,2:3|0:0,0:0:0:0:
342,257,212583,2,0,P|264:278|168:222,1,160,2|0,2:3|0:0,0:0:0:0:
268,201,213226,6,0,B|236:140|138:112|138:112|246:73|258:17|258:17|325:66|421:39|421:39|512:73|495:186,1,640,2|0,1:3|0:0,0:0:0:0:
458,325,215369,6,0,B|377:328|305:370|305:370|223:322|141:325,1,320,2|0,1:3|0:0,0:0:0:0:
11,221,216655,6,0,B|-2:140|39:67|39:67|120:117|190:68|190:68|268:84|267:37|344:45|344:45|431:64|392:197,1,640,2|0,1:3|0:0,0:0:0:0:
