osu file format v14

[General]
AudioFilename: audio.mp3
AudioLeadIn: 0
PreviewTime: 62084
Countdown: 0
SampleSet: None
StackLeniency: 0
Mode: 0
LetterboxInBreaks: 0
WidescreenStoryboard: 1

[Editor]
Bookmarks: 175,1129,2220,4402,6584,8766,9857,10948,15311,19675
DistanceSpacing: 1.2
BeatDivisor: 4
GridSize: 32
TimelineZoom: 2.1

[Metadata]
Title:Vse khotyat menya potselovat'
TitleUnicode:Все хотят меня поцеловать
Artist:Poshlaya Molly
ArtistUnicode:Пошлая Молли
Creator:riffy
Version:Froskya's s**y hs
Source:
Tags:Alumetri schoolboy komore бледный гамаз с глазами как у собаки грустная девчонка Froskya Revialink Grustnaja devchonka s glazami kak u sobaki russian ukrainian pop punk electro synth
BeatmapID:4053285
BeatmapSetID:774316

[Difficulty]
HPDrainRate:6
CircleSize:2
OverallDifficulty:8.5
ApproachRate:10
SliderMultiplier:3.4
SliderTickRate:1

[Events]
//Background and Video events
0,0,"poshlaya-molly.jpg",0,0
//Break Periods
//Storyboard Layer 0 (Background)
//Storyboard Layer 1 (Fail)
//Storyboard Layer 2 (Pass)
//Storyboard Layer 3 (Foreground)
//Storyboard Layer 4 (Overlay)
//Storyboard Sound Samples

[TimingPoints]
39,545.4545,4,2,1,64,1,0
1129,-66.6666666666667,4,2,1,38,0,0
2220,-66.6666666666667,4,2,1,64,0,0
9857,-66.6666666666667,4,2,1,44,0,0
10948,-66.6666666666667,4,2,1,64,0,0
19675,-66.6666666666667,4,2,0,64,0,0
22402,-66.6666666666667,4,2,2,64,0,0
37129,-66.6666666666667,4,2,1,64,0,0
37266,-66.6666666666667,4,2,2,64,0,0
45857,-66.6666666666667,4,2,1,64,0,1
62220,-66.6666666666667,4,2,1,64,0,0
63311,-66.6666666666667,4,2,1,64,0,1
72038,-66.6666666666667,4,2,0,64,0,0
74766,-66.6666666666667,4,2,2,64,0,0
89493,-66.6666666666667,4,2,1,64,0,0
89629,-66.6666666666667,4,2,2,64,0,0
98220,-66.6666666666667,4,2,1,64,0,1
114584,-66.6666666666667,4,2,1,64,0,0
115675,-66.6666666666667,4,2,1,64,0,1
124402,-66.6666666666667,4,2,1,64,0,0
125220,-66.6666666666667,4,2,1,64,0,0
125493,-66.6666666666667,4,2,1,64,0,0
128220,-66.6666666666667,4,2,1,64,0,0
128766,-66.6666666666667,4,2,1,64,0,0
129584,-66.6666666666667,4,2,1,64,0,0
129857,-66.6666666666667,4,2,1,64,0,0
132584,-66.6666666666667,4,2,1,64,0,0
133129,-66.6666666666667,4,2,1,64,0,0
133948,-66.6666666666667,4,2,1,64,0,0
134220,-66.6666666666667,4,2,1,64,0,0
136948,-66.6666666666667,4,2,1,64,0,0
137493,-66.6666666666667,4,2,1,64,0,0
138311,-66.6666666666667,4,2,1,64,0,0
138584,-66.6666666666667,4,2,1,64,0,0

[Colours]
Combo1 : 205,116,118
Combo2 : 125,200,175
Combo3 : 67,145,53

[HitObjects]
256,192,39,5,8,1:3:0:0:
256,192,175,1,8,1:3:0:0:
256,192,311,1,8,1:3:0:0:
256,192,448,1,8,1:3:0:0:
256,192,584,1,8,1:3:0:0:
256,192,720,1,8,1:3:0:0:
256,192,857,1,8,1:3:0:0:
256,192,993,1,8,1:3:0:0:
256,192,1129,5,2,0:1:0:0:
256,192,1675,1,2,0:1:0:0:
256,192,2220,5,4,1:0:0:0:
256,192,2629,1,2,0:0:0:0:
256,192,2766,1,8,1:2:0:0:
256,192,3038,1,2,0:0:0:0:
256,192,3175,1,8,3:3:0:0:
256,192,3448,1,2,0:0:0:0:
256,192,3584,1,4,3:3:0:0:
256,192,3857,1,10,1:2:0:0:
256,192,4266,1,2,0:0:0:0:
256,192,4402,1,4,3:3:0:0:
256,192,4675,1,2,0:0:0:0:
256,192,4948,1,8,1:2:0:0:
256,192,5084,1,2,0:0:0:0:
256,192,5357,1,8,3:3:0:0:
256,192,5493,1,2,0:0:0:0:
256,192,5766,1,4,3:3:0:0:
256,192,5902,1,2,0:0:0:0:
256,192,6038,1,8,1:2:0:0:
256,192,6311,1,2,0:0:0:0:
256,192,6584,5,4,3:0:0:0:
256,192,6993,1,2,0:0:0:0:
256,192,7129,1,8,1:2:0:0:
256,192,7402,1,2,0:0:0:0:
256,192,7538,1,8,3:3:0:0:
256,192,7811,1,2,0:0:0:0:
256,192,7948,1,4,3:3:0:0:
256,192,8220,1,10,1:2:0:0:
256,192,8629,1,2,0:0:0:0:
256,192,8766,1,4,3:3:0:0:
256,192,9038,1,2,0:0:0:0:
256,192,9311,1,8,1:2:0:0:
256,192,9448,1,2,0:0:0:0:
256,192,9720,1,8,3:3:0:0:
256,192,9857,1,2,0:0:0:0:
256,192,10402,1,2,0:1:0:0:
256,192,10948,5,4,1:0:0:0:
256,192,11357,1,2,0:0:0:0:
256,192,11493,1,8,1:2:0:0:
256,192,11766,1,2,0:0:0:0:
256,192,11902,1,8,3:3:0:0:
256,192,12175,1,2,0:0:0:0:
256,192,12311,1,4,3:3:0:0:
256,192,12584,1,10,1:2:0:0:
256,192,12993,1,2,0:0:0:0:
256,192,13129,1,4,3:3:0:0:
256,192,13402,1,2,0:0:0:0:
256,192,13675,1,8,1:2:0:0:
256,192,13811,1,2,0:0:0:0:
256,192,14084,1,8,3:3:0:0:
256,192,14220,1,2,0:0:0:0:
256,192,14493,1,4,3:3:0:0:
256,192,14629,1,2,0:0:0:0:
256,192,14766,1,8,1:2:0:0:
256,192,15038,1,2,0:0:0:0:
256,192,15311,5,4,3:0:0:0:
256,192,15720,1,2,0:0:0:0:
256,192,15857,1,8,1:2:0:0:
256,192,16129,1,2,0:0:0:0:
256,192,16266,1,8,3:3:0:0:
256,192,16538,1,2,0:0:0:0:
256,192,16675,1,4,3:3:0:0:
256,192,16948,1,10,1:2:0:0:
256,192,17357,1,2,0:0:0:0:
256,192,17493,1,4,3:3:0:0:
256,192,17766,1,2,0:0:0:0:
256,192,18038,1,8,1:2:0:0:
256,192,18175,1,2,0:0:0:0:
256,192,18448,1,8,3:3:0:0:
256,192,18584,5,10,1:2:0:0:
256,192,18720,1,8,1:2:0:0:
256,192,18857,1,8,1:2:0:0:
256,192,18993,1,10,1:2:0:0:
256,192,19129,1,8,1:2:0:0:
256,192,19266,1,8,1:2:0:0:
256,192,19402,1,10,1:2:0:0:
256,192,19538,1,8,1:2:0:0:
256,192,19675,5,2,3:2:0:0:
256,192,19948,1,2,3:2:0:0:
256,192,20220,1,2,3:2:0:0:
256,192,20493,1,2,3:2:0:0:
256,192,20766,1,2,0:0:0:0:
256,192,20902,1,2,0:0:0:0:
256,192,21038,1,2,3:3:0:0:
256,192,21175,1,2,0:0:0:0:
256,192,21311,1,2,3:3:0:0:
256,192,21448,1,2,0:0:0:0:
256,192,21857,1,2,3:2:0:0:
256,192,22129,1,2,3:2:0:0:
256,192,22266,1,2,0:2:0:0:
256,192,22402,1,2,1:2:0:0:
256,192,22538,1,0,3:2:0:0:
256,192,22675,1,2,0:2:0:0:
256,192,22811,1,2,3:2:0:0:
256,192,22948,1,10,0:2:0:0:
256,192,23084,1,2,3:2:0:0:
256,192,23220,1,2,1:2:0:0:
256,192,23493,1,2,3:2:0:0:
256,192,23629,1,2,0:2:0:0:
256,192,23766,1,8,0:2:0:0:
256,192,24038,5,2,1:2:0:0:
256,192,24175,1,0,3:0:0:0:
256,192,24311,1,2,1:2:0:0:
256,192,24584,1,2,1:2:0:0:
256,192,24720,1,0,3:0:0:0:
256,192,24857,1,0,1:2:0:0:
256,192,25129,1,10,0:2:0:0:
256,192,25266,1,2,3:2:0:0:
256,192,25402,1,2,0:2:0:0:
256,192,25675,1,2,1:2:0:0:
256,192,25948,1,0,1:2:0:0:
256,192,26220,1,2,0:2:0:0:
256,192,26357,1,0,3:0:0:0:
256,192,26493,1,2,0:2:0:0:
256,192,26629,1,0,3:0:0:0:
256,192,26766,1,2,1:2:0:0:
256,192,26902,1,0,3:0:0:0:
256,192,27038,1,2,0:2:0:0:
256,192,27311,1,10,0:2:0:0:
256,192,27448,1,0,3:0:0:0:
256,192,27584,1,0,1:2:0:0:
256,192,27857,1,2,3:2:0:0:
256,192,28129,1,8,0:2:0:0:
256,192,28402,5,2,1:2:0:0:
256,192,28538,1,0,3:0:0:0:
256,192,28675,1,2,1:2:0:0:
256,192,28948,1,2,1:2:0:0:
256,192,29084,1,0,3:0:0:0:
256,192,29220,1,2,1:2:0:0:
256,192,29493,1,10,0:2:0:0:
256,192,29629,1,2,3:2:0:0:
256,192,29902,1,2,0:2:0:0:
256,192,30038,1,0,1:0:0:0:
256,192,30311,1,2,3:2:0:0:
256,192,30448,1,2,3:2:0:0:
256,192,30584,1,2,3:2:0:0:
256,192,30857,1,2,3:2:0:0:
256,192,31129,1,2,1:2:0:0:
256,192,31266,1,0,3:0:0:0:
256,192,31402,1,2,0:2:0:0:
256,192,31675,1,10,0:2:0:0:
256,192,31811,1,2,3:2:0:0:
256,192,31948,1,0,1:0:0:0:
256,192,32084,1,2,0:2:0:0:
256,192,32220,1,0,3:0:0:0:
256,192,32493,1,8,0:0:0:0:
256,192,32766,5,2,1:2:0:0:
256,192,32902,1,0,3:0:0:0:
256,192,33038,1,2,1:2:0:0:
256,192,33175,1,2,0:2:0:0:
256,192,33311,1,2,1:2:0:0:
256,192,33448,1,0,3:0:0:0:
256,192,33584,1,2,1:2:0:0:
256,192,33720,1,2,0:2:0:0:
256,192,33857,1,10,0:2:0:0:
256,192,33993,1,0,3:0:0:0:
256,192,34129,1,2,0:2:0:0:
256,192,34402,1,2,1:2:0:0:
256,192,34675,1,0,1:0:0:0:
256,192,34948,5,2,0:2:0:0:
256,192,35220,1,2,0:2:0:0:
256,192,35493,1,2,3:2:0:0:
256,192,35766,1,2,0:2:0:0:
256,192,35902,1,2,0:2:0:0:
256,192,36038,1,2,3:2:0:0:
256,192,36175,1,0,3:0:0:0:
256,192,36311,1,2,3:2:0:0:
256,192,36448,1,0,0:0:0:0:
256,192,36584,1,2,3:2:0:0:
256,192,37129,5,6,0:2:0:0:
256,192,37266,1,2,0:2:0:0:
256,192,37402,1,2,0:2:0:0:
256,192,37538,1,2,3:2:0:0:
256,192,37675,1,2,0:2:0:0:
256,192,37811,1,2,0:2:0:0:
256,192,37948,1,2,3:2:0:0:
256,192,38084,1,2,0:2:0:0:
256,192,38220,1,2,0:2:0:0:
256,192,38357,1,2,3:2:0:0:
256,192,38766,1,2,3:2:0:0:
256,192,39175,1,2,3:2:0:0:
256,192,39311,1,2,0:2:0:0:
256,192,39584,1,2,3:2:0:0:
256,192,39857,1,2,0:2:0:0:
256,192,39993,1,2,3:2:0:0:
256,192,40129,1,2,0:2:0:0:
256,192,40402,1,2,3:2:0:0:
256,192,40675,1,2,0:2:0:0:
256,192,40811,1,2,3:2:0:0:
256,192,40948,1,2,0:2:0:0:
256,192,41220,1,2,3:2:0:0:
256,192,41493,1,2,3:2:0:0:
256,192,41902,1,2,3:2:0:0:
256,192,42311,1,2,3:2:0:0:
256,192,42720,1,2,3:2:0:0:
256,192,43129,1,2,3:2:0:0:
256,192,43402,1,2,0:2:0:0:
256,192,43538,1,2,3:2:0:0:
256,192,43675,1,2,0:2:0:0:
256,192,43948,1,2,3:2:0:0:
256,192,44220,1,2,0:2:0:0:
256,192,44357,1,2,3:2:0:0:
256,192,44493,1,2,0:2:0:0:
256,192,44766,5,10,1:2:0:0:
256,192,44902,1,8,1:2:0:0:
256,192,45038,1,10,1:2:0:0:
256,192,45175,1,8,1:2:0:0:
256,192,45311,1,10,1:2:0:0:
256,192,45448,1,8,1:2:0:0:
256,192,45584,1,10,1:2:0:0:
256,192,45720,1,8,1:2:0:0:
256,192,45857,5,12,1:0:0:0:
256,192,45993,1,2,0:0:0:0:
256,192,46129,1,2,0:0:0:0:
256,192,46266,1,2,0:0:0:0:
256,192,46402,1,8,1:2:0:0:
256,192,46538,1,2,0:0:0:0:
256,192,46675,1,2,0:0:0:0:
256,192,46811,1,8,3:0:0:0:
256,192,46948,1,2,0:0:0:0:
256,192,47084,1,2,0:0:0:0:
256,192,47220,1,4,3:0:0:0:
256,192,47357,1,2,0:0:0:0:
256,192,47493,1,10,1:2:0:0:
256,192,47902,1,2,0:0:0:0:
256,192,48038,1,4,3:0:0:0:
256,192,48311,1,2,0:0:0:0:
256,192,48584,1,10,1:2:0:0:
256,192,48720,1,2,0:0:0:0:
256,192,48857,1,2,0:0:0:0:
256,192,48993,1,8,3:0:0:0:
256,192,49129,1,2,0:0:0:0:
256,192,49402,1,4,3:0:0:0:
256,192,49538,1,2,0:0:0:0:
256,192,49675,1,10,1:2:0:0:
256,192,49948,1,2,0:0:0:0:
256,192,50220,5,4,3:0:0:0:
256,192,50493,1,2,0:0:0:0:
256,192,50629,1,2,0:0:0:0:
256,192,50766,1,8,1:2:0:0:
256,192,51038,1,2,0:0:0:0:
256,192,51175,1,8,3:0:0:0:
256,192,51448,1,2,0:0:0:0:
256,192,51584,1,4,3:0:0:0:
256,192,51857,1,8,1:2:0:0:
256,192,52266,1,2,0:0:0:0:
256,192,52402,1,4,3:0:0:0:
256,192,52675,1,2,0:0:0:0:
256,192,52948,1,8,1:2:0:0:
256,192,53084,1,2,0:0:0:0:
256,192,53357,1,8,3:0:0:0:
256,192,53493,5,10,1:2:0:0:
256,192,53629,1,8,1:2:0:0:
256,192,53766,1,8,1:2:0:0:
256,192,53902,1,10,1:2:0:0:
256,192,54038,1,10,1:2:0:0:
256,192,54175,1,8,1:2:0:0:
256,192,54311,1,10,1:2:0:0:
256,192,54448,1,8,1:2:0:0:
256,192,54584,5,12,1:0:0:0:
256,192,54720,1,2,0:0:0:0:
256,192,54857,1,2,0:0:0:0:
256,192,54993,1,2,0:0:0:0:
256,192,55129,1,8,1:2:0:0:
256,192,55266,1,2,0:0:0:0:
256,192,55402,1,2,0:0:0:0:
256,192,55538,1,8,3:0:0:0:
256,192,55675,1,2,0:0:0:0:
256,192,55811,1,2,0:0:0:0:
256,192,55948,1,4,3:0:0:0:
256,192,56084,1,2,0:0:0:0:
256,192,56220,1,10,1:2:0:0:
256,192,56629,1,2,0:0:0:0:
256,192,56766,1,4,3:0:0:0:
256,192,57038,1,2,0:0:0:0:
256,192,57311,1,10,1:2:0:0:
256,192,57448,1,2,0:0:0:0:
256,192,57584,1,2,0:0:0:0:
256,192,57720,1,8,3:0:0:0:
256,192,57857,1,2,0:0:0:0:
256,192,58129,1,4,3:0:0:0:
256,192,58266,1,2,0:0:0:0:
256,192,58402,1,10,1:2:0:0:
256,192,58675,1,2,0:0:0:0:
256,192,58948,5,4,3:0:0:0:
256,192,59220,1,2,0:0:0:0:
256,192,59357,1,2,0:0:0:0:
256,192,59493,1,8,1:2:0:0:
256,192,59766,1,2,0:0:0:0:
256,192,59902,1,8,3:0:0:0:
256,192,60038,1,2,0:0:0:0:
256,192,60175,1,2,0:0:0:0:
256,192,60311,1,4,3:0:0:0:
256,192,60584,1,8,1:2:0:0:
256,192,60857,1,2,0:0:0:0:
256,192,60993,1,2,0:0:0:0:
256,192,61129,1,4,3:0:0:0:
256,192,61402,1,2,0:0:0:0:
256,192,61675,1,8,1:2:0:0:
256,192,61811,1,2,0:0:0:0:
256,192,62084,1,8,3:0:0:0:
256,192,62220,5,2,1:2:0:0:
256,192,62766,1,2,0:0:0:0:
256,192,63311,5,12,1:0:0:0:
256,192,63448,1,2,0:0:0:0:
256,192,63584,1,2,0:0:0:0:
256,192,63720,1,2,0:0:0:0:
256,192,63857,1,8,1:2:0:0:
256,192,63993,1,2,0:0:0:0:
256,192,64129,1,2,0:0:0:0:
256,192,64266,1,8,3:0:0:0:
256,192,64402,1,2,0:0:0:0:
256,192,64538,1,2,0:0:0:0:
256,192,64675,1,4,3:0:0:0:
256,192,64811,1,2,0:0:0:0:
256,192,64948,1,10,1:2:0:0:
256,192,65357,1,2,0:0:0:0:
256,192,65493,1,4,3:0:0:0:
256,192,65766,1,2,0:0:0:0:
256,192,66038,1,10,1:2:0:0:
256,192,66175,1,2,0:0:0:0:
256,192,66311,1,2,0:0:0:0:
256,192,66448,1,8,3:0:0:0:
256,192,66584,1,2,0:0:0:0:
256,192,66857,1,4,3:0:0:0:
256,192,66993,1,2,0:0:0:0:
256,192,67129,1,10,1:2:0:0:
256,192,67402,1,2,0:0:0:0:
256,192,67675,5,4,3:0:0:0:
256,192,67948,1,2,0:0:0:0:
256,192,68084,1,2,0:0:0:0:
256,192,68220,1,8,1:2:0:0:
256,192,68493,1,2,0:0:0:0:
256,192,68629,1,8,3:0:0:0:
256,192,68902,1,2,0:0:0:0:
256,192,69038,1,4,3:0:0:0:
256,192,69311,1,8,1:2:0:0:
256,192,69720,1,2,0:0:0:0:
256,192,69857,1,4,3:0:0:0:
256,192,70129,1,2,0:0:0:0:
256,192,70402,1,8,1:2:0:0:
256,192,70538,1,2,0:0:0:0:
256,192,70811,1,8,3:0:0:0:
256,192,70948,5,10,1:2:0:0:
256,192,71084,1,8,1:2:0:0:
256,192,71220,1,8,1:2:0:0:
256,192,71357,1,10,1:2:0:0:
256,192,71493,1,10,1:2:0:0:
256,192,71629,1,8,1:2:0:0:
256,192,71766,1,10,1:2:0:0:
256,192,71902,1,8,1:2:0:0:
256,192,72038,5,2,3:2:0:0:
256,192,72311,1,2,3:2:0:0:
256,192,72584,1,2,3:2:0:0:
256,192,72857,1,2,3:2:0:0:
256,192,73129,1,2,0:0:0:0:
256,192,73402,1,2,3:3:0:0:
256,192,73675,1,2,3:3:0:0:
256,192,74220,1,2,3:2:0:0:
256,192,74493,1,2,3:2:0:0:
256,192,74766,1,2,1:2:0:0:
256,192,74902,1,2,3:2:0:0:
256,192,75038,1,2,0:2:0:0:
256,192,75175,1,0,3:2:0:0:
256,192,75311,1,10,0:2:0:0:
256,192,75448,1,2,3:2:0:0:
256,192,75584,1,2,1:2:0:0:
256,192,75857,1,2,3:2:0:0:
256,192,76129,1,10,0:2:0:0:
256,192,76402,5,2,1:2:0:0:
256,192,76538,1,0,3:2:0:0:
256,192,76675,1,2,1:2:0:0:
256,192,76948,1,2,1:2:0:0:
256,192,77084,1,2,3:2:0:0:
256,192,77220,1,2,1:2:0:0:
256,192,77357,1,2,0:2:0:0:
256,192,77493,1,10,0:2:0:0:
256,192,77629,1,2,3:2:0:0:
256,192,77766,1,2,0:2:0:0:
256,192,77902,1,2,0:0:0:0:
256,192,78038,1,2,1:2:0:0:
256,192,78311,1,0,1:2:0:0:
256,192,78584,1,2,0:2:0:0:
256,192,78720,1,2,3:2:0:0:
256,192,78857,1,2,0:2:0:0:
256,192,78993,1,2,3:2:0:0:
256,192,79129,1,2,1:2:0:0:
256,192,79266,1,0,3:2:0:0:
256,192,79402,1,2,0:2:0:0:
256,192,79675,1,10,0:2:0:0:
256,192,79811,1,0,3:2:0:0:
256,192,79948,1,0,1:2:0:0:
256,192,80220,1,2,3:2:0:0:
256,192,80493,1,10,0:2:0:0:
256,192,80766,5,2,1:2:0:0:
256,192,80902,1,0,3:2:0:0:
256,192,81038,1,2,1:2:0:0:
256,192,81311,1,2,1:2:0:0:
256,192,81448,1,0,3:2:0:0:
256,192,81584,1,2,1:2:0:0:
256,192,81857,1,10,0:2:0:0:
256,192,81993,1,2,3:2:0:0:
256,192,82266,1,2,0:2:0:0:
256,192,82402,1,0,1:2:0:0:
256,192,82675,1,2,3:2:0:0:
256,192,82811,1,2,3:2:0:0:
256,192,82948,1,2,3:2:0:0:
256,192,83220,1,2,3:2:0:0:
256,192,83493,1,2,1:2:0:0:
256,192,83629,1,0,3:2:0:0:
256,192,83766,1,2,0:2:0:0:
256,192,84038,1,10,0:2:0:0:
256,192,84175,1,0,3:2:0:0:
256,192,84311,1,2,1:2:0:0:
256,192,84584,1,2,3:2:0:0:
256,192,84857,1,8,0:2:0:0:
256,192,85129,5,2,1:2:0:0:
256,192,85266,1,0,3:2:0:0:
256,192,85402,1,2,1:2:0:0:
256,192,85675,1,2,1:2:0:0:
256,192,85811,1,0,3:2:0:0:
256,192,85948,1,2,1:2:0:0:
256,192,86084,1,2,0:2:0:0:
256,192,86220,1,10,0:2:0:0:
256,192,86357,1,0,3:2:0:0:
256,192,86493,1,2,0:2:0:0:
256,192,86766,1,2,1:2:0:0:
256,192,87038,1,0,1:2:0:0:
256,192,87311,5,2,0:2:0:0:
256,192,87448,1,2,0:0:0:0:
256,192,87584,1,2,3:2:0:0:
256,192,87720,1,2,0:0:0:0:
256,192,87857,1,2,0:2:0:0:
256,192,88129,1,2,3:2:0:0:
256,192,88402,1,2,3:2:0:0:
256,192,88538,1,0,3:2:0:0:
256,192,88675,1,2,3:2:0:0:
256,192,88811,1,2,0:2:0:0:
256,192,88948,1,2,3:2:0:0:
256,192,89220,1,2,0:0:0:0:
256,192,89493,5,6,0:2:0:0:
256,192,89629,1,2,0:2:0:0:
256,192,89766,1,2,0:2:0:0:
256,192,89902,1,2,3:2:0:0:
256,192,90038,1,2,0:2:0:0:
256,192,90175,1,2,0:2:0:0:
256,192,90311,1,2,3:2:0:0:
256,192,90448,1,2,0:2:0:0:
256,192,90584,1,2,0:2:0:0:
256,192,90720,1,2,3:2:0:0:
256,192,91129,1,2,3:2:0:0:
256,192,91538,1,2,3:2:0:0:
256,192,91675,1,2,0:2:0:0:
256,192,91948,1,2,3:2:0:0:
256,192,92220,1,2,0:2:0:0:
256,192,92357,1,2,3:2:0:0:
256,192,92493,1,2,0:2:0:0:
256,192,92766,1,2,3:2:0:0:
256,192,93038,1,2,0:2:0:0:
256,192,93175,1,2,3:2:0:0:
256,192,93311,1,2,0:2:0:0:
256,192,93584,1,2,3:2:0:0:
256,192,93857,1,2,3:2:0:0:
256,192,94266,1,2,3:2:0:0:
256,192,94675,1,2,3:2:0:0:
256,192,95084,1,2,3:2:0:0:
256,192,95493,1,2,3:2:0:0:
256,192,95766,1,2,0:2:0:0:
256,192,95902,1,2,3:2:0:0:
256,192,96038,1,2,0:2:0:0:
256,192,96311,1,2,3:2:0:0:
256,192,96584,1,2,0:2:0:0:
256,192,96720,1,2,3:2:0:0:
256,192,96857,1,2,0:2:0:0:
256,192,97129,5,10,1:2:0:0:
256,192,97266,1,8,1:2:0:0:
256,192,97402,1,10,1:2:0:0:
256,192,97538,1,8,1:2:0:0:
256,192,97675,1,2,0:0:0:0:
256,192,97948,1,2,0:0:0:0:
256,192,98220,5,12,1:0:0:0:
256,192,98357,1,2,0:0:0:0:
256,192,98493,1,2,0:0:0:0:
256,192,98629,1,2,0:0:0:0:
256,192,98766,1,8,1:2:0:0:
256,192,98902,1,2,0:0:0:0:
256,192,99038,1,2,0:0:0:0:
256,192,99175,1,8,3:0:0:0:
256,192,99311,1,2,0:0:0:0:
256,192,99448,1,2,0:0:0:0:
256,192,99584,1,4,3:0:0:0:
256,192,99720,1,2,0:0:0:0:
256,192,99857,1,10,1:2:0:0:
256,192,100266,1,2,0:0:0:0:
256,192,100402,1,4,3:0:0:0:
256,192,100675,1,2,0:0:0:0:
256,192,100948,1,10,1:2:0:0:
256,192,101084,1,2,0:0:0:0:
256,192,101220,1,2,0:0:0:0:
256,192,101357,1,8,3:0:0:0:
256,192,101493,1,2,0:0:0:0:
256,192,101766,1,4,3:0:0:0:
256,192,101902,1,2,0:0:0:0:
256,192,102038,1,10,1:2:0:0:
256,192,102311,1,2,0:0:0:0:
256,192,102584,5,4,3:0:0:0:
256,192,102857,1,2,0:0:0:0:
256,192,102993,1,2,0:0:0:0:
256,192,103129,1,8,1:2:0:0:
256,192,103402,1,2,0:0:0:0:
256,192,103538,1,8,3:0:0:0:
256,192,103811,1,2,0:0:0:0:
256,192,103948,1,4,3:0:0:0:
256,192,104220,1,8,1:2:0:0:
256,192,104629,1,2,0:0:0:0:
256,192,104766,1,4,3:0:0:0:
256,192,105038,1,2,0:0:0:0:
256,192,105311,1,8,1:2:0:0:
256,192,105448,1,2,0:0:0:0:
256,192,105720,1,8,3:0:0:0:
256,192,105857,5,10,1:2:0:0:
256,192,105993,1,8,1:2:0:0:
256,192,106129,1,8,1:2:0:0:
256,192,106266,1,10,1:2:0:0:
256,192,106402,1,10,1:2:0:0:
256,192,106538,1,8,1:2:0:0:
256,192,106675,1,10,1:2:0:0:
256,192,106811,1,8,1:2:0:0:
256,192,106948,5,12,1:0:0:0:
256,192,107084,1,2,0:0:0:0:
256,192,107220,1,2,0:0:0:0:
256,192,107357,1,2,0:0:0:0:
256,192,107493,1,8,1:2:0:0:
256,192,107629,1,2,0:0:0:0:
256,192,107766,1,2,0:0:0:0:
256,192,107902,1,8,3:0:0:0:
256,192,108038,1,2,0:0:0:0:
256,192,108175,1,2,0:0:0:0:
256,192,108311,1,4,3:0:0:0:
256,192,108448,1,2,0:0:0:0:
256,192,108584,1,10,1:2:0:0:
256,192,108993,1,2,0:0:0:0:
256,192,109129,1,4,3:0:0:0:
256,192,109402,1,2,0:0:0:0:
256,192,109675,1,10,1:2:0:0:
256,192,109811,1,2,0:0:0:0:
256,192,109948,1,2,0:0:0:0:
256,192,110084,1,8,3:0:0:0:
256,192,110220,1,2,0:0:0:0:
256,192,110493,1,4,3:0:0:0:
256,192,110629,1,2,0:0:0:0:
256,192,110766,1,10,1:2:0:0:
256,192,111038,1,2,0:0:0:0:
256,192,111311,5,4,3:0:0:0:
256,192,111584,1,2,0:0:0:0:
256,192,111720,1,2,0:0:0:0:
256,192,111857,1,8,1:2:0:0:
256,192,112129,1,2,0:0:0:0:
256,192,112266,1,8,3:0:0:0:
256,192,112402,1,2,0:0:0:0:
256,192,112538,1,2,0:0:0:0:
256,192,112675,1,4,3:0:0:0:
256,192,112948,1,8,1:2:0:0:
256,192,113220,1,2,0:0:0:0:
256,192,113357,1,2,0:0:0:0:
256,192,113493,1,4,3:0:0:0:
256,192,113766,1,2,0:0:0:0:
256,192,114038,1,8,1:2:0:0:
256,192,114175,1,2,0:0:0:0:
256,192,114448,1,8,3:0:0:0:
256,192,114584,5,2,1:2:0:0:
256,192,115129,1,2,0:0:0:0:
256,192,115675,5,12,1:0:0:0:
256,192,115811,1,2,0:0:0:0:
256,192,115948,1,2,0:0:0:0:
256,192,116084,1,2,0:0:0:0:
256,192,116220,1,8,1:2:0:0:
256,192,116357,1,2,0:0:0:0:
256,192,116493,1,2,0:0:0:0:
256,192,116629,1,8,3:0:0:0:
256,192,116766,1,2,0:0:0:0:
256,192,116902,1,2,0:0:0:0:
256,192,117038,1,4,3:0:0:0:
256,192,117175,1,2,0:0:0:0:
256,192,117311,1,10,1:2:0:0:
256,192,117720,1,2,0:0:0:0:
256,192,117857,1,4,3:0:0:0:
256,192,118129,1,2,0:0:0:0:
256,192,118402,1,10,1:2:0:0:
256,192,118538,1,2,0:0:0:0:
256,192,118675,1,2,0:0:0:0:
256,192,118811,1,8,3:0:0:0:
256,192,118948,1,2,0:0:0:0:
256,192,119220,1,4,3:0:0:0:
256,192,119357,1,2,0:0:0:0:
256,192,119493,1,10,1:2:0:0:
256,192,119766,1,2,0:0:0:0:
256,192,120038,5,4,3:0:0:0:
256,192,120311,1,2,0:0:0:0:
256,192,120448,1,2,0:0:0:0:
256,192,120584,1,8,1:2:0:0:
256,192,120857,1,2,0:0:0:0:
256,192,120993,1,8,3:0:0:0:
256,192,121266,1,2,0:0:0:0:
256,192,121402,1,4,3:0:0:0:
256,192,121675,1,8,1:2:0:0:
256,192,122084,1,2,0:0:0:0:
256,192,122220,1,4,3:0:0:0:
256,192,122493,1,2,0:0:0:0:
256,192,122766,1,8,1:2:0:0:
256,192,122902,1,2,0:0:0:0:
256,192,123175,1,8,3:0:0:0:
256,192,123311,5,10,1:2:0:0:
256,192,123448,1,8,1:2:0:0:
256,192,123584,1,8,1:2:0:0:
256,192,123720,1,10,1:2:0:0:
256,192,123857,1,10,1:2:0:0:
256,192,123993,1,8,1:2:0:0:
256,192,124129,1,10,1:2:0:0:
256,192,124266,1,8,1:2:0:0:
256,192,124402,6,2,L|96:192,1,127.500019454959,12|2,1:1|0:2,0:1:0:0:
256,192,124811,1,2,0:0:0:0:
256,192,124948,1,8,1:2:0:0:
256,192,125220,1,2,0:0:0:0:
256,192,125357,1,8,3:0:0:0:
256,192,125493,2,2,L|416:192,1,127.500019454959,0|2,0:2|0:2,0:1:0:0:
256,192,125766,1,4,3:0:0:0:
256,192,126038,1,10,1:2:0:0:
256,192,126448,1,2,0:0:0:0:
256,192,126584,2,2,L|96:192,1,127.500019454959,4|2,3:0|0:2,0:1:0:0:
256,192,126857,1,2,0:0:0:0:
256,192,126993,1,2,0:0:0:0:
256,192,127129,2,2,L|383:192,1,127.500019454959,10|2,1:2|0:2,0:1:0:0:
256,192,127402,1,2,0:0:0:0:
256,192,127538,1,8,3:0:0:0:
256,192,127675,2,2,L|96:192,1,127.500019454959,2|2,0:2|0:2,0:1:0:0:
256,192,127948,1,4,3:0:0:0:
256,192,128220,1,10,1:2:0:0:
256,192,128493,1,2,0:0:0:0:
256,192,128766,6,2,L|416:192,1,127.500019454959,4|2,3:0|0:2,0:1:0:0:
256,192,129175,1,2,0:0:0:0:
256,192,129311,1,8,1:2:0:0:
256,192,129584,1,2,0:0:0:0:
256,192,129720,1,8,3:0:0:0:
256,192,129857,2,2,L|96:192,1,127.500019454959,0|2,0:2|0:2,0:1:0:0:
256,192,130129,1,4,3:0:0:0:
256,192,130402,1,10,1:2:0:0:
256,192,130811,1,2,0:0:0:0:
256,192,130948,2,2,L|416:192,1,127.500019454959,4|2,3:0|0:2,0:1:0:0:
256,192,131220,1,2,0:0:0:0:
256,192,131357,1,2,0:0:0:0:
256,192,131493,2,2,L|96:192,1,127.500019454959,10|2,1:2|0:2,0:1:0:0:
256,192,131766,1,2,0:0:0:0:
256,192,131902,1,8,3:0:0:0:
256,192,132038,2,2,L|416:192,1,127.500019454959,2|2,0:2|0:2,0:1:0:0:
256,192,132311,1,4,3:0:0:0:
256,192,132584,2,2,L|96:192,1,127.500019454959,10|0,1:2|0:2,0:1:0:0:
256,192,132857,1,2,0:0:0:0:
256,192,133129,6,2,L|416:192,1,127.500019454959,12|2,1:1|0:2,0:1:0:0:
256,192,133538,1,2,0:0:0:0:
256,192,133675,1,8,1:2:0:0:
256,192,133948,1,2,0:0:0:0:
256,192,134084,1,8,3:0:0:0:
256,192,134220,2,2,L|96:192,1,127.500019454959,0|2,0:2|0:2,0:1:0:0:
256,192,134493,1,4,3:0:0:0:
256,192,134766,1,10,1:2:0:0:
256,192,135175,1,2,0:0:0:0:
256,192,135311,2,2,L|416:192,1,127.500019454959,4|2,3:0|0:2,0:1:0:0:
256,192,135584,1,2,0:0:0:0:
256,192,135720,1,2,0:0:0:0:
256,192,135857,2,2,L|96:192,1,127.500019454959,10|2,1:2|0:2,0:1:0:0:
256,192,136129,1,2,0:0:0:0:
256,192,136266,1,8,3:0:0:0:
256,192,136402,2,2,L|416:192,1,127.500019454959,2|2,0:2|0:2,0:1:0:0:
256,192,136675,1,4,3:0:0:0:
256,192,136948,1,10,1:2:0:0:
256,192,137220,1,2,0:0:0:0:
256,192,137493,6,2,L|96:192,1,127.500019454959,4|2,3:0|0:2,0:1:0:0:
256,192,137902,1,2,0:0:0:0:
256,192,138038,1,8,1:2:0:0:
256,192,138311,1,2,0:0:0:0:
256,192,138448,1,8,3:0:0:0:
256,192,138584,2,2,L|416:192,1,127.500019454959,0|2,0:2|0:2,0:1:0:0:
256,192,138857,1,4,3:0:0:0:
256,192,139129,1,10,1:2:0:0:
256,192,139538,1,2,0:0:0:0:
256,192,139675,2,2,L|96:192,1,127.500019454959,4|2,3:0|0:2,0:1:0:0:
256,192,139948,1,2,0:0:0:0:
256,192,140084,1,2,0:0:0:0:
256,192,140220,2,2,L|416:192,1,127.500019454959,10|2,1:2|0:2,0:1:0:0:
256,192,140493,1,2,0:0:0:0:
256,192,140629,1,8,3:0:0:0:
256,192,140766,6,2,L|96:192,1,127.500019454959,10|10,1:2|1:2,0:1:0:0:
256,192,141038,1,8,1:2:0:0:
256,192,141175,1,10,1:2:0:0:
256,192,141311,2,2,L|416:192,1,127.500019454959,10|8,1:2|1:2,0:1:0:0:
256,192,141584,1,10,1:2:0:0:
256,192,141720,1,8,1:2:0:0:
