osu file format v14

[General]
AudioFilename: audio.mp3
AudioLeadIn: 0
PreviewTime: 76389
Countdown: 1
SampleSet: None
StackLeniency: 0.7
Mode: 0
LetterboxInBreaks: 0
WidescreenStoryboard: 0

[Editor]
Bookmarks: 76877,86477,96078
DistanceSpacing: 0.9
BeatDivisor: 6
GridSize: 16
TimelineZoom: 2.999999

[Metadata]
Title:Bydy tvoim pesikom
TitleUnicode:Буду твоим песиком
Artist:Poshlaya Molli
ArtistUnicode:Пошлая Молли
Creator:dima21
Version:Murrrr)
Source:
Tags:
BeatmapID:1617174
BeatmapSetID:769066

[Difficulty]
HPDrainRate:4.3
CircleSize:3.5
OverallDifficulty:8.6
ApproachRate:9.7
SliderMultiplier:3.59999990463257
SliderTickRate:1

[Events]
//Background and Video events
0,0,"66392626.jpg",0,0
//Break Periods
2,38676,40381
//Storyboard Layer 0 (Background)
//Storyboard Layer 1 (Fail)
//Storyboard Layer 2 (Pass)
//Storyboard Layer 3 (Foreground)
//Storyboard Sound Samples

[TimingPoints]
75,450.014625475328,4,2,0,41,1,0
150,-1000,4,2,0,41,0,0
250,-25,4,2,0,41,0,0
9675,-100,4,2,0,41,0,0
18975,-200,4,2,0,41,0,0
19275,-100,4,2,0,41,0,0
19575,-76.9230769230769,4,2,0,41,0,0
20175,-100,4,2,0,41,0,0
28875,-100,4,2,0,41,0,1
29175,-71.4285714285714,4,2,0,41,0,1
29475,-55.5555555555556,4,2,0,41,0,1
29775,-100,4,2,0,41,0,1
30113,-76.9230769230769,4,2,0,41,0,1
30375,-66.6666666666667,4,2,0,41,0,1
30675,-200,4,2,0,41,0,1
30976,-50,4,2,0,41,0,1
31276,-100,4,2,0,41,0,1
31576,-83.3333333333333,4,2,0,41,0,1
31876,-66.6666666666667,4,2,0,41,0,1
33076,-166.666666666667,4,2,0,41,0,1
33376,-50,4,2,0,41,0,1
33676,-66.6666666666667,4,2,0,41,0,1
34276,-200,4,2,0,41,0,1
34576,-62.5,4,2,0,41,0,1
34876,-76.9230769230769,4,2,0,41,0,1
36376,-125,4,2,0,41,0,1
36676,-66.6666666666667,4,2,0,41,0,1
36976,-76.9230769230769,4,2,0,41,0,1
38476,-76.9230769230769,4,2,0,41,0,0
40876,-76.9230769230769,4,2,0,41,0,1
48076,-1000,4,2,0,27,0,0
52576,-500,4,2,0,30,0,0
53326,-400,4,2,0,30,0,0
53776,-333.333333333333,4,2,0,30,0,0
54226,-285.714285714286,4,2,0,30,0,0
54676,-250,4,2,0,30,0,0
55126,-222.222222222222,4,2,0,30,0,0
55576,-200,4,2,0,30,0,0
56026,-181.818181818182,4,2,0,30,0,0
56476,-166.666666666667,4,2,0,30,0,0
57676,-90.9090909090909,4,2,0,41,0,0
66827,-125,4,2,0,41,0,0
66977,-200,4,2,0,41,0,0
67277,-125,4,2,0,41,0,0
67577,-83.3333333333333,4,2,0,41,0,0
69377,-100,4,2,0,41,0,0
76877,-76.9230769230769,4,2,0,41,0,1
84077,-62.5,4,2,0,41,0,1
84377,-90.9090909090909,4,2,0,41,0,1
84677,-62.5,4,2,0,41,0,1
84977,-90.9090909090909,4,2,0,41,0,1
85277,-62.5,4,2,0,41,0,1
87377,-125,4,2,0,41,0,1
88577,-117.647058823529,4,2,0,41,0,1
89777,-111.111111111111,4,2,0,41,0,1
90977,-105.263157894737,4,2,0,41,0,1
92177,-100,4,2,0,41,0,1
93378,-95.2380952380952,4,2,0,41,0,1
94578,-90.9090909090909,4,2,0,41,0,1
95778,-86.9565217391304,4,2,0,41,0,1
96078,-66.6666666666667,4,2,0,41,0,1
96978,-83.3333333333333,4,2,0,41,0,1
98178,-80,4,2,0,41,0,1
99378,-76.9230769230769,4,2,0,41,0,1
100578,-71.4285714285714,4,2,0,41,0,1
101778,-66.6666666666667,4,2,0,41,0,1
102978,-62.5,4,2,0,41,0,1
104178,-58.8235294117647,4,2,0,41,0,1
104478,-58.8235294117647,4,2,0,5,0,0

[HitObjects]
256,192,9075,12,0,9600,0:0:0:0:
128,128,9675,5,0,0:0:0:0:
128,128,9750,1,0,0:0:0:0:
128,128,9825,1,0,0:0:0:0:
308,36,9975,5,0,0:0:0:0:
168,232,10125,1,0,0:0:0:0:
192,40,10275,5,0,0:0:0:0:
292,272,10425,1,0,0:0:0:0:
128,128,10575,5,0,0:0:0:0:
292,272,10725,1,0,0:0:0:0:
312,72,10875,5,0,0:0:0:0:
276,272,11025,1,0,0:0:0:0:
304,68,11175,5,0,0:0:0:0:
172,248,11325,1,0,0:0:0:0:
364,200,11475,5,0,0:0:0:0:
372,196,11550,1,0,0:0:0:0:
380,192,11625,1,0,0:0:0:0:
296,64,11775,5,0,0:0:0:0:
180,264,11925,1,0,0:0:0:0:
355,225,12075,6,0,L|411:205,2,59.9999984105428
284,64,12375,5,0,0:0:0:0:
272,312,12525,1,0,0:0:0:0:
272,312,12675,1,0,0:0:0:0:
276,72,12825,5,0,0:0:0:0:
132,236,12975,1,0,0:0:0:0:
132,236,13125,1,0,0:0:0:0:
284,76,13275,5,0,0:0:0:0:
272,312,13425,1,0,0:0:0:0:
148,112,13575,1,0,0:0:0:0:
264,336,13725,6,0,P|207:373|144:380,1,119.999996821086
140,128,14025,5,0,0:0:0:0:
264,192,14175,1,0,0:0:0:0:
32,216,14325,1,0,0:0:0:0:
264,28,14475,5,0,0:0:0:0:
256,328,14625,1,0,0:0:0:0:
132,120,14775,1,0,0:0:0:0:
360,128,14925,2,0,B|428:132|428:132|488:144,1,119.999996821086
140,128,15225,5,0,0:0:0:0:
252,344,15375,1,0,0:0:0:0:
260,184,15525,1,0,0:0:0:0:
128,276,15675,5,0,0:0:0:0:
392,264,15825,1,0,0:0:0:0:
144,104,15975,1,0,0:0:0:0:
256,352,16125,1,0,0:0:0:0:
364,104,16275,5,0,0:0:0:0:
364,104,16350,1,0,0:0:0:0:
364,104,16425,1,0,0:0:0:0:
264,352,16575,1,0,0:0:0:0:
156,104,16725,1,0,0:0:0:0:
316,232,16875,5,0,0:0:0:0:
256,0,17025,1,0,0:0:0:0:
176,248,17175,5,0,0:0:0:0:
352,96,17325,1,0,0:0:0:0:
72,196,17475,1,0,0:0:0:0:
304,220,17625,5,0,0:0:0:0:
152,92,17775,1,0,0:0:0:0:
168,384,17925,1,0,0:0:0:0:
344,112,18075,5,0,0:0:0:0:
328,336,18225,1,0,0:0:0:0:
160,80,18375,1,0,0:0:0:0:
448,80,18525,5,0,0:0:0:0:
328,344,18675,1,0,0:0:0:0:
212,180,18825,6,0,L|165:116,1,59.9999984105428,0|0,2:0|2:0,2:0:0:0:
226,175,18975,2,0,L|161:86,1,89.9999976158143,0|0,2:0|2:0,2:0:0:0:
312,128,19275,6,0,P|324:188|236:280,1,179.999995231629
253,274,19575,6,0,P|219:364|315:348,1,233.999983089448
420,268,19875,5,0,0:0:0:0:
226,178,20025,1,0,0:0:0:0:
424,264,20175,6,0,P|408:152|460:52,1,179.999995231629
432,56,20475,6,0,P|400:120|392:176,1,119.999996821086
464,352,20775,5,0,0:0:0:0:
464,352,20925,1,0,0:0:0:0:
376,172,21075,1,0,0:0:0:0:
366,365,21225,1,0,0:0:0:0:
256,164,21375,6,0,P|240:96|328:116,1,179.999995231629
384,177,21675,6,0,B|416:272|352:272|379:352,1,179.999995231629
488,332,21975,6,0,P|483:296|481:336,1,119.999996821086
384,177,22200,2,0,P|368:112|384:33,1,119.999996821086
400,32,22425,1,0,0:0:0:0:
256,224,22575,6,0,P|192:192|128:192,1,119.999996821086
32,272,22875,5,0,0:0:0:0:
32,256,22950,2,0,P|85:208|147:191,1,119.999996821086
256,224,23175,5,0,0:0:0:0:
128,192,23325,1,0,0:0:0:0:
168,311,23475,1,0,0:0:0:0:
288,64,23625,1,0,0:0:0:0:
288,352,23775,6,0,L|288:208,1,119.999996821086
288,64,24075,5,0,0:0:0:0:
416,256,24225,1,0,0:0:0:0:
284,78,24375,2,0,P|219:82|140:46,1,119.999996821086
225,224,24675,6,0,P|360:222|273:80,1,359.999990463257
112,188,25275,5,0,0:0:0:0:
293,167,25425,1,0,0:0:0:0:
176,300,25575,5,0,0:0:0:0:
192,108,25725,1,0,0:0:0:0:
288,268,25875,5,0,0:0:0:0:
112,204,26025,1,0,0:0:0:0:
288,160,26175,6,0,B|352:144|352:144|448:144,1,119.999996821086
288,272,26475,5,0,0:0:0:0:
192,96,26625,1,0,0:0:0:0:
140,267,26775,2,0,P|159:346|207:394,1,119.999996821086
352,306,27075,6,0,P|338:223|320:338,1,359.999990463257
448,224,27675,5,0,0:0:0:0:
288,274,27825,1,0,0:0:0:0:
472,232,27975,5,0,0:0:0:0:
272,288,28125,1,0,0:0:0:0:
472,340,28275,5,0,0:0:0:0:
472,340,28350,2,0,L|424:280,1,59.9999984105428
340,164,28575,6,0,B|328:138|311:124|311:124|309:102|309:102|288:80|268:44|268:44|284:72|280:108,1,179.999995231629
256,296,28875,6,0,P|200:252|268:268,1,179.999995231629
89,370,29175,6,0,B|129:222|129:222|108:290|143:349,1,251.999985633851
297,368,29475,6,0,P|347:274|186:164,1,323.999981529237
206,65,29775,6,0,B|214:120|190:169|190:169|266:155|312:201,1,209.9999944369
388,192,30113,6,0,P|472:168|528:176,2,119.999996821086
300,296,30375,6,0,P|320:360|323:271,1,270.000003147125
217,235,30675,6,0,P|181:239|121:223,1,89.9999976158143
125,211,30976,2,0,B|239:258|275:228|364:65|209:-17|115:138|214:179|214:179,1,359.999990463257
308,276,31276,6,0,B|358:318|361:380|361:380|383:334|411:318,1,179.999995231629
416,246,31576,2,0,B|424:162|503:127|503:127|455:148|467:217,1,215.999987686158
401,327,31876,6,0,B|389:330|366:378|366:378|362:313|313:271|313:271|257:282|197:237,1,270.000003147125
124,216,32176,5,0,0:0:0:0:
128,208,32326,1,0,0:0:0:0:
280,76,32476,5,0,0:0:0:0:
244,272,32626,5,0,0:0:0:0:
244,272,32701,1,0,0:0:0:0:
244,272,32776,1,0,0:0:0:0:
176,36,32926,5,0,0:0:0:0:
128,212,33076,6,0,P|124:276|140:332,1,107.999993843079
152,336,33376,2,0,B|130:281|117:197|192:141|192:141|254:209|242:284,1,359.999990463257
264,356,33676,6,0,P|303:306|274:366,2,180.000002098084
376,168,34126,1,0,0:0:0:0:
152,336,34276,6,0,P|104:344|47:332,1,89.9999976158143
63,326,34576,2,0,B|110:343|160:323|160:323|216:344|240:312|208:284|178:311,1,191.999994913737
84,196,34876,5,0,0:0:0:0:
84,180,35026,1,0,0:0:0:0:
268,92,35176,5,0,0:0:0:0:
268,120,35326,1,0,0:0:0:0:
380,276,35476,5,0,0:0:0:0:
440,44,35626,1,0,0:0:0:0:
220,264,35776,5,0,0:0:0:0:
440,52,35926,1,0,0:0:0:0:
384,260,36076,5,0,0:0:0:0:
260,104,36226,1,0,0:0:0:0:
216,276,36376,2,0,B|204:316|197:376|197:376|195:348|187:333,1,143.999996185303
135,253,36676,6,0,P|225:193|287:316,1,270.000003147125
120,248,36976,2,0,P|184:184|305:240,1,233.999983089448
284,332,37276,5,0,0:0:0:0:
428,236,37426,1,0,0:0:0:0:
208,275,37576,5,0,0:0:0:0:
400,344,37726,1,0,0:0:0:0:
264,160,37876,5,0,0:0:0:0:
244,132,37951,1,0,0:0:0:0:
220,109,38026,1,0,0:0:0:0:
193,89,38101,1,0,0:0:0:0:
164,73,38176,5,0,0:0:0:0:
194,51,38251,1,0,0:0:0:0:
230,38,38326,1,0,0:0:0:0:
268,35,38401,1,0,0:0:0:0:
305,43,38476,5,0,0:0:0:0:
264,116,40876,5,0,0:0:0:0:
220,288,41026,1,0,0:0:0:0:
364,144,41176,1,0,0:0:0:0:
120,244,41326,1,0,0:0:0:0:
364,144,41476,6,0,P|452:104|392:224,1,311.999977452597
124,252,41926,5,0,0:0:0:0:
400,232,42076,1,0,0:0:0:0:
160,96,42226,1,0,0:0:0:0:
272,352,42376,1,0,0:0:0:0:
328,92,42526,5,0,0:0:0:0:
328,92,42601,1,0,0:0:0:0:
328,92,42676,2,0,B|347:31|413:23|413:23|446:88|378:142,1,233.999983089448
320,190,42976,6,0,B|244:222|197:302|197:302|233:254|301:248,1,233.999983089448
448,280,43276,5,0,0:0:0:0:
236,128,43426,1,0,0:0:0:0:
312,356,43576,1,0,0:0:0:0:
328,92,43726,1,0,0:0:0:0:
184,292,43876,6,0,B|142:357|48:348|48:348|45:219|160:204,1,311.999977452597
232,128,44326,5,0,0:0:0:0:
312,356,44476,1,0,0:0:0:0:
116,212,44626,1,0,0:0:0:0:
364,223,44776,1,0,0:0:0:0:
120,208,44926,1,0,0:0:0:0:
364,223,45076,6,0,P|444:200|328:144,1,311.999977452597
296,348,45526,5,0,0:0:0:0:
172,84,45676,1,0,0:0:0:0:
188,296,45826,1,0,0:0:0:0:
280,16,45976,1,0,0:0:0:0:
88,248,46126,1,0,0:0:0:0:
296,144,46276,6,0,P|417:139|331:224,1,311.999977452597
172,56,46726,5,0,0:0:0:0:
256,304,46876,1,0,0:0:0:0:
52,140,47026,1,0,0:0:0:0:
296,144,47176,1,0,0:0:0:0:
80,292,47326,1,0,0:0:0:0:
294,145,47476,6,0,P|392:145|312:201,1,233.999983089448
56,144,47776,1,0,0:0:0:0:
328,216,47926,1,0,0:0:0:0:
204,184,48076,6,0,L|172:176,1,29.9999992052714
320,220,48526,2,0,L|290:227,1,29.9999992052714
204,176,48976,6,0,L|172:168,1,29.9999992052714
88,88,49426,2,0,L|117:95,1,29.9999992052714
56,196,49876,6,0,L|24:188,1,29.9999992052714
99,82,50326,2,0,L|128:89,1,29.9999992052714
64,216,50776,6,0,L|64:248,1,29.9999992052714
116,360,51226,2,0,L|116:328,1,29.9999992052714
72,248,51676,6,0,L|72:218,1,29.9999992052714
108,368,52126,6,0,L|76:368,1,29.9999992052714
225,275,52576,6,0,L|277:275,2,47.9999987284343
281,183,53326,6,0,L|361:183,1,74.9999980131785
177,107,53776,2,0,L|77:107,1,89.9999948692324
185,227,54226,6,0,L|185:123,1,104.999994014104
317,239,54676,2,0,L|180:239,1,119.999996821086
325,91,55126,6,0,P|316:163|325:227,1,134.999992303849
161,79,55576,2,0,P|236:85|329:79,1,149.999996026357
157,259,56026,6,0,P|146:165|157:95,1,165.000000664393
337,275,56476,2,0,P|257:303|169:275,1,179.999989738465
256,192,56926,12,0,57601,0:0:0:0:
304,76,57676,5,0,0:0:0:0:
304,76,57751,1,0,0:0:0:0:
304,76,57826,1,0,0:0:0:0:
124,128,57976,5,0,0:0:0:0:
272,240,58126,1,0,0:0:0:0:
124,128,58276,5,0,0:0:0:0:
280,232,58426,1,0,0:0:0:0:
100,224,58576,5,0,0:0:0:0:
296,76,58726,1,0,0:0:0:0:
328,320,58876,5,0,0:0:0:0:
224,144,59026,1,0,0:0:0:0:
416,160,59176,5,0,0:0:0:0:
184,280,59326,1,0,0:0:0:0:
432,140,59476,5,0,0:0:0:0:
452,120,59551,1,0,0:0:0:0:
473,101,59626,1,0,0:0:0:0:
292,60,59776,5,0,0:0:0:0:
200,288,59926,1,0,0:0:0:0:
440,168,60076,2,0,L|488:124,2,66.0000002657573
220,300,60376,5,0,0:0:0:0:
288,76,60526,1,0,0:0:0:0:
368,312,60676,5,0,0:0:0:0:
268,80,60826,1,0,0:0:0:0:
512,240,60976,5,0,0:0:0:0:
244,76,61126,1,0,0:0:0:0:
376,296,61276,5,0,0:0:0:0:
436,48,61426,1,0,0:0:0:0:
212,292,61576,5,0,0:0:0:0:
240,84,61727,2,0,B|236:148|236:148|224:164|224:164|220:224,1,132.000000531515
200,376,62027,5,0,0:0:0:0:
360,160,62177,1,0,0:0:0:0:
220,211,62327,1,0,0:0:0:0:
336,296,62477,5,0,0:0:0:0:
336,296,62552,1,0,0:0:0:0:
336,296,62627,1,0,0:0:0:0:
240,56,62777,1,0,0:0:0:0:
220,220,62927,6,0,B|212:304|136:336|136:336|116:284|152:268,1,198.000000797272
244,60,63227,5,0,0:0:0:0:
88,184,63377,1,0,0:0:0:0:
340,160,63527,5,0,0:0:0:0:
96,44,63677,1,0,0:0:0:0:
184,304,63827,5,0,0:0:0:0:
256,60,63977,1,0,0:0:0:0:
352,304,64127,5,0,0:0:0:0:
368,32,64277,5,0,0:0:0:0:
368,32,64352,1,0,0:0:0:0:
368,32,64427,1,0,0:0:0:0:
252,172,64577,5,0,0:0:0:0:
484,136,64727,1,0,0:0:0:0:
256,60,64877,5,0,0:0:0:0:
484,160,65027,1,0,0:0:0:0:
304,296,65177,5,0,0:0:0:0:
400,40,65327,1,0,0:0:0:0:
440,308,65477,5,0,0:0:0:0:
440,308,65552,1,0,0:0:0:0:
440,308,65627,1,0,0:0:0:0:
264,72,65777,5,0,0:0:0:0:
176,224,65927,1,0,0:0:0:0:
136,32,66077,5,0,0:0:0:0:
288,268,66227,1,0,0:0:0:0:
40,176,66377,5,0,0:0:0:0:
276,76,66527,2,0,B|352:44|352:44|432:44,1,132.000000531515
328,144,66827,6,0,L|256:168,1,47.9999987284343
348,152,66977,2,0,L|244:192,1,89.9999976158143
128,224,67277,6,0,L|271:164,1,143.999996185303
135,313,67577,6,0,P|43:245|95:143,1,215.999987686158
140,92,67877,5,0,0:0:0:0:
160,312,68027,1,0,0:0:0:0:
264,160,68177,2,0,B|293:146|304:92|304:92|336:112|336:112|341:71|400:24,1,215.999987686158
400,16,68477,5,0,0:0:0:0:
432,240,68627,1,0,0:0:0:0:
416,252,68777,5,0,0:0:0:0:
236,48,68927,1,0,0:0:0:0:
232,60,69077,5,0,0:0:0:0:
316,292,69227,1,0,0:0:0:0:
96,248,69377,6,0,P|56:180|112:216,1,179.999995231629
192,252,69677,6,0,B|241:315|328:312|328:312|304:296|304:288,1,179.999995231629
65,169,69977,6,0,P|33:245|118:234,1,179.999995231629
252,128,70277,5,0,0:0:0:0:
200,248,70427,1,0,0:0:0:0:
264,128,70577,2,0,P|332:84|320:144,1,179.999995231629
200,248,70877,5,0,0:0:0:0:
332,232,71027,1,0,0:0:0:0:
336,224,71177,5,0,0:0:0:0:
156,144,71327,1,0,0:0:0:0:
156,156,71477,5,0,0:0:0:0:
408,120,71627,1,0,0:0:0:0:
156,28,71777,6,0,B|88:16|88:16|0:44,1,119.999996821086
148,160,72077,1,0,0:0:0:0:
280,92,72227,1,0,0:0:0:0:
146,34,72377,6,0,B|78:22|78:22|-10:50,1,119.999996821086
152,172,72677,6,0,P|176:305|78:210,1,359.999990463257
288,88,73277,5,0,0:0:0:0:
78,205,73427,1,0,0:0:0:0:
152,36,73577,5,0,0:0:0:0:
163,173,73727,1,0,0:0:0:0:
272,88,73877,5,0,0:0:0:0:
232,264,74027,1,0,0:0:0:0:
384,177,74177,2,0,P|420:229|428:303,1,119.999996821086
240,256,74477,5,0,0:0:0:0:
260,84,74627,1,0,0:0:0:0:
393,170,74777,2,0,P|429:222|437:296,1,119.999996821086
230,282,75077,6,0,P|342:230|238:310,1,359.999990463257
256,88,75677,5,0,0:0:0:0:
112,216,75827,1,0,0:0:0:0:
80,40,75977,5,0,0:0:0:0:
264,100,76127,1,0,0:0:0:0:
112,228,76277,5,0,0:0:0:0:
384,152,76427,1,0,0:0:0:0:
116,240,76577,5,0,0:0:0:0:
404,164,76727,1,0,0:0:0:0:
240,336,76877,5,0,0:0:0:0:
256,88,77027,1,0,0:0:0:0:
384,308,77177,5,0,0:0:0:0:
100,104,77327,1,0,0:0:0:0:
396,296,77477,5,0,0:0:0:0:
252,68,77627,1,0,0:0:0:0:
232,320,77777,6,0,P|184:356|147:236,1,233.999983089448
392,136,78077,5,0,0:0:0:0:
152,236,78227,1,0,0:0:0:0:
408,312,78377,5,0,0:0:0:0:
232,44,78527,1,0,0:0:0:0:
392,136,78677,6,0,B|481:268|481:268|455:228|392:219,1,233.999983089448
297,185,78977,2,0,B|214:164|154:234|154:234|186:208|224:214,1,233.999983089448
408,304,79277,5,0,0:0:0:0:
340,44,79427,1,0,0:0:0:0:
305,192,79577,2,0,B|265:352|265:352|313:292,1,233.999983089448
448,96,79877,6,0,B|496:44|496:44|451:202,1,233.999983089448
420,304,80177,5,0,0:0:0:0:
340,52,80327,1,0,0:0:0:0:
300,200,80477,5,0,0:0:0:0:
184,40,80627,1,0,0:0:0:0:
372,136,80777,5,0,0:0:0:0:
104,116,80927,1,0,0:0:0:0:
332,52,81077,5,0,0:0:0:0:
160,240,81227,1,0,0:0:0:0:
388,136,81377,6,0,P|472:148|376:224,1,233.999983089448
168,232,81677,5,0,0:0:0:0:
336,68,81827,1,0,0:0:0:0:
278,309,81977,2,0,B|246:365|170:373|170:373|198:353|198:333,1,155.999988726299
254,232,82277,6,0,P|304:164|285:274,1,311.999977452597
112,116,82727,1,0,0:0:0:0:
160,248,82877,5,0,0:0:0:0:
236,52,83027,1,0,0:0:0:0:
36,220,83177,5,0,0:0:0:0:
328,164,83327,1,0,0:0:0:0:
16,48,83477,5,0,0:0:0:0:
168,348,83627,1,0,0:0:0:0:
248,40,83777,2,0,P|336:32|408:64,1,155.999988726299
298,183,84077,6,0,P|322:111|318:183,1,191.999994913737
338,324,84377,6,0,P|383:383|381:309,1,198.000000797272
267,290,84677,6,0,P|194:266|266:270,1,191.999994913737
430,244,84977,6,0,P|489:198|414:200,1,198.000000797272
338,324,85277,5,0,0:0:0:0:
176,164,85427,1,0,0:0:0:0:
428,252,85577,5,0,0:0:0:0:
160,288,85727,1,0,0:0:0:0:
380,124,85877,5,0,0:0:0:0:
384,128,85952,2,0,P|325:131|280:156,1,95.9999974568685
164,167,86177,6,0,P|84:87|180:116,1,287.999992370606
400,256,86477,6,0,P|441:302|428:226,1,191.999994913737
172,176,86777,5,0,0:0:0:0:
396,120,86927,1,0,0:0:0:0:
252,308,87077,5,0,0:0:0:0:
248,40,87227,1,0,0:0:0:0:
412,272,87377,6,0,B|453:320|480:376|480:376,1,95.9999974568685
252,308,87677,5,0,0:0:0:0:
396,120,87827,1,0,0:0:0:0:
116,200,87977,5,0,0:0:0:0:
408,136,88127,1,0,0:0:0:0:
120,48,88277,5,0,0:0:0:0:
224,328,88427,1,0,0:0:0:0:
300,32,88577,6,0,P|400:24|436:44,1,101.999999243418
404,144,88877,5,0,0:0:0:0:
136,52,89027,1,0,0:0:0:0:
328,268,89177,5,0,0:0:0:0:
296,36,89327,1,0,0:0:0:0:
92,224,89477,5,0,0:0:0:0:
404,160,89627,1,0,0:0:0:0:
132,68,89777,6,0,B|72:48|72:48|0:8,1,107.999993843079
284,48,90077,5,0,0:0:0:0:
180,324,90227,1,0,0:0:0:0:
216,118,90377,5,0,0:0:0:0:
340,352,90527,1,0,0:0:0:0:
67,203,90677,5,0,0:0:0:0:
392,200,90827,1,0,0:0:0:0:
176,337,90977,6,0,B|104:376|104:376|129:352|133:330,1,113.999993935903
376,184,91277,5,0,0:0:0:0:
80,216,91427,1,0,0:0:0:0:
340,356,91577,5,0,0:0:0:0:
152,60,91727,1,0,0:0:0:0:
184,360,91877,5,0,0:0:0:0:
312,64,92027,1,0,0:0:0:0:
84,228,92177,2,0,P|76:304|101:366,1,119.999996821086
216,228,92478,5,0,0:0:0:0:
16,88,92628,1,0,0:0:0:0:
304,76,92778,5,0,0:0:0:0:
36,116,92928,1,0,0:0:0:0:
372,220,93078,5,0,0:0:0:0:
48,136,93228,1,0,0:0:0:0:
344,360,93378,2,0,P|416:360|472:348,1,125.999992816925
360,236,93678,5,0,0:0:0:0:
480,336,93828,1,0,0:0:0:0:
224,304,93978,5,0,0:0:0:0:
508,200,94128,1,0,0:0:0:0:
152,252,94278,5,0,0:0:0:0:
496,200,94428,1,0,0:0:0:0:
143,239,94578,2,0,B|112:247|112:247|77:240|77:240|50:263|50:263|3:276,1,132.000000531515
288,160,94878,5,0,0:0:0:0:
16,288,95028,1,0,0:0:0:0:
48,0,95178,5,0,0:0:0:0:
304,176,95328,1,0,0:0:0:0:
16,304,95478,5,0,0:0:0:0:
320,192,95628,1,0,0:0:0:0:
16,336,95778,6,0,L|160:272,1,132.000000531515
336,208,96078,6,0,P|402:242|302:238,1,270.000003147125
272,80,96378,5,0,0:0:0:0:
144,288,96528,1,0,0:0:0:0:
384,96,96678,5,0,0:0:0:0:
128,272,96828,1,0,0:0:0:0:
400,80,96978,2,0,P|416:32|368:64,1,143.999991790772
352,259,97278,5,0,0:0:0:0:
256,64,97428,1,0,0:0:0:0:
480,192,97578,5,0,0:0:0:0:
224,224,97728,1,0,0:0:0:0:
480,160,97878,5,0,0:0:0:0:
288,352,98028,1,0,0:0:0:0:
256,64,98178,2,0,P|176:48|107:92,1,149.999996026357
201,214,98478,5,0,0:0:0:0:
112,80,98628,1,0,0:0:0:0:
64,304,98778,5,0,0:0:0:0:
256,80,98928,1,0,0:0:0:0:
224,368,99078,5,0,0:0:0:0:
0,186,99228,1,0,0:0:0:0:
256,80,99378,2,0,P|355:66|432:80,1,149.999996026357
224,352,99678,5,0,0:0:0:0:
432,96,99828,1,0,0:0:0:0:
160,272,99978,5,0,0:0:0:0:
416,96,100128,1,0,0:0:0:0:
320,368,100278,5,0,0:0:0:0:
424,114,100428,1,0,0:0:0:0:
144,272,100578,2,0,P|68:221|95:147,1,167.999990422567
256,64,100878,5,0,0:0:0:0:
96,144,101028,1,0,0:0:0:0:
336,208,101178,5,0,0:0:0:0:
80,128,101328,1,0,0:0:0:0:
272,368,101478,5,0,0:0:0:0:
256,48,101628,1,0,0:0:0:0:
128,320,101778,2,0,P|47:340|119:300,1,180.000002098084
256,48,102078,5,0,0:0:0:0:
400,320,102228,1,0,0:0:0:0:
90,138,102378,5,0,0:0:0:0:
432,64,102528,1,0,0:0:0:0:
256,368,102678,5,0,0:0:0:0:
432,48,102828,1,0,0:0:0:0:
75,146,102978,2,0,P|75:242|139:306,1,191.999994913737
192,192,103278,5,0,0:0:0:0:
16,32,103428,1,0,0:0:0:0:
320,112,103578,5,0,0:0:0:0:
48,144,103728,1,0,0:0:0:0:
384,32,103878,5,0,0:0:0:0:
48,160,104028,1,0,0:0:0:0:
384,48,104178,2,0,P|480:64|432:128,1,203.999998486837
315,235,104478,5,0,0:0:0:0:
299,235,104628,1,0,0:0:0:0:
181,151,104778,5,0,0:0:0:0:
213,151,104928,1,0,0:0:0:0:
218,300,105078,5,0,0:0:0:0:
218,268,105228,1,0,0:0:0:0:
288,96,105378,5,0,0:0:0:0:
