osu file format v14

[General]
AudioFilename: audio169BPM.mp3
AudioLeadIn: 0
PreviewTime: 25202
Countdown: 1
SampleSet: Normal
StackLeniency: 0.7
Mode: 0
LetterboxInBreaks: 0
WidescreenStoryboard: 0

[Editor]
DistanceSpacing: 1
BeatDivisor: 4
GridSize: 16
TimelineZoom: 2.699999

[Metadata]
Title:Sad machine (100% Pure remix)
TitleUnicode:Sad machine (100% Pure remix)
Artist:Porter Robinson, 100% Pure
ArtistUnicode:Porter Robinson, 100% Pure
Creator:notHuntrix
Version::((
Source:
Tags:
BeatmapID:1391347
BeatmapSetID:656770

[Difficulty]
HPDrainRate:5.5
CircleSize:4.3
OverallDifficulty:8.5
ApproachRate:9
SliderMultiplier:1.4
SliderTickRate:1

[Events]
//Background and Video events
0,0,"D440mvfR5gah6-pfvYqMCw6CugQJqksFhPny542J0fc.jpg",0,0
//Break Periods
//Storyboard Layer 0 (Background)
//Storyboard Layer 1 (Fail)
//Storyboard Layer 2 (Pass)
//Storyboard Layer 3 (Foreground)
//Storyboard Sound Samples

[TimingPoints]
5048,355.0296,4,1,0,60,1,0
5048,-200,4,1,0,60,0,0
15697,-133.3333,4,1,0,60,0,0
22443,-117.6471,4,1,0,60,0,0
26348,-117.6471,4,1,0,60,0,0
27768,-83.33334,4,1,0,60,0,0
48892,-200,4,1,0,60,0,0
73212,-66.66666,4,1,0,60,0,1
74543,-66.66666,4,1,0,60,0,0
76051,-66.66666,4,1,0,60,0,1
77383,-66.66666,4,1,0,60,0,0
78892,-66.66666,4,1,0,60,0,1
80224,-66.66666,4,1,0,60,0,0
81733,-66.66666,4,1,0,60,0,1
83064,-66.66666,4,1,0,60,0,0
84573,-66.66666,4,1,0,60,0,1
85904,-66.66666,4,1,0,60,0,0
87413,-66.66666,4,1,0,60,0,1
88745,-66.66666,4,1,0,60,0,0
90253,-66.66666,4,1,0,60,0,1
91585,-66.66666,4,1,0,60,0,0
92738,-66.66666,4,1,0,60,0,1
94425,-66.66666,4,1,0,60,0,0
95934,-66.66666,4,1,0,60,0,1
97265,-66.66666,4,1,0,60,0,0
98774,-66.66666,4,1,0,60,0,1
102946,-66.66666,4,1,0,60,0,0
104455,-66.66666,4,1,0,60,0,1
105786,-66.66666,4,1,0,60,0,0
106230,-133.3333,4,1,0,60,0,0
106585,-100,4,1,0,60,0,0
107295,-66.66666,4,1,0,60,0,1
108626,-66.66666,4,1,0,60,0,0
110135,-66.66666,4,1,0,60,0,1
111467,-66.66666,4,1,0,60,0,0
112975,-66.66666,4,1,0,60,0,0
115815,-66.66666,4,1,0,60,0,1
117235,-83.33334,4,1,0,60,0,0
118656,-100,4,1,0,60,0,0
121496,-100,4,1,0,60,0,0
169780,-83.33334,4,1,0,60,0,1
191792,-83.33334,4,1,0,60,0,0
214514,-200,4,1,0,60,0,0
215224,-66.66666,4,1,0,60,0,1
236525,-66.66666,4,1,0,60,0,0
237945,-117.6471,4,1,0,60,0,0
258892,-117.6471,4,1,0,60,0,0
260667,-83.33334,4,1,0,60,0,0
270608,-133.3333,4,1,0,60,0,0
272029,-90.90909,4,1,0,60,0,0
274869,-100,4,1,0,60,0,0
277709,-111.1111,4,1,0,60,0,0
280549,-125,4,1,0,60,0,0
283389,-142.8571,4,1,0,60,0,0
285164,-166.6667,4,1,0,60,0,0
288005,-200,4,1,0,60,0,0

[HitObjects]
92,48,5048,6,0,L|101:117,1,70
125,261,5756,6,0,L|134:330,1,70
327,326,6465,6,0,L|336:257,1,70
360,113,7173,6,0,L|369:44,1,70
108,305,7885,6,0,L|177:296,1,70
321,272,8593,6,0,L|390:263,1,70
394,70,9302,6,0,L|325:61,1,70
181,37,10010,6,0,L|112:28,1,70
404,305,10725,6,0,L|335:296,1,70
191,272,11433,6,0,L|122:263,1,70
118,70,12142,6,0,L|187:61,1,70
331,37,12850,6,0,L|400:28,1,70
156,187,13566,6,0,L|184:252,1,70
328,252,14276,6,0,L|356:187,1,70
304,96,14986,2,0,L|231:94,1,70
180,198,15698,6,0,L|193:146,1,52.5
320,256,16051,2,0,L|311:320,1,52.5
144,288,16406,5,0,0:0:0:0:
114,133,16583,1,0,0:0:0:0:
114,133,16672,1,0,0:0:0:0:
114,133,16761,1,0,0:0:0:0:
195,85,16938,1,0,0:0:0:0:
114,38,17116,1,0,0:0:0:0:
192,224,17293,2,0,L|255:234,1,52.5
407,170,17648,5,0,0:0:0:0:
412,81,17826,1,0,0:0:0:0:
403,254,18003,1,0,0:0:0:0:
401,285,18092,1,0,0:0:0:0:
398,314,18181,1,0,0:0:0:0:
148,242,18358,2,0,P|116:210|111:185,2,52.5
288,176,18892,5,0,0:0:0:0:
224,32,19069,1,0,0:0:0:0:
112,144,19247,1,0,0:0:0:0:
224,256,19424,1,0,0:0:0:0:
254,256,19513,1,0,0:0:0:0:
292,253,19602,1,0,0:0:0:0:
448,224,19779,1,0,0:0:0:0:
336,160,19957,1,0,0:0:0:0:
384,48,20134,1,0,0:0:0:0:
502,109,20312,1,0,0:0:0:0:
208,112,20489,5,0,0:0:0:0:
304,256,20667,1,0,0:0:0:0:
384,48,20846,1,0,0:0:0:0:
400,256,21022,1,0,0:0:0:0:
384,48,21201,1,0,0:0:0:0:
480,224,21377,1,0,0:0:0:0:
384,48,21554,1,0,0:0:0:0:
176,208,21732,5,0,0:0:0:0:
176,208,21820,1,0,0:0:0:0:
176,208,21909,1,0,0:0:0:0:
176,208,21998,1,0,0:0:0:0:
176,208,22087,2,0,P|204:231|224:229,1,52.5
425,54,22444,6,0,P|410:79|385:94,1,59.5
282,96,22797,2,0,P|283:121|302:152,1,59.5
400,192,23152,2,0,P|387:218|352:240,1,59.4999779834829
432,320,23507,2,0,P|406:335|377:336,1,59.5
256,240,23862,2,0,P|282:211|320:208,1,59.4999779834829
400,164,24217,6,0,P|374:128|336:112,1,59.4999779834829
224,48,24572,2,0,P|199:61|180:107,1,59.4999779834829
71,267,24927,2,0,P|109:295|189:279,1,119
236,149,25637,6,0,P|200:92|199:81,1,59.5
362,65,25992,2,0,P|311:69|290:87,1,59.5
109,178,26347,5,0,0:0:0:0:
226,111,26524,1,0,0:0:0:0:
128,89,26703,1,0,0:0:0:0:
207,198,26880,1,0,0:0:0:0:
84,272,27057,1,0,0:0:0:0:
191,296,27235,1,0,0:0:0:0:
346,192,27412,5,0,0:0:0:0:
344,221,27501,1,0,0:0:0:0:
335,249,27590,1,0,0:0:0:0:
319,274,27679,1,0,0:0:0:0:
295,291,27767,1,0,0:0:0:0:
200,100,27945,1,0,0:0:0:0:
200,100,28034,1,0,0:0:0:0:
200,100,28122,1,0,0:0:0:0:
128,195,28300,1,0,0:0:0:0:
346,192,28477,5,0,0:0:0:0:
257,63,28655,1,0,0:0:0:0:
257,63,28744,1,0,0:0:0:0:
257,63,28832,1,0,0:0:0:0:
222,269,29010,2,0,B|257:215|257:215|236:187,1,84
145,148,29365,1,0,0:0:0:0:
218,61,29542,6,0,B|263:54|263:54|304:98,1,84
172,201,29897,2,0,B|151:160|151:160|174:117,1,84
240,273,30252,2,0,B|203:299|203:299|157:283,1,84
334,214,30607,2,0,B|356:253|356:253|335:297,1,84
297,121,30962,2,0,B|340:110|340:110|378:141,1,84
272,218,31317,2,0,L|163:183,1,84
14,122,31672,6,0,P|59:55|84:51,1,84
208,80,32027,1,0,0:0:0:0:
384,55,32293,1,0,0:0:0:0:
384,160,32560,1,0,0:0:0:0:
135,251,32737,1,0,0:0:0:0:
153,255,32826,1,0,0:0:0:0:
170,253,32915,1,0,0:0:0:0:
186,244,33003,1,0,0:0:0:0:
197,230,33092,1,0,0:0:0:0:
201,212,33181,1,0,0:0:0:0:
198,195,33270,1,0,0:0:0:0:
188,180,33358,1,0,0:0:0:0:
192,169,33447,2,0,L|122:46,2,126
180,287,34157,5,0,0:0:0:0:
304,240,34336,1,0,0:0:0:0:
316,235,34424,1,0,0:0:0:0:
326,229,34513,2,0,L|359:128,2,84
192,352,35046,1,0,0:0:0:0:
384,272,35223,2,0,P|434:228|434:206,1,83.999989746095
192,352,35578,6,0,P|144:336|128:304,1,83.999989746095
128,96,35933,1,0,0:0:0:0:
288,240,36113,6,0,P|336:208|336:160,1,83.999989746095
144,256,36466,1,0,0:0:0:0:
224,48,36645,6,0,P|265:42|304:64,1,83.999989746095
304,256,36998,6,0,P|256:256|224:208,1,84
416,64,37353,1,0,0:0:0:0:
176,48,37530,2,0,P|110:55|56:172,1,168
195,195,38063,6,0,P|294:217|281:252,2,168
284,338,39128,6,0,L|317:314,5,28
378,322,39483,6,0,L|372:282,5,28
424,235,39838,6,0,L|386:220,5,28
242,190,40193,6,0,L|147:166,2,84
245,63,40903,6,0,B|193:71|159:100,1,83.999989746095
338,200,41258,2,0,B|349:159|336:116,1,83.999989746095
271,273,41613,2,0,B|308:299|354:283,1,83.999989746095
177,214,41969,2,0,B|155:253|176:297,1,84
214,121,42324,2,0,B|171:110|133:141,1,84
239,218,42679,2,0,L|348:183,1,84
497,122,43034,6,0,P|452:55|427:51,1,84
342,85,43389,1,0,0:0:0:0:
127,55,43655,1,0,0:0:0:0:
126,183,43921,1,0,0:0:0:0:
314,234,44099,1,0,0:0:0:0:
296,238,44187,1,0,0:0:0:0:
279,236,44276,1,0,0:0:0:0:
263,227,44365,1,0,0:0:0:0:
252,213,44454,1,0,0:0:0:0:
248,195,44542,1,0,0:0:0:0:
251,178,44631,1,0,0:0:0:0:
261,163,44720,1,0,0:0:0:0:
259,151,44809,2,0,L|329:28,2,126
331,287,45519,5,0,0:0:0:0:
207,240,45696,1,0,0:0:0:0:
195,235,45785,1,0,0:0:0:0:
185,229,45874,2,0,L|152:128,2,84
309,338,46406,1,0,0:0:0:0:
176,304,46584,2,0,P|126:260|124:234,1,84
176,112,46939,2,0,P|247:101|272:112,1,83.999989746095
224,208,47294,1,0,0:0:0:0:
304,336,47471,2,0,P|336:320|368:256,1,83.999989746095
288,144,47826,1,0,0:0:0:0:
432,176,48003,2,0,P|467:234|465:268,1,84
256,336,48358,2,0,P|214:296|214:232,1,84
288,144,48713,1,0,0:0:0:0:
90,273,48894,6,0,B|37:202|118:143|118:143|143:205|143:205|177:178|207:177,1,280
239,44,50489,5,0,0:0:0:0:
288,256,52264,6,0,P|320:251|351:212,1,70
175,232,52974,5,0,0:0:0:0:
245,83,53329,5,0,0:0:0:0:
60,183,53684,6,0,P|63:143|83:110,1,70
192,192,54394,5,0,0:0:0:0:
177,105,54572,1,0,0:0:0:0:
159,106,55459,5,0,0:0:0:0:
297,106,55814,5,0,0:0:0:0:
262,174,55992,1,0,0:0:0:0:
262,174,56879,5,0,0:0:0:0:
314,231,57413,6,0,P|325:283|282:242,1,140
256,178,58300,1,0,0:0:0:0:
95,123,58655,5,0,0:0:0:0:
166,92,58832,1,0,0:0:0:0:
228,251,59720,5,0,0:0:0:0:
228,251,60252,5,0,0:0:0:0:
72,54,60785,1,0,0:0:0:0:
45,127,61140,1,0,0:0:0:0:
140,74,61495,1,0,0:0:0:0:
172,299,61850,5,0,0:0:0:0:
223,242,62205,1,0,0:0:0:0:
283,320,62560,5,0,0:0:0:0:
324,252,62737,1,0,0:0:0:0:
363,328,62915,1,0,0:0:0:0:
371,195,63270,5,0,0:0:0:0:
208,192,63625,1,0,0:0:0:0:
274,180,63980,1,0,0:0:0:0:
196,125,64335,1,0,0:0:0:0:
262,114,64691,1,0,0:0:0:0:
275,246,65046,1,0,0:0:0:0:
128,129,65401,1,0,0:0:0:0:
257,51,65756,5,0,0:0:0:0:
272,128,65933,2,0,L|258:164,1,35
160,208,66466,5,0,0:0:0:0:
160,208,66821,1,0,0:0:0:0:
348,97,67176,5,0,0:0:0:0:
386,186,67353,2,0,L|401:221,1,35
192,192,67886,1,0,0:0:0:0:
194,53,68241,1,0,0:0:0:0:
67,275,68596,2,0,L|66:325,2,35
140,183,69305,5,0,0:0:0:0:
289,45,69483,1,0,0:0:0:0:
338,259,69660,1,0,0:0:0:0:
132,191,70015,5,0,0:0:0:0:
229,92,70193,1,0,0:0:0:0:
229,92,70282,1,0,0:0:0:0:
229,92,70370,1,0,0:0:0:0:
206,190,71080,5,0,0:0:0:0:
326,237,71435,2,0,L|326:193,1,35
256,192,72501,5,0,0:0:0:0:
256,192,73034,5,0,0:0:0:0:
112,320,73213,6,0,B|116:311|116:311|133:271,1,52.5
257,326,73388,2,0,B|248:323|248:323|224:288,1,52.5
64,256,73566,2,0,B|62:246|62:246|73:204,1,52.5
288,256,73743,2,0,B|284:248|284:248|266:208,1,52.5
32,144,73921,2,0,B|40:139|40:139|61:101,1,52.5
320,160,74098,2,0,B|321:151|321:151|309:109,1,52.5
55,216,74276,2,0,B|34:254|34:254|57:291,1,52.5
288,224,74453,2,0,B|309:262|309:262|286:299,1,52.5
228,44,74986,5,0,0:0:0:0:
342,113,75164,1,0,0:0:0:0:
256,121,75341,1,0,0:0:0:0:
365,211,75696,5,0,0:0:0:0:
362,331,75874,1,0,0:0:0:0:
304,64,76051,6,0,B|308:72|308:72|325:112,1,52.5
449,57,76228,2,0,B|439:60|439:60|415:95,1,52.5
256,128,76406,2,0,B|254:137|254:137|265:179,1,52.5
480,128,76583,2,0,B|476:135|476:135|458:175,1,52.5
224,240,76761,2,0,B|232:244|232:244|253:282,1,52.5
512,224,76938,2,0,B|513:232|513:232|501:274,1,52.5
400,336,77116,2,0,B|368:320|368:320|320:320,1,52.5
400,128,77293,2,0,B|352:112|352:112|336:64,1,52.5
273,152,77826,5,0,0:0:0:0:
264,31,78004,1,0,0:0:0:0:
184,169,78181,1,0,0:0:0:0:
355,195,78536,5,0,0:0:0:0:
358,315,78714,1,0,0:0:0:0:
336,128,78891,6,0,B|328:132|328:132|288:149,1,52.5
343,273,79068,2,0,B|340:263|340:263|305:239,1,52.5
272,80,79246,2,0,B|263:77|263:77|221:89,1,52.5
272,304,79423,2,0,B|265:300|265:300|225:282,1,52.5
160,48,79601,2,0,B|156:56|156:56|118:76,1,52.5
176,336,79778,2,0,B|168:337|168:337|126:325,1,52.5
0,208,79957,2,0,B|16:176|16:176|16:128,1,52.5
208,208,80136,2,0,B|224:176|224:176|272:144,1,52.5000080108655
384,160,80667,5,0,0:0:0:0:
320,56,80844,1,0,0:0:0:0:
471,97,81022,1,0,0:0:0:0:
325,242,81377,5,0,0:0:0:0:
400,345,81554,1,0,0:0:0:0:
176,256,81732,6,0,B|184:252|184:252|224:235,1,52.5
169,111,81909,2,0,B|172:121|172:121|207:145,1,52.5
240,304,82087,2,0,B|249:306|249:306|291:295,1,52.5
240,80,82264,2,0,B|247:84|247:84|287:102,1,52.5
352,336,82442,2,0,B|356:328|356:328|394:307,1,52.5
336,48,82619,2,0,B|344:47|344:47|386:59,1,52.5
512,176,82797,2,0,B|496:208|496:208|496:256,1,52.5
304,256,82974,2,0,B|288:224|288:224|249:234,1,52.5
144,256,83507,5,0,0:0:0:0:
68,351,83684,1,0,0:0:0:0:
70,187,83862,1,0,0:0:0:0:
236,266,84217,5,0,0:0:0:0:
305,168,84394,1,0,0:0:0:0:
211,76,84572,6,0,L|166:51,3,35
289,78,84838,6,0,L|277:27,3,35
354,118,85104,6,0,L|383:75,2,35
403,252,85282,6,0,B|363:176,1,52.5
267,269,85459,2,0,B|309:180,1,52.5
164,188,85637,2,0,B|248:136,1,52.5
141,45,85814,2,0,L|241:71,1,52.5
273,232,86347,5,0,0:0:0:0:
264,353,86524,1,0,0:0:0:0:
165,231,86702,1,0,0:0:0:0:
355,189,87057,5,0,0:0:0:0:
358,69,87234,1,0,0:0:0:0:
192,320,87412,6,0,B|197:312|197:312|224:278,1,52.5
117,195,87589,2,0,B|124:202|124:202|166:207,1,52.5
271,332,87768,2,0,B|279:329|279:329|311:300,1,52.5
165,134,87945,2,0,B|173:134|173:134|216:131,1,52.5
384,308,88123,2,0,B|383:299|383:299|407:262,1,52.5
235,61,88300,2,0,B|241:56|241:56|284:47,1,52.5
451,91,88478,2,0,B|451:126|451:126|474:169,1,52.5
256,224,88655,2,0,B|242:203|242:203|213:230,1,52.5
284,340,89188,5,0,0:0:0:0:
170,271,89365,1,0,0:0:0:0:
256,240,89543,1,0,0:0:0:0:
393,172,89897,5,0,0:0:0:0:
396,52,90075,1,0,0:0:0:0:
192,64,90252,6,0,B|197:71|197:71|224:105,1,52.5
117,189,90429,2,0,B|124:181|124:181|166:176,1,52.5
271,52,90607,2,0,B|279:54|279:54|311:83,1,52.5
165,250,90784,2,0,B|173:249|173:249|216:252,1,52.5
384,76,90962,2,0,B|383:84|383:84|407:121,1,52.5
235,323,91139,2,0,B|241:327|241:327|284:336,1,52.5
451,293,91317,2,0,B|451:257|451:257|474:214,1,52.5
288,176,91494,2,0,B|274:196|274:196|245:169,1,52.5
247,138,92027,5,0,0:0:0:0:
305,200,92205,2,0,L|384:192,1,52.5
288,288,92382,2,0,L|355:308,1,52.5
160,192,92737,5,0,0:0:0:0:
160,352,92915,1,0,0:0:0:0:
384,48,93092,6,0,B|379:56|379:56|352:90,1,52.5
459,173,93269,2,0,B|452:166|452:166|410:161,1,52.5
305,36,93447,2,0,B|297:39|297:39|265:68,1,52.5
411,234,93624,2,0,B|403:234|403:234|360:237,1,52.5
192,60,93802,2,0,B|193:69|193:69|169:106,1,52.5
341,307,93979,2,0,B|335:312|335:312|292:321,1,52.5
125,277,94157,2,0,B|125:242|125:242|102:199,1,52.5
304,160,94335,2,0,B|270:165|270:165|249:138,1,52.5
215,206,94867,5,0,0:0:0:0:
94,191,95045,1,0,0:0:0:0:
221,99,95222,1,0,0:0:0:0:
253,291,95578,5,0,0:0:0:0:
373,300,95756,1,0,0:0:0:0:
320,352,95933,6,0,B|316:343|316:343|303:301,1,52.5
174,341,96110,2,0,B|183:339|183:339|211:307,1,52.5
375,294,96288,2,0,B|377:285|377:285|371:242,1,52.5
152,267,96465,2,0,B|156:260|156:260|178:223,1,52.5
420,187,96643,2,0,B|412:182|412:182|395:141,1,52.5
132,168,96820,2,0,B|131:160|131:160|148:119,1,52.5
304,96,96999,2,0,B|268:93|268:93|236:75,1,52.5
80,224,97175,2,0,B|54:223|54:223|60:262,1,52.5
299,189,97708,5,0,0:0:0:0:
410,239,97886,1,0,0:0:0:0:
261,290,98063,1,0,0:0:0:0:
287,97,98418,5,0,0:0:0:0:
175,54,98596,1,0,0:0:0:0:
383,48,98773,6,0,B|378:56|378:56|351:90,1,52.5
458,173,98950,2,0,B|451:166|451:166|409:161,1,52.5
304,36,99128,2,0,B|296:39|296:39|264:68,1,52.5
419,236,99305,2,0,B|411:236|411:236|365:239,1,52.5
192,60,99483,2,0,B|193:69|193:69|169:106,1,52.5
320,288,99660,2,0,B|314:292|314:292|271:301,1,52.5
96,96,99838,2,0,B|97:106|97:106|68:150,1,52.5
256,368,100015,2,0,B|248:373|248:373|198:384,1,52.5
64,192,100193,6,0,B|73:189|73:189|115:183,1,52.5
94,49,100370,2,0,B|94:58|94:58|121:91,1,52.5
113,253,100548,2,0,B|120:256|120:256|163:256,1,52.5
165,29,100725,2,0,B|171:34|171:34|206:63,1,52.5
211,313,100903,2,0,B|216:305|216:305|259:295,1,52.5
273,59,101080,2,0,B|280:59|280:59|318:82,1,52.5
306,352,101258,2,0,B|312:343|312:343|362:330,1,52.5
375,44,101435,2,0,B|384:44|384:44|428:71,1,52.5
453,228,101613,6,0,B|443:228|443:228|400:221,1,52.5
374,337,101790,2,0,B|377:327|377:327|361:288,1,52.5
424,155,101968,2,0,B|418:149|418:149|377:135,1,52.5
306,352,102145,2,0,B|301:345|301:345|277:306,1,52.5
350,67,102323,2,0,B|316:52|321:68|299:69,1,52.5
212,290,102500,2,0,B|204:287|204:287|176:254,1,52.5
271,1,102678,2,0,B|263:7|263:7|211:4,1,52.5
110,272,102855,2,0,B|102:269|102:269|68:230,1,52.5
288,220,103389,5,0,0:0:0:0:
333,333,103566,1,0,0:0:0:0:
169,234,103744,1,0,0:0:0:0:
343,145,104099,5,0,0:0:0:0:
293,36,104276,1,0,0:0:0:0:
48,176,104454,6,0,B|57:173|57:173|99:167,1,52.5
94,49,104631,2,0,B|94:58|94:58|121:91,1,52.5
97,237,104809,2,0,B|104:240|104:240|147:240,1,52.5
165,29,104986,2,0,B|171:34|171:34|206:63,1,52.5
195,297,105164,2,0,B|200:289|200:289|243:279,1,52.5
273,59,105341,2,0,B|280:59|280:59|318:82,1,52.5
352,208,105519,2,0,B|361:213|361:213|380:261,1,52.5
160,160,105696,2,0,B|169:160|169:160|213:187,1,52.5
112,192,106231,6,0,P|27:192|16:199,1,78.75
32,101,106586,2,0,P|89:39|126:33,1,105
144,112,106941,2,0,P|214:135|243:114,1,105
400,64,107296,6,0,L|445:39,3,35
322,66,107560,6,0,L|334:15,3,35
257,106,107826,6,0,L|228:63,2,35
208,240,108004,6,0,B|248:164,1,52.5
344,257,108181,2,0,B|302:168,1,52.5
447,176,108359,2,0,B|363:124,1,52.5
470,33,108536,2,0,L|370:59,1,52.5
273,232,109069,5,0,0:0:0:0:
264,353,109246,1,0,0:0:0:0:
165,231,109424,1,0,0:0:0:0:
355,189,109779,5,0,0:0:0:0:
358,69,109956,1,0,0:0:0:0:
208,352,110134,6,0,B|206:342|206:342|206:299,1,52.5
88,288,110311,2,0,B|97:289|97:289|133:266,1,52.5
275,311,110490,2,0,B|279:303|279:303|285:261,1,52.5
78,215,110667,2,0,B|84:209|84:209|117:178,1,52.5
348,223,110845,2,0,B|341:216|341:216|336:172,1,52.5
123,112,111022,2,0,B|124:104|124:104|152:70,1,52.5
281,55,111200,2,0,B|287:46|287:46|337:33,1,52.5
464,192,111377,2,0,B|465:182|465:182|498:142,1,52.5
326,148,111909,5,0,0:0:0:0:
432,313,112087,1,0,0:0:0:0:
432,313,112619,5,0,0:0:0:0:
156,235,112797,1,0,0:0:0:0:
384,32,112974,6,0,B|379:40|379:40|356:76,1,52.5
449,150,113151,2,0,B|441:143|441:143|399:143,1,52.5
305,28,113329,2,0,B|297:31|297:31|268:63,1,52.5
418,216,113506,2,0,B|409:216|409:216|364:224,1,52.5
196,63,113684,2,0,B|197:71|197:71|177:110,1,52.5
324,278,113861,2,0,B|318:283|318:283|276:296,1,52.5
160,240,114039,2,0,B|150:243|150:243|101:226,1,52.5
203,80,114216,2,0,B|196:86|196:86|147:102,1,52.5
384,224,114661,1,0,0:0:0:0:
299,201,114838,2,0,L|272:256,1,52.5
240,128,115016,2,0,L|192:160,1,52.5
126,288,115459,5,0,0:0:0:0:
135,92,115637,1,0,0:0:0:0:
464,207,115814,6,0,B|454:210|454:210|412:216,1,52.5
418,335,115991,2,0,B|417:325|417:325|390:292,1,52.5
415,147,116169,2,0,B|407:143|407:143|364:143,1,52.5
347,355,116346,2,0,B|340:349|340:349|305:320,1,52.5
317,87,116524,2,0,B|311:94|311:94|268:104,1,52.5
239,325,116701,2,0,B|231:324|231:324|193:301,1,52.5
160,176,116879,2,0,B|150:170|150:170|131:122,1,52.5
342,144,117057,2,0,L|465:206,1,105
224,198,117947,2,0,P|165:177|231:240,1,252
317,179,118657,2,0,P|376:200|302:144,1,350
296,321,121495,6,0,P|363:315|380:301,1,70
275,204,121850,2,0,P|220:169|202:145,1,70
362,77,122205,2,0,P|408:94|429:134,1,70
311,284,122560,2,0,P|267:289|234:257,1,70
96,128,122915,5,0,0:0:0:0:
177,59,123092,1,0,0:0:0:0:
123,237,123270,6,0,P|145:260|189:260,1,70
271,57,123625,2,0,P|314:66|370:149,1,140
81,36,124335,6,0,P|32:93|74:146,1,140
164,241,124867,1,0,0:0:0:0:
184,155,125045,1,0,0:0:0:0:
284,159,125222,1,0,0:0:0:0:
268,241,125400,1,0,0:0:0:0:
184,155,125577,1,0,0:0:0:0:
290,103,125756,1,0,0:0:0:0:
200,298,126111,6,0,P|251:351|302:349,1,105
379,213,126821,6,0,L|252:219,1,105
201,196,127176,2,0,P|209:256|259:290,1,105
179,326,127531,2,0,P|111:352|82:346,1,105
117,273,127886,2,0,P|105:214|131:169,1,105
180,225,128241,2,0,L|307:219,1,105
355,239,128596,2,0,P|347:179|262:156,1,140
360,67,129128,1,0,0:0:0:0:
434,171,129306,2,0,P|446:230|436:262,1,70
372,215,129661,2,0,L|264:190,1,105
220,122,130016,2,0,P|321:113|356:136,1,140
395,222,130548,2,0,L|400:299,1,70
213,199,131081,5,0,0:0:0:0:
76,339,131436,5,0,0:0:0:0:
292,243,131790,5,0,0:0:0:0:
207,141,131968,2,0,P|269:93|317:76,2,105
189,280,132855,6,0,P|216:322|255:324,1,70
379,195,133210,2,0,P|409:155|400:121,1,70
224,96,133566,2,0,P|179:138|184:161,1,70
384,260,133921,2,0,P|371:216|398:176,1,70
352,96,134276,2,0,P|354:44|330:27,1,70
138,86,134809,5,0,0:0:0:0:
228,86,134986,1,0,0:0:0:0:
158,208,135341,6,0,P|134:263|137:283,1,70
384,273,135696,2,0,P|477:252|374:227,1,280
299,252,136584,5,0,0:0:0:0:
195,235,136761,1,0,0:0:0:0:
212,131,136939,1,0,0:0:0:0:
316,148,137116,1,0,0:0:0:0:
135,172,137471,5,0,0:0:0:0:
134,305,137649,1,0,0:0:0:0:
135,172,138181,6,0,L|262:166,1,105
311,188,138536,2,0,P|303:128|253:94,1,105
342,60,138891,2,0,P|410:34|439:40,1,105
405,109,139246,2,0,P|417:168|391:213,1,105
339,154,139601,2,0,L|212:160,1,105
163,141,139956,2,0,P|171:201|233:226,1,105
252,169,140311,2,0,P|278:243|257:279,1,105
196,262,140666,2,0,P|227:325|281:333,1,105
328,359,141022,2,0,P|328:302|267:266,1,105
186,136,141377,6,0,L|170:305,1,140
259,172,142087,2,0,L|243:341,1,140
339,226,142797,6,0,P|334:323|363:350,1,140
234,295,143507,2,0,P|239:198|210:171,1,140
400,256,144217,6,0,P|454:209|460:185,1,70
304,128,144572,1,0,0:0:0:0:
272,272,144749,2,0,P|294:315|324:340,1,70
416,320,145104,2,0,L|416:240,1,70
432,144,145459,1,0,0:0:0:0:
256,208,145637,2,0,P|240:192|224:128,1,70
256,48,145992,1,0,0:0:0:0:
403,81,146169,2,0,P|432:128|432:160,1,70
368,256,146524,2,0,L|353:340,1,70
224,320,146879,1,0,0:0:0:0:
128,208,147057,6,0,P|105:137|107:121,1,70
256,128,147412,1,0,0:0:0:0:
336,256,147589,2,0,P|281:287|253:291,1,70
144,224,147944,2,0,L|157:143,1,70
48,96,148299,1,0,0:0:0:0:
64,224,148477,2,0,P|47:294|46:324,1,70
197,137,148833,2,0,L|235:47,1,70
110,161,149188,2,0,P|56:208|50:232,1,70
176,256,149543,1,0,0:0:0:0:
272,176,149720,6,0,P|250:133|220:108,1,70
106,155,150075,2,0,L|91:82,1,70
48,240,150430,1,0,0:0:0:0:
242,169,150608,2,0,P|288:192|314:220,1,70
224,295,150963,1,0,0:0:0:0:
112,304,151140,2,0,P|84:243|84:224,1,70
141,118,151495,2,0,L|156:34,1,70
288,48,151850,1,0,0:0:0:0:
384,144,152028,6,0,P|405:199|400:223,1,70
224,240,152383,1,0,0:0:0:0:
128,144,152560,2,0,P|183:113|211:109,1,70
187,209,152915,2,0,L|174:290,1,70
276,293,153270,1,0,0:0:0:0:
368,224,153447,6,0,P|385:154|386:124,1,70
304,64,153802,1,0,0:0:0:0:
128,96,153980,2,0,P|96:160|123:229,1,140
252,198,154512,6,0,P|261:146|235:92,1,105
188,149,154867,2,0,P|167:104|209:38,1,105
255,26,155222,2,0,P|311:69|326:110,1,105
363,164,155577,6,0,L|433:107,4,70
135,87,156643,1,0,0:0:0:0:
425,42,156998,1,0,0:0:0:0:
240,144,157353,2,0,P|192:160|176:176,1,70
304,288,157708,2,0,P|368:256|384:240,1,70
372,148,158063,1,0,0:0:0:0:
320,48,158241,2,0,P|265:26|233:26,1,70
106,155,158596,6,0,L|91:82,1,70
32,199,158951,1,0,0:0:0:0:
256,160,159128,2,0,P|288:176|304:224,1,70
224,295,159483,1,0,0:0:0:0:
112,304,159661,2,0,P|84:259|96:224,1,70
141,118,160016,2,0,L|156:34,1,70
256,48,160371,1,0,0:0:0:0:
352,112,160548,2,0,P|365:149|352:192,1,70
240,208,160903,1,0,0:0:0:0:
144,80,161081,6,0,P|183:49|224:48,1,70
176,176,161436,2,0,L|163:257,1,70
272,240,161791,1,0,0:0:0:0:
336,96,161968,2,0,P|311:84|256:96,1,70
160,160,162323,1,0,0:0:0:0:
224,288,162501,2,0,P|288:290|309:279,1,70
244,141,162856,1,0,0:0:0:0:
108,122,163033,1,0,0:0:0:0:
100,246,163210,1,0,0:0:0:0:
236,281,163388,6,0,P|283:248|293:215,1,70
231,59,163743,1,0,0:0:0:0:
229,176,163920,2,0,P|215:205|176:224,1,70
88,168,164276,2,0,L|143:113,1,70
48,106,164631,1,0,0:0:0:0:
0,240,164809,6,0,P|38:277|62:285,1,70
144,304,165164,1,0,0:0:0:0:
302,280,165341,2,0,P|284:135|269:311,1,630
256,192,166939,12,0,169424,0:0:0:0:
291,123,169779,5,0,0:0:0:0:
346,266,169956,1,0,0:0:0:0:
203,226,170134,1,0,0:0:0:0:
425,92,170311,1,0,0:0:0:0:
200,103,170489,5,0,0:0:0:0:
309,206,170666,1,0,0:0:0:0:
315,49,170844,1,0,0:0:0:0:
221,274,171021,1,0,0:0:0:0:
83,62,171199,1,0,0:0:0:0:
24,307,171376,1,0,0:0:0:0:
172,271,171555,6,0,L|107:360,1,84
295,110,171910,2,0,L|347:40,1,84
302,283,172265,2,0,L|370:363,1,84
175,108,172620,2,0,L|130:36,1,84
415,226,172975,2,0,L|511:274,1,84
155,169,173330,1,0,0:0:0:0:
259,83,173507,1,0,0:0:0:0:
175,259,173684,2,0,L|121:355,1,84
259,83,174039,5,0,0:0:0:0:
292,234,174217,1,0,0:0:0:0:
344,38,174394,1,0,0:0:0:0:
387,195,174572,1,0,0:0:0:0:
144,290,174749,6,0,L|244:268,1,84
67,52,175104,1,0,0:0:0:0:
283,62,175282,1,0,0:0:0:0:
171,228,175459,1,0,0:0:0:0:
67,52,175637,1,0,0:0:0:0:
283,62,175814,1,0,0:0:0:0:
171,228,175992,1,0,0:0:0:0:
370,133,176169,6,0,L|478:115,1,84
379,347,176524,1,0,0:0:0:0:
330,225,176702,2,0,L|434:206,1,84
119,92,177057,1,0,0:0:0:0:
227,49,177234,1,0,0:0:0:0:
175,284,177412,2,0,L|275:259,1,84
431,154,177767,5,0,0:0:0:0:
280,280,177944,1,0,0:0:0:0:
210,149,178122,1,0,0:0:0:0:
431,154,178299,1,0,0:0:0:0:
227,49,178477,1,0,0:0:0:0:
434,237,178654,1,0,0:0:0:0:
256,192,178832,1,0,0:0:0:0:
174,323,179009,6,0,L|70:298,1,84
104,94,179365,1,0,0:0:0:0:
182,208,179543,2,0,L|74:228,1,84
235,40,179898,1,0,0:0:0:0:
369,103,180075,6,0,L|464:88,1,84
152,196,180430,2,0,L|49:212,1,84
368,196,180785,2,0,L|476:213,1,84
148,100,181140,2,0,L|47:81,1,84
320,68,181495,5,0,0:0:0:0:
224,256,181673,1,0,0:0:0:0:
368,196,181850,1,0,0:0:0:0:
148,100,182028,1,0,0:0:0:0:
171,292,182205,1,0,0:0:0:0:
5,241,182383,1,0,0:0:0:0:
192,178,182560,1,0,0:0:0:0:
131,41,182738,1,0,0:0:0:0:
379,186,182915,6,0,L|412:105,1,84
229,89,183270,2,0,L|165:33,1,84
153,219,183625,2,0,L|97:283,1,84
283,295,183980,2,0,L|347:351,1,84
359,165,184335,2,0,L|415:101,1,84
159,256,184690,6,0,L|71:300,1,84
217,40,185045,5,0,0:0:0:0:
472,38,185222,1,0,0:0:0:0:
350,240,185400,1,0,0:0:0:0:
249,143,185577,1,0,0:0:0:0:
388,110,185755,1,0,0:0:0:0:
266,328,185932,1,0,0:0:0:0:
94,258,186110,6,0,L|203:236,1,84
65,56,186465,1,0,0:0:0:0:
140,177,186642,1,0,0:0:0:0:
226,54,186821,1,0,0:0:0:0:
308,248,186998,1,0,0:0:0:0:
424,95,187176,1,0,0:0:0:0:
253,188,187353,1,0,0:0:0:0:
470,274,187531,6,0,L|363:249,1,84
253,188,187886,1,0,0:0:0:0:
76,282,188063,2,0,L|181:260,1,84
307,142,188418,1,0,0:0:0:0:
169,37,188596,1,0,0:0:0:0:
89,193,188773,1,0,0:0:0:0:
256,297,188951,6,0,L|368:273,1,84
395,84,189306,1,0,0:0:0:0:
160,48,189483,1,0,0:0:0:0:
351,187,189661,1,0,0:0:0:0:
160,48,189838,1,0,0:0:0:0:
197,220,190016,1,0,0:0:0:0:
20,269,190193,1,0,0:0:0:0:
197,220,190371,6,0,L|304:199,1,84
198,54,190726,1,0,0:0:0:0:
207,312,190903,2,0,P|371:296|453:122,1,336
322,205,191793,6,0,L|218:183,1,84
314,54,192146,1,0,0:0:0:0:
334,287,192323,1,0,0:0:0:0:
128,224,192501,6,0,P|160:128|192:224,2,252
327,168,194277,5,0,0:0:0:0:
263,205,194454,1,0,0:0:0:0:
258,283,194631,1,0,0:0:0:0:
260,206,194986,5,0,0:0:0:0:
224,138,195164,1,0,0:0:0:0:
145,133,195341,2,0,P|63:192|181:239,2,252
275,250,197116,5,0,0:0:0:0:
252,182,197294,1,0,0:0:0:0:
276,106,197471,1,0,0:0:0:0:
248,188,197826,5,0,0:0:0:0:
176,246,198004,1,0,0:0:0:0:
99,200,198181,2,0,B|78:149|78:149|280:190,2,252
286,255,199956,5,0,0:0:0:0:
252,183,200134,1,0,0:0:0:0:
273,114,200311,1,0,0:0:0:0:
248,188,200666,5,0,0:0:0:0:
184,240,200844,1,0,0:0:0:0:
101,258,201021,2,0,B|31:88|31:88|116:53,2,252
176,46,202797,5,0,0:0:0:0:
209,118,202975,1,0,0:0:0:0:
188,187,203152,1,0,0:0:0:0:
213,113,203507,5,0,0:0:0:0:
277,61,203685,1,0,0:0:0:0:
232,249,203862,2,0,L|134:308,1,84
353,172,204217,2,0,L|444:217,1,84
176,101,204572,2,0,L|79:84,1,84
419,121,204927,2,0,L|440:9,1,84
400,287,205282,2,0,L|457:368,1,84
136,116,205637,5,0,0:0:0:0:
215,114,205815,1,0,0:0:0:0:
268,66,205992,2,0,L|352:42,1,84
215,114,206347,5,0,0:0:0:0:
202,186,206524,1,0,0:0:0:0:
144,240,206702,2,0,L|131:337,1,84
107,65,207057,2,0,L|3:15,1,84
304,112,207412,2,0,L|254:7,1,84
400,320,207767,2,0,L|486:324,1,84
152,282,208122,2,0,L|142:366,1,84
176,47,208477,5,0,0:0:0:0:
209,118,208654,1,0,0:0:0:0:
188,187,208832,2,0,L|180:285,1,84
213,113,209187,5,0,0:0:0:0:
277,61,209364,1,0,0:0:0:0:
436,61,209542,5,0,0:0:0:0:
352,73,209719,1,0,0:0:0:0:
405,139,209898,1,0,0:0:0:0:
434,66,210075,1,0,0:0:0:0:
322,81,210253,1,0,0:0:0:0:
392,168,210430,1,0,0:0:0:0:
434,66,210608,1,0,0:0:0:0:
288,85,210785,1,0,0:0:0:0:
379,198,210963,1,0,0:0:0:0:
434,66,211140,1,0,0:0:0:0:
244,90,211318,1,0,0:0:0:0:
362,237,211495,1,0,0:0:0:0:
434,66,211673,1,0,0:0:0:0:
187,97,211850,1,0,0:0:0:0:
340,288,212028,1,0,0:0:0:0:
284,37,212205,5,0,0:0:0:0:
219,234,212383,5,0,0:0:0:0:
174,271,212502,1,0,0:0:0:0:
119,264,212621,1,0,0:0:0:0:
66,221,212739,1,0,0:0:0:0:
39,160,212857,1,0,0:0:0:0:
85,106,212976,1,0,0:0:0:0:
146,139,213094,1,0,0:0:0:0:
134,205,213212,1,0,0:0:0:0:
62,189,213331,1,0,0:0:0:0:
46,116,213449,1,0,0:0:0:0:
86,57,213567,1,0,0:0:0:0:
168,39,213686,1,0,0:0:0:0:
254,56,213804,1,0,0:0:0:0:
236,343,214515,6,0,L|166:299,1,70
106,255,215045,1,0,0:0:0:0:
216,167,215225,6,0,P|198:118|238:115,1,105
356,92,215577,2,0,P|374:141|330:145,1,105
254,29,215932,2,0,L|288:141,2,105
381,172,216465,6,0,L|418:155,6,26.25
306,237,216820,6,0,L|311:303,1,52.5
356,156,216997,2,0,L|410:118,1,52.5
254,166,217175,2,0,L|199:128,1,52.5
113,166,217352,6,0,P|77:57|73:56,1,105
206,117,217708,2,0,P|186:48|143:6,1,105
353,61,218063,6,0,L|374:208,1,105
274,89,218418,2,0,L|253:236,1,105
377,253,218773,6,0,L|414:236,6,26.25
298,309,219128,5,0,0:0:0:0:
226,268,219261,1,0,0:0:0:0:
182,339,219395,1,0,0:0:0:0:
89,266,219483,2,0,L|73:345,1,52.5
152,319,219838,6,0,P|180:270|249:283,1,105
285,223,220193,2,0,L|401:210,1,105
292,305,220548,2,0,L|405:324,1,105
155,246,220903,6,0,P|141:167|201:227,1,210
205,218,221791,5,0,0:0:0:0:
192,112,221968,1,0,0:0:0:0:
320,224,222146,1,0,0:0:0:0:
240,32,222323,1,0,0:0:0:0:
144,192,222501,1,0,0:0:0:0:
336,48,222678,1,0,0:0:0:0:
151,189,222856,2,0,L|290:196,1,105
378,42,223211,2,0,L|239:49,1,105
291,132,223566,1,0,0:0:0:0:
381,172,223743,6,0,L|418:155,6,26.25
306,237,224098,6,0,L|311:303,1,52.5
356,156,224276,2,0,L|410:118,1,52.5
254,166,224453,6,0,L|219:138,4,26.25
176,108,224808,6,0,P|181:74|224:44,1,52.5
270,79,224987,2,0,P|297:58|349:67,1,52.5
256,192,225075,12,0,226406,0:0:0:0:
296,217,226584,6,0,P|314:266|274:269,1,105
156,292,226939,2,0,P|138:243|182:239,1,105
258,355,227294,2,0,L|224:243,2,105
99,284,227826,5,0,0:0:0:0:
205,96,228004,6,0,L|212:264,1,157.5
283,219,228359,2,0,L|278:144,1,52.5
362,139,228536,2,0,P|394:261|472:297,1,210
461,180,229069,1,0,0:0:0:0:
340,337,229246,6,0,L|226:305,1,105
260,239,229601,2,0,L|121:256,1,105
171,168,229956,2,0,L|59:202,2,105
101,101,230489,6,0,L|54:55,1,52.5
186,84,230666,1,0,0:0:0:0:
258,127,230755,1,0,0:0:0:0:
247,209,230844,2,0,P|322:212|346:182,2,105
247,283,231376,6,0,P|183:293|147:322,1,105
220,359,231731,2,0,P|283:348|319:319,1,105
324,236,232086,1,0,0:0:0:0:
155,246,232264,6,0,P|141:167|201:227,1,210
205,218,233152,1,0,0:0:0:0:
129,81,233330,1,0,0:0:0:0:
304,192,233507,1,0,0:0:0:0:
64,224,233685,1,0,0:0:0:0:
256,48,233862,1,0,0:0:0:0:
64,304,234040,1,0,0:0:0:0:
400,128,234217,1,0,0:0:0:0:
151,189,234395,6,0,L|290:196,1,105
134,342,234750,2,0,L|273:335,1,105
131,212,235105,6,0,L|94:229,6,26.25
206,147,235460,6,0,L|201:81,1,52.5
156,228,235637,2,0,L|102:266,1,52.5
258,218,235815,6,0,L|293:246,4,26.25
336,276,236170,6,0,P|331:310|288:340,1,52.5
242,305,236347,2,0,P|215:326|163:317,1,52.5
352,178,236524,6,0,L|334:134,1,26.25
282,255,236879,2,0,L|264:211,1,26.25
153,299,237234,2,0,L|135:255,1,26.25
16,255,237589,2,0,L|-2:211,1,26.25
338,138,237944,5,0,0:0:0:0:
62,284,238299,1,0,0:0:0:0:
132,56,238654,1,0,0:0:0:0:
375,210,238921,5,0,0:0:0:0:
337,72,239187,5,0,0:0:0:0:
410,117,239364,1,0,0:0:0:0:
288,192,239719,5,0,0:0:0:0:
128,64,240074,1,0,0:0:0:0:
192,224,240342,5,0,0:0:0:0:
336,72,240608,5,0,0:0:0:0:
268,37,240785,1,0,0:0:0:0:
288,192,241140,5,0,0:0:0:0:
128,64,241495,5,0,0:0:0:0:
192,224,241761,5,0,0:0:0:0:
96,224,242030,5,0,0:0:0:0:
288,320,242205,1,0,0:0:0:0:
224,192,242560,5,0,0:0:0:0:
384,320,242917,5,0,0:0:0:0:
320,160,243181,5,0,0:0:0:0:
416,160,243448,5,0,0:0:0:0:
224,64,243625,1,0,0:0:0:0:
288,224,243980,5,0,0:0:0:0:
207,95,244335,5,0,0:0:0:0:
138,44,244513,1,0,0:0:0:0:
172,161,244690,1,0,0:0:0:0:
76,146,244868,1,0,0:0:0:0:
177,232,245045,1,0,0:0:0:0:
91,265,245223,1,0,0:0:0:0:
206,308,245400,6,0,P|140:344|130:347,1,59.5
308,329,245755,2,0,P|362:307|375:290,1,59.5
271,234,246110,2,0,P|227:209|215:183,1,59.5
342,153,246465,5,0,0:0:0:0:
392,90,246643,1,0,0:0:0:0:
332,40,246820,1,0,0:0:0:0:
276,101,246997,2,0,L|188:98,1,59.5
204,170,247530,6,0,P|131:128|98:170,1,119
97,293,248063,5,0,0:0:0:0:
323,292,248241,2,0,P|374:212|344:189,1,119
256,32,248951,5,0,0:0:0:0:
357,258,249306,5,0,0:0:0:0:
15,78,249661,5,0,0:0:0:0:
102,360,250016,5,0,0:0:0:0:
403,169,250282,5,0,0:0:0:0:
356,340,250548,5,0,0:0:0:0:
446,284,250726,1,0,0:0:0:0:
295,192,251081,5,0,0:0:0:0:
97,350,251436,5,0,0:0:0:0:
176,152,251702,5,0,0:0:0:0:
355,340,251968,5,0,0:0:0:0:
267,353,252146,1,0,0:0:0:0:
295,192,252501,5,0,0:0:0:0:
93,296,252856,5,0,0:0:0:0:
176,152,253122,5,0,0:0:0:0:
57,152,253388,5,0,0:0:0:0:
295,33,253566,1,0,0:0:0:0:
217,192,253921,5,0,0:0:0:0:
415,350,254276,5,0,0:0:0:0:
336,152,254542,5,0,0:0:0:0:
455,152,254808,5,0,0:0:0:0:
217,33,254986,1,0,0:0:0:0:
302,191,255163,2,0,L|385:180,1,59.5
247,306,255519,2,0,L|163:291,1,59.5
206,95,255874,5,0,0:0:0:0:
137,44,256052,1,0,0:0:0:0:
171,161,256229,1,0,0:0:0:0:
75,146,256407,1,0,0:0:0:0:
176,232,256584,1,0,0:0:0:0:
90,265,256762,1,0,0:0:0:0:
336,268,256939,6,0,P|391:240|397:222,1,59.5
280,97,257294,2,0,B|278:98|237:95|219:122,1,59.5
210,276,257649,2,0,P|248:300|275:295,1,59.5
291,188,258004,2,0,P|272:155|282:125,1,59.5
369,39,258359,2,0,P|406:50|425:72,1,59.5
331,149,258714,1,0,0:0:0:0:
203,95,258894,6,0,P|153:73|90:162,1,178.5
171,192,259601,5,0,0:0:0:0:
229,268,259779,1,0,0:0:0:0:
221,349,259956,1,0,0:0:0:0:
229,268,260311,5,0,0:0:0:0:
304,209,260489,1,0,0:0:0:0:
222,148,260666,1,0,0:0:0:0:
466,29,261021,5,0,0:0:0:0:
434,327,261376,5,0,0:0:0:0:
356,51,261643,5,0,0:0:0:0:
141,192,261909,5,0,0:0:0:0:
184,68,262086,1,0,0:0:0:0:
46,355,262441,5,0,0:0:0:0:
78,57,262796,5,0,0:0:0:0:
147,255,263064,5,0,0:0:0:0:
379,175,263330,5,0,0:0:0:0:
273,65,263507,1,0,0:0:0:0:
390,303,263862,5,0,0:0:0:0:
92,343,264217,5,0,0:0:0:0:
304,218,264484,5,0,0:0:0:0:
133,22,264750,5,0,0:0:0:0:
260,66,264927,1,0,0:0:0:0:
277,177,265282,5,0,0:0:0:0:
0,294,265637,5,0,0:0:0:0:
229,108,265992,5,0,0:0:0:0:
328,287,266170,1,0,0:0:0:0:
294,53,266347,1,0,0:0:0:0:
241,315,266525,1,0,0:0:0:0:
218,53,266702,1,0,0:0:0:0:
165,315,266880,1,0,0:0:0:0:
143,55,267057,1,0,0:0:0:0:
90,317,267235,1,0,0:0:0:0:
66,54,267412,5,0,0:0:0:0:
323,125,267590,1,0,0:0:0:0:
52,127,267767,1,0,0:0:0:0:
309,198,267945,1,0,0:0:0:0:
34,196,268122,1,0,0:0:0:0:
291,267,268300,1,0,0:0:0:0:
10,264,268477,1,0,0:0:0:0:
267,335,268655,1,0,0:0:0:0:
373,214,268832,5,0,0:0:0:0:
210,202,269009,1,0,0:0:0:0:
132,103,269190,5,0,0:0:0:0:
158,88,269278,1,0,0:0:0:0:
186,80,269367,1,0,0:0:0:0:
216,81,269456,1,0,0:0:0:0:
246,88,269545,1,0,0:0:0:0:
274,96,269633,1,0,0:0:0:0:
304,100,269722,1,0,0:0:0:0:
334,97,269811,1,0,0:0:0:0:
361,86,269900,1,0,0:0:0:0:
387,70,269988,1,0,0:0:0:0:
411,52,270077,1,0,0:0:0:0:
426,69,270166,1,0,0:0:0:0:
438,96,270255,1,0,0:0:0:0:
448,125,270343,1,0,0:0:0:0:
451,154,270432,1,0,0:0:0:0:
464,224,270610,2,0,P|512:208|512:192,1,52.5000140190162
227,104,270963,5,0,0:0:0:0:
273,183,271140,1,0,0:0:0:0:
371,189,271318,1,0,0:0:0:0:
275,187,271673,5,0,0:0:0:0:
190,232,271850,1,0,0:0:0:0:
191,318,272030,2,0,P|226:350|367:264,2,231
297,274,273803,5,0,0:0:0:0:
274,186,273980,1,0,0:0:0:0:
339,112,274158,1,0,0:0:0:0:
272,182,274513,5,0,0:0:0:0:
181,210,274690,1,0,0:0:0:0:
120,148,274870,2,0,P|123:101|256:56,2,210
304,288,276643,5,0,0:0:0:0:
340,214,276820,1,0,0:0:0:0:
297,138,276998,1,0,0:0:0:0:
343,211,277353,5,0,0:0:0:0:
418,253,277530,1,0,0:0:0:0:
483,208,277710,2,0,P|488:168|385:70,2,189
208,304,279483,5,0,0:0:0:0:
272,267,279661,1,0,0:0:0:0:
277,189,279838,1,0,0:0:0:0:
275,266,280193,5,0,0:0:0:0:
311,334,280371,1,0,0:0:0:0:
390,339,280550,2,0,P|472:280|450:212,2,168
336,176,282323,5,0,0:0:0:0:
304,111,282501,1,0,0:0:0:0:
318,32,282678,1,0,0:0:0:0:
304,111,283033,5,0,0:0:0:0:
236,184,283211,1,0,0:0:0:0:
158,167,283391,2,0,P|132:146|139:39,2,147
240,176,285163,5,0,0:0:0:0:
193,239,285341,1,0,0:0:0:0:
201,311,285518,1,0,0:0:0:0:
193,239,285873,5,0,0:0:0:0:
124,197,286052,1,0,0:0:0:0:
60,229,286231,2,0,P|38:285|64:340,2,126
417,229,288004,5,0,0:0:0:0:
342,206,288182,1,0,0:0:0:0:
305,144,288359,1,0,0:0:0:0:
342,206,288714,5,0,0:0:0:0:
338,288,288891,1,0,0:0:0:0:
274,324,289071,2,0,P|246:324|192:272,2,105
293,91,290844,6,0,L|329:108,2,35
205,99,291554,2,0,L|160:104,1,35
112,170,291909,1,0,0:0:0:0:
113,189,292441,1,0,0:0:0:0:
113,205,292974,1,0,0:0:0:0:
203,81,293685,6,0,L|179:117,2,35
271,48,294395,2,0,L|317:52,1,35
247,64,294750,2,0,L|242:70,5,8.75
276,42,295016,2,0,B|285:138|443:129|443:129|353:144|381:236|381:236|533:240|532:105,1,577.5
