osu file format v14

[General]
AudioFilename: audio.mp3
AudioLeadIn: 0
PreviewTime: 65761
Countdown: 0
SampleSet: None
StackLeniency: 0.7
Mode: 3
LetterboxInBreaks: 0
SpecialStyle: 0
WidescreenStoryboard: 1

[Editor]
DistanceSpacing: 0.8
BeatDivisor: 8
GridSize: 32
TimelineZoom: 2.1

[Metadata]
Title:EON BREAK
TitleUnicode:EON BREAK
Artist:Porter Robinson as VIRTUAL SELF
ArtistUnicode:Porter Robinson as VIRTUAL SELF
Creator:Curiossity
Version:Eon Shatter
Source:
Tags:guilhermeziat
BeatmapID:2009728
BeatmapSetID:959919

[Difficulty]
HPDrainRate:8.5
CircleSize:4
OverallDifficulty:8
ApproachRate:5
SliderMultiplier:1.4
SliderTickRate:1

[Events]
//Background and Video events
0,0,"bg.jpg",0,0
//Break Periods
//Storyboard Layer 0 (Background)
//Storyboard Layer 1 (Fail)
//Storyboard Layer 2 (Pass)
//Storyboard Layer 3 (Foreground)
//Storyboard Sound Samples

[TimingPoints]
95,333.333333,4,2,0,20,1,0
95,-100,4,2,0,20,0,0
261,6,4,2,0,20,1,0
261,-10,4,2,0,20,0,0
272,333.333333,4,2,0,20,1,0
272,-33.3333333333333,4,2,0,20,0,0
283,333.333333,4,2,0,20,1,0
283,-66.6666666666667,4,2,0,20,0,0
303,-100,4,2,0,20,0,0
324,-125,4,2,0,20,0,0
345,-166.666666666667,4,2,0,20,0,0
366,-250,4,2,0,20,0,0
387,-333.333333333333,4,2,0,20,0,0
407,-500,4,2,0,20,0,0
428,333.333333,4,2,0,20,1,0
428,-1000,4,2,0,20,0,0
594,-833.333333333333,4,2,0,20,0,0
636,-666.666666666667,4,2,0,20,0,0
678,-500,4,2,0,20,0,0
719,-384.615384615385,4,2,0,20,0,0
761,-312.5,4,2,0,20,0,0
803,-256.410256410256,4,2,0,20,0,0
844,-212.765957446809,4,2,0,20,0,0
886,-181.818181818182,4,2,0,20,0,0
928,-158.730158730159,4,2,0,20,0,0
969,-138.888888888889,4,2,0,20,0,0
1011,-123.456790123457,4,2,0,20,0,0
1052,-111.111111111111,4,2,0,20,0,0
1094,-100,4,2,0,20,0,0
1344,-102.040816326531,4,2,0,20,0,0
1385,-104.166666666667,4,2,0,20,0,0
1427,-106.382978723404,4,2,0,20,0,0
1469,-108.695652173913,4,2,0,20,0,0
1510,-111.111111111111,4,2,0,20,0,0
1552,-113.636363636364,4,2,0,20,0,0
1594,-116.279069767442,4,2,0,20,0,0
1635,-119.047619047619,4,2,0,20,0,0
1677,-121.951219512195,4,2,0,20,0,0
1719,-125,4,2,0,20,0,0
11427,-123.456790123457,4,2,0,20,0,0
11511,-121.951219512195,4,2,0,30,0,0
11594,-120.481927710843,4,2,0,30,0,0
11677,-119.047619047619,4,2,0,30,0,0
11761,-117.647058823529,4,2,0,30,0,0
11816,-116.279069767442,4,2,0,30,0,0
11872,-114.942528735632,4,2,0,30,0,0
11927,-113.636363636364,4,2,0,30,0,0
11983,-112.359550561798,4,2,0,30,0,0
12039,-111.111111111111,4,2,0,30,0,0
12094,-109.89010989011,4,2,0,30,0,0
12136,-108.695652173913,4,2,0,30,0,0
12177,-107.52688172043,4,2,0,30,0,0
12219,-106.382978723404,4,2,0,30,0,0
12261,-105.263157894737,4,2,0,30,0,0
12302,-104.166666666667,4,2,0,30,0,0
12344,-103.092783505155,4,2,0,30,0,0
12372,-102.040816326531,4,2,0,30,0,0
12400,-101.010101010101,4,2,0,30,0,0
12427,-100,4,2,0,40,0,0
32427,-76.9230769230769,4,2,0,50,0,0
32483,-99.9999999999999,4,2,0,50,0,0
32539,-142.857142857143,4,2,0,50,0,0
32594,-76.9230769230769,4,2,0,50,0,0
32650,-99.9999999999999,4,2,0,50,0,0
32705,-125,4,2,0,50,0,0
32761,-111.111111111111,4,2,0,50,0,0
32816,-100,4,2,0,50,0,0
32872,-90.9090909090909,4,2,0,50,0,0
32927,-71.4285714285714,4,2,0,50,0,0
32983,-100,4,2,0,50,0,0
33039,-166.666666666667,4,2,0,50,0,0
33094,-71.4285714285714,4,2,0,50,0,0
33150,-100,4,2,0,50,0,0
33205,-142.857142857143,4,2,0,50,0,0
33261,-125,4,2,0,50,0,0
33316,-100,4,2,0,50,0,0
33372,-83.3333333333333,4,2,0,50,0,0
33427,-62.5,4,2,0,50,0,0
33483,-111.111111111111,4,2,0,50,0,0
33538,-142.857142857143,4,2,0,50,0,0
33594,-166.666666666667,4,2,0,50,0,0
33649,-111.111111111111,4,2,0,50,0,0
33705,-76.9230769230769,4,2,0,50,0,0
33761,-100,4,2,0,50,0,0
55094,-111.111111111111,4,2,0,50,0,0
56261,-90.9090909090909,4,2,0,50,0,0
56302,-142.857142857143,4,2,0,50,0,0
56344,-111.111111111111,4,2,0,50,0,0
56427,-76.9230769230769,4,2,0,50,0,0
56469,-142.857142857143,4,2,0,50,0,0
56511,-100,4,2,0,50,0,0
57761,-111.111111111111,4,2,0,50,0,0
59011,-90.9090909090909,4,2,0,50,0,0
59052,-142.857142857143,4,2,0,50,0,0
59094,-76.9230769230769,4,2,0,50,0,0
59136,-142.857142857143,4,2,0,50,0,0
59178,-100,4,2,0,50,0,0
59344,-83.3333333333333,4,2,0,50,0,0
59386,-125,4,2,0,50,0,0
59427,-76.9230769230769,4,2,0,50,0,0
59469,-142.857142857143,4,2,0,50,0,0
59511,-100,4,2,0,50,0,0
59677,-83.3333333333333,4,2,0,50,0,0
59719,-125,4,2,0,50,0,0
59761,-76.9230769230769,4,2,0,50,0,0
59803,-142.857142857143,4,2,0,50,0,0
59844,-83.3333333333333,4,2,0,50,0,0
59886,-125,4,2,0,50,0,0
59927,-76.9230769230769,4,2,0,50,0,0
59969,-142.857142857143,4,2,0,50,0,0
60011,-100,4,2,0,50,0,0
60094,-83.3333333333333,4,2,0,50,0,0
60136,-125,4,2,0,50,0,0
60177,-100,4,2,0,50,0,0
60261,-83.3333333333333,4,2,0,50,0,0
60303,-125,4,2,0,50,0,0
60344,-100,4,2,0,50,0,0
60427,-111.111111111111,4,2,0,50,0,0
61761,-100,4,2,0,50,0,0
63094,-76.9230769230769,4,2,0,50,0,0
63136,-142.857142857143,4,2,0,50,0,0
63177,-100,4,2,0,50,0,0
63261,-80,4,2,0,50,0,0
63303,-133.333333333333,4,2,0,50,0,0
63344,-100,4,2,0,50,0,0
63427,-80,4,2,0,50,0,0
63469,-133.333333333333,4,2,0,50,0,0
63510,-100,4,2,0,50,0,0
63594,-80,4,2,0,50,0,0
63636,-133.333333333333,4,2,0,50,0,0
63677,-100,4,2,0,50,0,0
63761,-76.9230769230769,4,2,0,50,0,0
63803,-142.857142857143,4,2,0,50,0,0
63844,-80,4,2,0,50,0,0
63886,-133.333333333333,4,2,0,50,0,0
63927,-80,4,2,0,50,0,0
63969,-133.333333333333,4,2,0,50,0,0
64011,-80,4,2,0,50,0,0
64053,-133.333333333333,4,2,0,50,0,0
64094,-80,4,2,0,50,0,0
64136,-133.333333333333,4,2,0,50,0,0
64177,-100,4,2,0,50,0,0
64427,-52.6315789473684,4,2,0,50,0,0
64469,-1000,4,2,0,50,0,0
64511,-333.333333333333,4,2,0,50,0,0
64552,-200,4,2,0,50,0,0
64594,-133.333333333333,4,2,0,50,0,0
64636,-100,4,2,0,50,0,0
64677,-68.9655172413793,4,2,0,50,0,0
64719,-50,4,2,0,50,0,0
64761,-20,4,2,0,50,0,0
64782,-50,4,2,0,50,0,0
64802,-100,4,2,0,50,0,0
64844,-111.111111111111,4,2,0,50,0,0
64886,-125,4,2,0,50,0,0
64927,-133.333333333333,4,2,0,50,0,0
65094,-131.578947368421,4,2,0,50,0,0
65136,-129.87012987013,4,2,0,50,0,0
65177,-128.205128205128,4,2,0,50,0,0
65219,-126.582278481013,4,2,0,50,0,0
65261,-125,4,2,0,50,0,0
65302,-121.951219512195,4,2,0,50,0,0
65344,-119.047619047619,4,2,0,50,0,0
65386,-116.279069767442,4,2,0,50,0,0
65427,-113.636363636364,4,2,0,50,0,0
65469,-111.111111111111,4,2,0,50,0,0
65511,-108.695652173913,4,2,0,50,0,0
65552,-106.382978723404,4,2,0,50,0,0
65594,-104.166666666667,4,2,0,50,0,0
65636,-102.040816326531,4,2,0,50,0,0
65677,-101.010101010101,4,2,0,50,0,0
65761,-100,4,2,0,50,0,1
85761,-10,4,2,0,50,0,0
85802,-500,4,2,0,50,0,0
86094,-333.333333333333,4,2,0,50,0,0
86136,-250,4,2,0,50,0,0
86177,-200,4,2,0,50,0,0
86219,-166.666666666667,4,2,0,50,0,0
86261,-142.857142857143,4,2,0,50,0,0
86302,-125,4,2,0,50,0,0
86344,-111.111111111111,4,2,0,50,0,0
86427,-100,4,2,0,50,0,0
87094,-100,4,2,0,50,0,1
107094,-200,4,2,0,50,0,0
107736,337.078652,4,2,0,50,1,0
107736,-76.3358778625954,4,2,0,50,0,0
107778,-140.845070422535,4,2,0,50,0,0
107820,-99.009900990099,4,2,0,50,0,0
107904,-76.3358778625954,4,2,0,50,0,0
107946,-140.845070422535,4,2,0,50,0,0
107988,-99.009900990099,4,2,0,50,0,0
108073,-76.3358778625954,4,2,0,50,0,0
108115,-140.845070422535,4,2,0,50,0,0
108157,-99.009900990099,4,2,0,50,0,0
108241,-76.3358778625954,4,2,0,50,0,0
108283,-140.845070422535,4,2,0,50,0,0
108325,-99.009900990099,4,2,0,50,0,0
108410,337.078651685393,4,2,0,50,1,0
108410,-116.279069767442,4,2,0,40,0,0
119196,-109.89010989011,4,2,0,40,0,0
140769,-104.166666666667,4,2,0,40,0,0
151556,-99.009900990099,4,2,0,50,0,0
159308,-82.6446280991736,4,2,0,50,0,0
159351,-123.456790123457,4,2,0,50,0,0
159394,-70.9219858156028,4,2,0,50,0,0
159436,-163.934426229508,4,2,0,50,0,0
159478,-62.111801242236,4,2,0,50,0,0
159520,-243.90243902439,4,2,0,50,0,0
159562,-55.2486187845304,4,2,0,50,0,0
159604,-476.190476190476,4,2,0,50,0,0
160965,337.078652,4,2,0,50,1,0
160965,-243.90243902439,4,2,0,30,0,0
161302,-163.934426229508,4,2,0,30,0,0
161639,-123.456790123457,4,2,0,30,0,0
161976,-243.90243902439,4,2,0,30,0,0
162018,-196.078431372549,4,2,0,50,0,0
162060,-163.934426229508,4,2,0,50,0,0
162102,-123.456790123457,4,2,0,50,0,0
162144,-99.009900990099,4,2,0,50,0,0
162186,-82.6446280991736,4,2,0,50,0,0
162229,-66.2251655629139,4,2,0,50,0,0
162271,-49.7512437810945,4,2,0,50,0,0
162315,337.078652,4,2,0,50,1,0
162315,-99.009900990099,4,2,0,50,0,1
183550,-99.009900990099,4,2,0,50,0,0
183888,-99.009900990099,4,2,0,50,0,1
204786,1,4,2,0,50,1,0
204794,1762.58613573063,4,2,0,50,1,0
204796,1761.39601463137,4,2,0,50,1,0
204798,1759.94360295426,4,2,0,50,1,0
204800,1758.23020152261,4,2,0,50,1,0
204802,1756.25734076842,4,2,0,50,1,0
204804,1754.02677733054,4,2,0,50,1,0
204806,1751.54049016795,4,2,0,50,1,0
204808,1748.80067620403,4,2,0,50,1,0
204810,1745.80974551957,4,2,0,50,1,0
204812,1742.57031611392,4,2,0,50,1,0
204814,1739.08520825542,4,2,0,50,1,0
204816,1735.35743844336,4,2,0,50,1,0
204818,1731.3902130053,4,2,0,50,1,0
204820,1727.18692135459,4,2,0,50,1,0
204822,1722.75112893386,4,2,0,50,1,0
204824,1718.08656987127,4,2,0,50,1,0
204826,1713.19713937678,4,2,0,50,1,0
204828,1708.0868859063,4,2,0,50,1,0
204830,1702.76000312202,4,2,0,50,1,0
204832,1697.22082167736,4,2,0,50,1,0
204834,1691.47380085484,4,2,0,50,1,0
204836,1685.52352008557,4,2,0,50,1,0
204838,1679.37467037822,4,2,0,50,1,0
204840,1673.03204568543,4,2,0,50,1,0
204842,1666.50053423476,4,2,0,50,1,0
204844,1659.78510985108,4,2,0,50,1,0
204846,1652.89082329588,4,2,0,50,1,0
204848,1645.82279364901,4,2,0,50,1,0
204850,1638.58619975652,4,2,0,50,1,0
204852,1631.1862717679,4,2,0,50,1,0
204854,1623.62828278462,4,2,0,50,1,0
204856,1615.91754064068,4,2,0,50,1,0
204858,1608.05937983469,4,2,0,50,1,0
204860,1600.05915363186,4,2,0,50,1,0
204862,1591.92222635263,4,2,0,50,1,0
204864,1583.65396586375,4,2,0,50,1,0
204866,1575.25973628582,4,2,0,50,1,0
204868,1566.74489093026,4,2,0,50,1,0
204870,1558.11476547726,4,2,0,50,1,0
204872,1549.37467140458,4,2,0,50,1,0
204874,1540.52988967627,4,2,0,50,1,0
204876,1531.58566469852,4,2,0,50,1,0
204878,1522.54719854897,4,2,0,50,1,0
204880,1513.41964548421,4,2,0,50,1,0
204882,1504.20810672925,4,2,0,50,1,0
204884,1494.91762555147,4,2,0,50,1,0
204886,1485.55318262029,4,2,0,50,1,0
204888,1476.11969165308,4,2,0,50,1,0
204890,1466.62199534636,4,2,0,50,1,0
204892,1457.0648615908,4,2,0,50,1,0
204894,1447.45297996738,4,2,0,50,1,0
204896,1437.79095852133,4,2,0,50,1,0
204898,1428.08332080959,4,2,0,50,1,0
204900,1418.33450321709,4,2,0,50,1,0
204902,1408.54885253608,4,2,0,50,1,0
204904,1398.73062380258,4,2,0,50,1,0
204906,1388.88397838315,4,2,0,50,1,0
204908,1379.01298230499,4,2,0,50,1,0
204910,1369.12160482177,4,2,0,50,1,0
204912,1359.21371720726,4,2,0,50,1,0
204914,1349.2930917687,4,2,0,50,1,0
204916,1339.36340107141,4,2,0,50,1,0
204918,1329.42821736599,4,2,0,50,1,0
204920,1319.49101220944,4,2,0,50,1,0
204922,1309.55515627123,4,2,0,50,1,0
204924,1299.62391931537,4,2,0,50,1,0
204926,1289.70047034965,4,2,0,50,1,0
204928,1279.78787793293,4,2,0,50,1,0
204930,1269.88911063171,4,2,0,50,1,0
204932,1260.00703761708,4,2,0,50,1,0
204934,1250.1444293934,4,2,0,50,1,0
204936,1240.30395865003,4,2,0,50,1,0
204938,1230.48820122786,4,2,0,50,1,0
204940,1220.69963719214,4,2,0,50,1,0
204942,1210.94065200382,4,2,0,50,1,0
204944,1201.21353778141,4,2,0,50,1,0
204946,1191.52049464574,4,2,0,50,1,0
204948,1181.86363214038,4,2,0,50,1,0
204950,1172.24497072038,4,2,0,50,1,0
204952,1162.66644330271,4,2,0,50,1,0
204954,1153.12989687161,4,2,0,50,1,0
204956,1143.63709413255,4,2,0,50,1,0
204958,1134.18971520876,4,2,0,50,1,0
204960,1124.78935937459,4,2,0,50,1,0
204962,1115.43754682002,4,2,0,50,1,0
204964,1106.13572044116,4,2,0,50,1,0
204966,1096.88524765184,4,2,0,50,1,0
204968,1087.68742221138,4,2,0,50,1,0
204970,1078.54346606425,4,2,0,50,1,0
204972,1069.45453118732,4,2,0,50,1,0
204974,1060.42170144088,4,2,0,50,1,0
204976,1051.4459944196,4,2,0,50,1,0
204978,1042.52836330002,4,2,0,50,1,0
204980,1033.66969868144,4,2,0,50,1,0
204982,1024.87083041712,4,2,0,50,1,0
204984,1016.13252943302,4,2,0,50,1,0
204986,1007.45550953162,4,2,0,50,1,0
204988,998.840429178308,4,2,0,50,1,0
204990,990.287893268403,4,2,0,50,1,0
204992,981.798454872581,4,2,0,50,1,0
204994,973.372616959141,4,2,0,50,1,0
204996,965.010834091371,4,2,0,50,1,0
204998,956.713514098601,4,2,0,50,1,0
205000,948.481019719652,4,2,0,50,1,0
205002,940.313670217522,4,2,0,50,1,0
205004,932.211742964307,4,2,0,50,1,0
205006,924.175474995489,4,2,0,50,1,0
205008,916.205064532836,4,2,0,50,1,0
205010,908.300672475286,4,2,0,50,1,0
205012,900.462423857299,4,2,0,50,1,0
205014,892.690409274254,4,2,0,50,1,0
205016,884.984686274586,4,2,0,50,1,0
205018,877.34528071842,4,2,0,50,1,0
205020,869.77218810257,4,2,0,50,1,0
205022,862.265374851847,4,2,0,50,1,0
205024,854.824779576658,4,2,0,50,1,0
205026,847.450314297008,4,2,0,50,1,0
205028,840.141865633019,4,2,0,50,1,0
205030,832.899295962167,4,2,0,50,1,0
205032,825.722444543498,4,2,0,50,1,0
205034,818.611128609103,4,2,0,50,1,0
205036,811.565144423201,4,2,0,50,1,0
205038,804.584268309212,4,2,0,50,1,0
205040,797.668257645227,4,2,0,50,1,0
205042,790.816851828327,4,2,0,50,1,0
205044,784.029773208222,4,2,0,50,1,0
205046,777.306727990723,4,2,0,50,1,0
205048,770.647407111551,4,2,0,50,1,0
205050,764.051487081035,4,2,0,50,1,0
205052,757.518630800264,4,2,0,50,1,0
205054,751.048488349244,4,2,0,50,1,0
205056,744.640697747674,4,2,0,50,1,0
205058,738.294885688902,4,2,0,50,1,0
205060,732.010668247689,4,2,0,50,1,0
205062,725.78765156237,4,2,0,50,1,0
205064,719.625432492031,4,2,0,50,1,0
205066,713.523599249311,4,2,0,50,1,0
205068,707.481732009439,4,2,0,50,1,0
205070,701.499403496132,4,2,0,50,1,0
205072,695.576179544939,4,2,0,50,1,0
205074,689.711619644669,4,2,0,50,1,0
205076,683.90527745748,4,2,0,50,1,0
205078,678.156701318242,4,2,0,50,1,0
205080,672.465434713763,4,2,0,50,1,0
205082,666.831016742461,4,2,0,50,1,0
205084,661.252982555061,4,2,0,50,1,0
205086,655.730863776888,4,2,0,50,1,0
205088,650.264188912315,4,2,0,50,1,0
205090,644.852483731928,4,2,0,50,1,0
205092,639.495271642929,4,2,0,50,1,0
205094,634.192074043337,4,2,0,50,1,0
205096,628.942410660492,4,2,0,50,1,0
205098,623.745799874376,4,2,0,50,1,0
205100,618.601759026258,4,2,0,50,1,0
205102,613.509804713157,4,2,0,50,1,0
205104,608.469453068588,4,2,0,50,1,0
205106,603.480220030079,4,2,0,50,1,0
205108,598.541621593899,4,2,0,50,1,0
205110,593.653174057459,4,2,0,50,1,0
205112,588.814394249808,4,2,0,50,1,0
205114,584.024799750662,4,2,0,50,1,0
205116,579.283909098361,4,2,0,50,1,0
205118,574.591241987181,4,2,0,50,1,0
205120,569.946319454365,4,2,0,50,1,0
205122,565.348664057272,4,2,0,50,1,0
205124,560.797800041008,4,2,0,50,1,0
205126,556.293253496897,4,2,0,50,1,0
205128,551.834552512142,4,2,0,50,1,0
205130,547.421227311008,4,2,0,50,1,0
205132,543.052810387868,4,2,0,50,1,0
205134,538.728836632415,4,2,0,50,1,0
205136,534.448843447362,4,2,0,50,1,0
205138,530.212370858912,4,2,0,50,1,0
205140,526.018961620304,4,2,0,50,1,0
205142,521.868161308706,4,2,0,50,1,0
205144,517.759518415727,4,2,0,50,1,0
205146,513.692584431803,4,2,0,50,1,0
205148,509.666913924727,4,2,0,50,1,0
205150,505.682064612554,4,2,0,50,1,0
205152,501.737597431113,4,2,0,50,1,0
205154,497.833076596378,4,2,0,50,1,0
205156,493.968069661889,4,2,0,50,1,0
205158,490.142147571455,4,2,0,50,1,0
205160,486.354884707342,4,2,0,50,1,0
205162,482.60585893414,4,2,0,50,1,0
205164,478.894651638499,4,2,0,50,1,0
205166,475.220847764924,4,2,0,50,1,0
205168,471.584035847805,4,2,0,50,1,0
205170,467.983808039849,4,2,0,50,1,0
205172,464.419760137086,4,2,0,50,1,0
205174,460.891491600606,4,2,0,50,1,0
205176,457.398605575165,4,2,0,50,1,0
205178,453.940708904842,4,2,0,50,1,0
205180,450.51741214585,4,2,0,50,1,0
205182,447.12832957666,4,2,0,50,1,0
205184,443.773079205572,4,2,0,50,1,0
205186,440.451282775837,4,2,0,50,1,0
205188,437.162565768479,4,2,0,50,1,0
205190,433.906557402909,4,2,0,50,1,0
205192,430.682890635466,4,2,0,50,1,0
205194,427.491202155972,4,2,0,50,1,0
205196,424.331132382416,4,2,0,50,1,0
205198,421.202325453867,4,2,0,50,1,0
205200,418.1044292217,4,2,0,50,1,0
205202,415.037095239248,4,2,0,50,1,0
205204,411.999978749938,4,2,0,50,1,0
205206,408.992738674025,4,2,0,50,1,0
205208,406.015037593985,4,2,0,50,1,0
205210,403.066541738651,4,2,0,50,1,0
205212,400.146920966167,4,2,0,50,1,0
205214,397.25584874583,4,2,0,50,1,0
205216,394.393002138889,4,2,0,50,1,0
205218,391.55806177836,4,2,0,50,1,0
205220,388.750711847934,4,2,0,50,1,0
205222,385.970640060023,4,2,0,50,1,0
205224,383.217537633005,4,2,0,50,1,0
205226,380.491099267728,4,2,0,50,1,0
205228,377.791023123325,4,2,0,50,1,0
205230,375.117010792376,4,2,0,50,1,0
205232,372.468767275491,4,2,0,50,1,0
205234,369.846000955331,4,2,0,50,1,0
205236,367.248423570132,4,2,0,50,1,0
205238,364.675750186765,4,2,0,50,1,0
205240,362.127699173368,4,2,0,50,1,0
205242,359.6039921716,4,2,0,50,1,0
205244,357.104354068542,4,2,0,50,1,0
205246,354.628512968281,4,2,0,50,1,0
205248,352.176200163217,4,2,0,50,1,0
205250,349.747150105118,4,2,0,50,1,0
205252,347.341100375954,4,2,0,50,1,0
205254,344.957791658542,4,2,0,50,1,0
205256,342.596967707019,4,2,0,50,1,0
205258,340.258375317188,4,2,0,50,1,0
205260,337.941764296733,4,2,0,50,1,0
205262,335.646887435363,4,2,0,50,1,0
205264,333.373500474864,4,2,0,50,1,0
205266,331.121362079126,4,2,0,50,1,0
205268,328.890233804119,4,2,0,50,1,0
205270,326.679880067879,4,2,0,50,1,0
205272,324.49006812049,4,2,0,50,1,0
205274,322.320568014094,4,2,0,50,1,0
205276,320.171152572947,4,2,0,50,1,0
205278,318.041597363524,4,2,0,50,1,0
205280,315.9316806647,4,2,0,50,1,0
205282,313.841183438015,4,2,0,50,1,0
205284,311.769889298032,4,2,0,50,1,0
205286,309.717584482808,4,2,0,50,1,0
205288,307.684057824485,4,2,0,50,1,0
205290,305.669100720009,4,2,0,50,1,0
205292,303.672507101991,4,2,0,50,1,0
205294,301.694073409722,4,2,0,50,1,0
205296,299.733598560342,4,2,0,50,1,0
205298,297.790883920176,4,2,0,50,1,0
205300,295.865733276254,4,2,0,50,1,0
205302,293.957952807999,4,2,0,50,1,0
205304,292.067351059116,4,2,0,50,1,0
205306,290.193738909671,4,2,0,50,1,0
205308,288.336929548367,4,2,0,50,1,0
205310,286.496738445035,4,2,0,50,1,0
205312,284.672983323332,4,2,0,50,1,0
205314,282.865484133649,4,2,0,50,1,0
205316,281.074063026247,4,2,0,50,1,0
205318,279.298544324613,4,2,0,50,1,0
205320,277.538754499046,4,2,0,50,1,0
205322,275.794522140466,4,2,0,50,1,0
205324,274.065677934462,4,2,0,50,1,0
205326,272.35205463558,4,2,0,50,1,0
205328,270.653487041836,4,2,0,50,1,0
205330,268.969811969478,4,2,0,50,1,0
205332,267.300868227995,4,2,0,50,1,0
205334,265.646496595351,4,2,0,50,1,0
205336,264.006539793484,4,2,0,50,1,0
205338,262.380842464038,4,2,0,50,1,0
205340,260.769251144343,4,2,0,50,1,0
205342,259.171614243649,4,2,0,50,1,0
205344,257.587782019596,4,2,0,50,1,0
205346,256.017606554946,4,2,0,50,1,0
205348,254.46094173455,4,2,0,50,1,0
205350,252.917643222571,4,2,0,50,1,0
205352,251.387568439954,4,2,0,50,1,0
205354,249.87057654214,4,2,0,50,1,0
205356,248.366528397032,4,2,0,50,1,0
205358,246.875286563206,4,2,0,50,1,0
205360,245.396715268363,4,2,0,50,1,0
205362,243.930680388038,4,2,0,50,1,0
205364,242.477049424537,4,2,0,50,1,0
205366,241.035691486137,4,2,0,50,1,0
205368,239.60647726651,4,2,0,50,1,0
205370,238.189279024396,4,2,0,50,1,0
205372,236.783970563523,4,2,0,50,1,0
205374,235.39042721275,4,2,0,50,1,0
205376,234.00852580646,4,2,0,50,1,0
205378,232.638144665186,4,2,0,50,1,0
205380,231.279163576462,4,2,0,50,1,0
205382,229.931463775925,4,2,0,50,1,0
205384,228.594927928626,4,2,0,50,1,0
205386,227.26944011059,4,2,0,50,1,0
205388,225.954885790589,4,2,0,50,1,0
205390,224.651151812151,4,2,0,50,1,0
205392,223.358126375785,4,2,0,50,1,0
205394,222.075699021434,4,2,0,50,1,0
205396,220.803760611146,4,2,0,50,1,0
205398,219.542203311962,4,2,0,50,1,0
205400,218.290920579021,4,2,0,50,1,0
205402,217.049807138883,4,2,0,50,1,0
205404,215.818758973058,4,2,0,50,1,0
205406,214.597673301751,4,2,0,50,1,0
205408,213.386448567812,4,2,0,50,1,0
205410,212.184984420895,4,2,0,50,1,0
205412,210.993181701817,4,2,0,50,1,0
205414,209.810942427124,4,2,0,50,1,0
205416,208.638169773857,4,2,0,50,1,0
205418,207.474768064509,4,2,0,50,1,0
205419,-142.857142857143,4,2,0,50,0,0

[HitObjects]
448,192,261,5,0,0:0:0:0:
320,192,261,1,0,0:0:0:0:
64,192,1094,128,0,3094:0:0:0:0:
192,192,1136,128,0,1761:0:0:0:0:
320,192,1177,128,0,1427:0:0:0:0:
448,192,1219,128,0,1427:0:0:0:0:
448,192,1761,128,0,4427:0:0:0:0:
320,192,3177,128,0,4427:0:0:0:0:
64,192,4511,128,0,7094:0:0:0:0:
192,192,4511,128,0,7094:0:0:0:0:
448,192,5927,128,0,8427:0:0:0:0:
192,192,7844,128,0,8427:0:0:0:0:
64,192,8511,128,0,9761:0:0:0:0:
320,192,9177,128,0,9761:0:0:0:0:
448,192,9844,128,0,12427:0:0:0:0:
192,192,9844,128,0,12344:0:0:0:0:
64,192,11427,128,0,12344:0:0:0:0:
64,192,12427,1,0,0:0:0:0:
192,192,12427,1,0,0:0:0:0:
192,192,12594,1,0,0:0:0:0:
320,192,12761,1,0,0:0:0:0:
448,192,12761,1,0,0:0:0:0:
192,192,12844,1,0,0:0:0:0:
320,192,12927,1,0,0:0:0:0:
64,192,13094,1,0,0:0:0:0:
448,192,13094,1,0,0:0:0:0:
192,192,13261,1,0,0:0:0:0:
320,192,13344,1,0,0:0:0:0:
192,192,13427,1,0,0:0:0:0:
320,192,13511,1,0,0:0:0:0:
192,192,13594,1,0,0:0:0:0:
64,192,13594,1,0,0:0:0:0:
64,192,13761,1,0,0:0:0:0:
320,192,13927,1,0,0:0:0:0:
448,192,13927,1,0,0:0:0:0:
64,192,14094,1,0,0:0:0:0:
192,192,14177,1,0,0:0:0:0:
320,192,14261,1,0,0:0:0:0:
448,192,14261,1,0,0:0:0:0:
64,192,14427,1,0,0:0:0:0:
448,192,14427,1,0,0:0:0:0:
320,192,14594,1,0,0:0:0:0:
192,192,14677,1,0,0:0:0:0:
320,192,14761,1,0,0:0:0:0:
192,192,14844,1,0,0:0:0:0:
64,192,14927,1,0,0:0:0:0:
320,192,14927,1,0,0:0:0:0:
448,192,15011,1,0,0:0:0:0:
64,192,15094,1,0,0:0:0:0:
192,192,15094,1,0,0:0:0:0:
320,192,15261,1,0,0:0:0:0:
192,192,15427,1,0,0:0:0:0:
448,192,15427,1,0,0:0:0:0:
320,192,15511,1,0,0:0:0:0:
192,192,15594,1,0,0:0:0:0:
64,192,15761,1,0,0:0:0:0:
448,192,15761,1,0,0:0:0:0:
320,192,15927,1,0,0:0:0:0:
192,192,16011,1,0,0:0:0:0:
320,192,16094,1,0,0:0:0:0:
192,192,16177,1,0,0:0:0:0:
320,192,16261,1,0,0:0:0:0:
448,192,16261,1,0,0:0:0:0:
448,192,16427,1,0,0:0:0:0:
192,192,16594,1,0,0:0:0:0:
64,192,16594,1,0,0:0:0:0:
448,192,16761,1,0,0:0:0:0:
320,192,16844,1,0,0:0:0:0:
192,192,16927,1,0,0:0:0:0:
64,192,16927,1,0,0:0:0:0:
64,192,17094,1,0,0:0:0:0:
448,192,17094,1,0,0:0:0:0:
192,192,17261,1,0,0:0:0:0:
320,192,17344,1,0,0:0:0:0:
192,192,17427,1,0,0:0:0:0:
320,192,17511,1,0,0:0:0:0:
64,192,17594,1,0,0:0:0:0:
320,192,17677,1,0,0:0:0:0:
192,192,17761,1,0,0:0:0:0:
448,192,17761,1,0,0:0:0:0:
192,192,17927,1,0,0:0:0:0:
64,192,18094,1,0,0:0:0:0:
320,192,18094,1,0,0:0:0:0:
192,192,18177,1,0,0:0:0:0:
320,192,18261,1,0,0:0:0:0:
64,192,18427,1,0,0:0:0:0:
448,192,18427,1,0,0:0:0:0:
192,192,18594,1,0,0:0:0:0:
320,192,18677,1,0,0:0:0:0:
192,192,18761,1,0,0:0:0:0:
320,192,18844,1,0,0:0:0:0:
192,192,18927,1,0,0:0:0:0:
64,192,18927,1,0,0:0:0:0:
64,192,19094,1,0,0:0:0:0:
320,192,19261,1,0,0:0:0:0:
448,192,19261,1,0,0:0:0:0:
64,192,19427,1,0,0:0:0:0:
192,192,19511,1,0,0:0:0:0:
320,192,19594,1,0,0:0:0:0:
448,192,19594,1,0,0:0:0:0:
448,192,19761,1,0,0:0:0:0:
64,192,19761,1,0,0:0:0:0:
192,192,19927,1,0,0:0:0:0:
320,192,20011,1,0,0:0:0:0:
192,192,20094,1,0,0:0:0:0:
320,192,20177,1,0,0:0:0:0:
192,192,20261,1,0,0:0:0:0:
448,192,20261,1,0,0:0:0:0:
64,192,20344,1,0,0:0:0:0:
448,192,20427,1,0,0:0:0:0:
320,192,20427,1,0,0:0:0:0:
320,192,20594,1,0,0:0:0:0:
64,192,20761,1,0,0:0:0:0:
192,192,20761,1,0,0:0:0:0:
320,192,20844,1,0,0:0:0:0:
192,192,20927,1,0,0:0:0:0:
64,192,21094,1,0,0:0:0:0:
448,192,21094,1,0,0:0:0:0:
320,192,21261,1,0,0:0:0:0:
192,192,21344,1,0,0:0:0:0:
320,192,21427,1,0,0:0:0:0:
192,192,21511,1,0,0:0:0:0:
320,192,21594,1,0,0:0:0:0:
448,192,21594,1,0,0:0:0:0:
448,192,21761,1,0,0:0:0:0:
192,192,21761,1,0,0:0:0:0:
64,192,21927,1,0,0:0:0:0:
320,192,22011,1,0,0:0:0:0:
192,192,22094,1,0,0:0:0:0:
64,192,22094,1,0,0:0:0:0:
448,192,22177,1,0,0:0:0:0:
320,192,22261,1,0,0:0:0:0:
192,192,22261,1,0,0:0:0:0:
64,192,22427,1,0,0:0:0:0:
448,192,22427,1,0,0:0:0:0:
192,192,22594,1,0,0:0:0:0:
320,192,22677,1,0,0:0:0:0:
192,192,22761,1,0,0:0:0:0:
64,192,22761,1,0,0:0:0:0:
320,192,22844,1,0,0:0:0:0:
448,192,22927,1,0,0:0:0:0:
192,192,22927,1,0,0:0:0:0:
64,192,23011,1,0,0:0:0:0:
320,192,23094,1,0,0:0:0:0:
448,192,23094,1,0,0:0:0:0:
320,192,23261,1,0,0:0:0:0:
192,192,23427,1,0,0:0:0:0:
64,192,23427,1,0,0:0:0:0:
320,192,23511,1,0,0:0:0:0:
64,192,23594,1,0,0:0:0:0:
192,192,23761,1,0,0:0:0:0:
448,192,23761,1,0,0:0:0:0:
320,192,23927,1,0,0:0:0:0:
64,192,24011,1,0,0:0:0:0:
320,192,24094,1,0,0:0:0:0:
64,192,24177,1,0,0:0:0:0:
320,192,24261,1,0,0:0:0:0:
448,192,24261,1,0,0:0:0:0:
448,192,24427,1,0,0:0:0:0:
192,192,24594,1,0,0:0:0:0:
64,192,24594,1,0,0:0:0:0:
448,192,24761,1,0,0:0:0:0:
320,192,24844,1,0,0:0:0:0:
192,192,24927,1,0,0:0:0:0:
64,192,24927,1,0,0:0:0:0:
448,192,25094,1,0,0:0:0:0:
192,192,25094,1,0,0:0:0:0:
320,192,25261,1,0,0:0:0:0:
64,192,25344,1,0,0:0:0:0:
320,192,25427,1,0,0:0:0:0:
64,192,25511,1,0,0:0:0:0:
320,192,25594,1,0,0:0:0:0:
448,192,25594,1,0,0:0:0:0:
192,192,25677,1,0,0:0:0:0:
64,192,25761,1,0,0:0:0:0:
448,192,25761,1,0,0:0:0:0:
192,192,25927,1,0,0:0:0:0:
448,192,26094,1,0,0:0:0:0:
64,192,26094,1,0,0:0:0:0:
192,192,26177,1,0,0:0:0:0:
448,192,26261,1,0,0:0:0:0:
64,192,26427,1,0,0:0:0:0:
320,192,26427,1,0,0:0:0:0:
192,192,26594,1,0,0:0:0:0:
448,192,26677,1,0,0:0:0:0:
192,192,26761,1,0,0:0:0:0:
448,192,26844,1,0,0:0:0:0:
192,192,26927,1,0,0:0:0:0:
64,192,26927,1,0,0:0:0:0:
64,192,27094,1,0,0:0:0:0:
320,192,27261,1,0,0:0:0:0:
448,192,27261,1,0,0:0:0:0:
64,192,27427,1,0,0:0:0:0:
192,192,27511,1,0,0:0:0:0:
320,192,27594,1,0,0:0:0:0:
448,192,27594,1,0,0:0:0:0:
64,192,27761,1,0,0:0:0:0:
320,192,27761,1,0,0:0:0:0:
192,192,27927,1,0,0:0:0:0:
448,192,28011,1,0,0:0:0:0:
192,192,28094,1,0,0:0:0:0:
448,192,28177,1,0,0:0:0:0:
192,192,28261,1,0,0:0:0:0:
320,192,28261,1,0,0:0:0:0:
64,192,28344,1,0,0:0:0:0:
448,192,28427,1,0,0:0:0:0:
320,192,28427,1,0,0:0:0:0:
320,192,28594,1,0,0:0:0:0:
64,192,28761,1,0,0:0:0:0:
448,192,28761,1,0,0:0:0:0:
320,192,28844,1,0,0:0:0:0:
64,192,28927,1,0,0:0:0:0:
192,192,29094,1,0,0:0:0:0:
448,192,29094,1,0,0:0:0:0:
320,192,29261,1,0,0:0:0:0:
64,192,29344,1,0,0:0:0:0:
320,192,29427,1,0,0:0:0:0:
64,192,29511,1,0,0:0:0:0:
448,192,29594,1,0,0:0:0:0:
320,192,29594,1,0,0:0:0:0:
448,192,29761,1,0,0:0:0:0:
192,192,29927,1,0,0:0:0:0:
64,192,29927,1,0,0:0:0:0:
448,192,30094,1,0,0:0:0:0:
320,192,30177,1,0,0:0:0:0:
192,192,30261,1,0,0:0:0:0:
64,192,30261,1,0,0:0:0:0:
64,192,30427,1,0,0:0:0:0:
320,192,30427,1,0,0:0:0:0:
192,192,30594,1,0,0:0:0:0:
448,192,30677,1,0,0:0:0:0:
192,192,30761,1,0,0:0:0:0:
448,192,30844,1,0,0:0:0:0:
64,192,30927,1,0,0:0:0:0:
192,192,30927,1,0,0:0:0:0:
320,192,31011,1,0,0:0:0:0:
64,192,31094,1,0,0:0:0:0:
448,192,31094,1,0,0:0:0:0:
320,192,31261,1,0,0:0:0:0:
192,192,31427,1,0,0:0:0:0:
64,192,31427,1,0,0:0:0:0:
320,192,31511,1,0,0:0:0:0:
448,192,31594,1,0,0:0:0:0:
192,192,31677,1,0,0:0:0:0:
64,192,31761,1,0,0:0:0:0:
448,192,31761,1,0,0:0:0:0:
320,192,31844,1,0,0:0:0:0:
64,192,31927,1,0,0:0:0:0:
192,192,32011,1,0,0:0:0:0:
320,192,32094,1,0,0:0:0:0:
64,192,32177,1,0,0:0:0:0:
192,192,32261,1,0,0:0:0:0:
448,192,32261,1,0,0:0:0:0:
320,192,32344,1,0,0:0:0:0:
64,192,32427,1,0,0:0:0:0:
192,192,32427,1,0,0:0:0:0:
64,192,32594,5,0,0:0:0:0:
192,192,32594,1,0,0:0:0:0:
320,192,32927,1,0,0:0:0:0:
192,192,32927,1,0,0:0:0:0:
320,192,33094,1,0,0:0:0:0:
192,192,33094,128,0,33677:0:0:0:0:
448,192,33427,1,0,0:0:0:0:
320,192,33427,1,0,0:0:0:0:
64,192,33761,128,0,33927:0:0:0:0:
192,192,33761,1,0,0:0:0:0:
448,192,33927,1,0,0:0:0:0:
64,192,34094,128,0,34261:0:0:0:0:
448,192,34261,1,0,0:0:0:0:
64,192,34427,128,0,34594:0:0:0:0:
448,192,34594,1,0,0:0:0:0:
64,192,34761,128,0,34927:0:0:0:0:
448,192,34927,1,0,0:0:0:0:
192,192,35094,128,0,35261:0:0:0:0:
320,192,35261,1,0,0:0:0:0:
192,192,35427,128,0,35594:0:0:0:0:
320,192,35594,1,0,0:0:0:0:
192,192,35761,128,0,35927:0:0:0:0:
320,192,35927,1,0,0:0:0:0:
192,192,36094,128,0,36261:0:0:0:0:
64,192,36261,128,0,36427:0:0:0:0:
320,192,36427,128,0,36594:0:0:0:0:
192,192,36594,1,0,0:0:0:0:
320,192,36761,128,0,36927:0:0:0:0:
192,192,36927,1,0,0:0:0:0:
320,192,37094,128,0,37261:0:0:0:0:
192,192,37261,1,0,0:0:0:0:
320,192,37427,128,0,37594:0:0:0:0:
192,192,37594,1,0,0:0:0:0:
64,192,37761,128,0,37844:0:0:0:0:
192,192,37844,128,0,37927:0:0:0:0:
320,192,37927,128,0,38011:0:0:0:0:
448,192,38011,128,0,38094:0:0:0:0:
192,192,38094,128,0,38177:0:0:0:0:
320,192,38177,128,0,38261:0:0:0:0:
64,192,38261,128,0,38344:0:0:0:0:
192,192,38344,128,0,38427:0:0:0:0:
320,192,38427,128,0,38511:0:0:0:0:
448,192,38511,128,0,38594:0:0:0:0:
192,192,38594,128,0,38677:0:0:0:0:
320,192,38677,128,0,38761:0:0:0:0:
448,192,38761,128,0,38927:0:0:0:0:
192,192,38927,128,0,39094:0:0:0:0:
320,192,39094,128,0,39261:0:0:0:0:
64,192,39261,1,0,0:0:0:0:
320,192,39427,128,0,39594:0:0:0:0:
64,192,39594,1,0,0:0:0:0:
320,192,39761,128,0,39927:0:0:0:0:
64,192,39927,1,0,0:0:0:0:
192,192,40094,128,0,40261:0:0:0:0:
320,192,40261,128,0,40427:0:0:0:0:
448,192,40427,128,0,40594:0:0:0:0:
192,192,40594,1,0,0:0:0:0:
448,192,40761,128,0,40927:0:0:0:0:
192,192,40927,1,0,0:0:0:0:
448,192,41094,128,0,41261:0:0:0:0:
192,192,41261,1,0,0:0:0:0:
448,192,41427,128,0,41594:0:0:0:0:
320,192,41594,128,0,41761:0:0:0:0:
64,192,41761,128,0,41927:0:0:0:0:
320,192,41927,1,0,0:0:0:0:
64,192,42094,128,0,42261:0:0:0:0:
320,192,42261,1,0,0:0:0:0:
64,192,42427,128,0,42594:0:0:0:0:
320,192,42594,1,0,0:0:0:0:
64,192,42761,128,0,42927:0:0:0:0:
320,192,42927,1,0,0:0:0:0:
64,192,43094,128,0,43261:0:0:0:0:
320,192,43261,1,0,0:0:0:0:
64,192,43427,128,0,43594:0:0:0:0:
320,192,43594,1,0,0:0:0:0:
448,192,43761,128,0,43927:0:0:0:0:
320,192,43927,128,0,44094:0:0:0:0:
192,192,44094,128,0,44261:0:0:0:0:
64,192,44261,128,0,44427:0:0:0:0:
448,192,44427,128,0,44594:0:0:0:0:
64,192,44594,1,0,0:0:0:0:
448,192,44761,128,0,44927:0:0:0:0:
64,192,44927,1,0,0:0:0:0:
448,192,45094,128,0,45261:0:0:0:0:
64,192,45261,1,0,0:0:0:0:
448,192,45427,128,0,45594:0:0:0:0:
64,192,45594,1,0,0:0:0:0:
320,192,45761,128,0,45927:0:0:0:0:
192,192,45927,1,0,0:0:0:0:
320,192,46094,128,0,46261:0:0:0:0:
192,192,46261,1,0,0:0:0:0:
320,192,46427,128,0,46594:0:0:0:0:
192,192,46594,1,0,0:0:0:0:
320,192,46761,128,0,46927:0:0:0:0:
448,192,46927,128,0,47094:0:0:0:0:
192,192,47094,128,0,47261:0:0:0:0:
320,192,47261,1,0,0:0:0:0:
192,192,47427,128,0,47594:0:0:0:0:
320,192,47594,1,0,0:0:0:0:
192,192,47761,128,0,47927:0:0:0:0:
320,192,47927,1,0,0:0:0:0:
192,192,48094,128,0,48261:0:0:0:0:
320,192,48261,1,0,0:0:0:0:
448,192,48427,128,0,48511:0:0:0:0:
320,192,48511,128,0,48594:0:0:0:0:
192,192,48594,128,0,48677:0:0:0:0:
64,192,48677,128,0,48761:0:0:0:0:
320,192,48761,128,0,48844:0:0:0:0:
192,192,48844,128,0,48927:0:0:0:0:
448,192,48927,128,0,49011:0:0:0:0:
320,192,49011,128,0,49094:0:0:0:0:
192,192,49094,128,0,49177:0:0:0:0:
64,192,49177,128,0,49261:0:0:0:0:
320,192,49261,128,0,49344:0:0:0:0:
192,192,49344,128,0,49427:0:0:0:0:
64,192,49427,128,0,49594:0:0:0:0:
320,192,49594,128,0,49761:0:0:0:0:
192,192,49761,128,0,49927:0:0:0:0:
448,192,49927,1,0,0:0:0:0:
192,192,50094,128,0,50261:0:0:0:0:
448,192,50261,1,0,0:0:0:0:
192,192,50427,128,0,50594:0:0:0:0:
448,192,50594,5,0,0:0:0:0:
64,192,50761,128,0,50927:0:0:0:0:
448,192,50927,128,0,51094:0:0:0:0:
320,192,51094,128,0,51261:0:0:0:0:
64,192,51261,1,0,0:0:0:0:
320,192,51427,128,0,51594:0:0:0:0:
64,192,51594,1,0,0:0:0:0:
320,192,51761,128,0,51927:0:0:0:0:
64,192,51927,128,0,52094:0:0:0:0:
192,192,52094,128,0,52261:0:0:0:0:
320,192,52261,128,0,52427:0:0:0:0:
448,192,52427,128,0,52594:0:0:0:0:
64,192,52427,1,0,0:0:0:0:
192,192,52511,1,0,0:0:0:0:
64,192,52594,1,0,0:0:0:0:
192,192,52677,1,0,0:0:0:0:
448,192,52761,128,0,52927:0:0:0:0:
64,192,52761,1,0,0:0:0:0:
192,192,52844,1,0,0:0:0:0:
64,192,52927,1,0,0:0:0:0:
192,192,53011,1,0,0:0:0:0:
448,192,53094,1,0,0:0:0:0:
64,192,53094,128,0,53261:0:0:0:0:
320,192,53177,1,0,0:0:0:0:
448,192,53261,1,0,0:0:0:0:
320,192,53344,1,0,0:0:0:0:
448,192,53427,1,0,0:0:0:0:
64,192,53427,128,0,53594:0:0:0:0:
320,192,53511,1,0,0:0:0:0:
448,192,53594,1,0,0:0:0:0:
320,192,53677,1,0,0:0:0:0:
192,192,53761,1,0,0:0:0:0:
64,192,53761,128,0,53927:0:0:0:0:
320,192,53844,1,0,0:0:0:0:
448,192,53927,1,0,0:0:0:0:
192,192,54011,1,0,0:0:0:0:
448,192,54094,128,0,54261:0:0:0:0:
320,192,54150,1,0,0:0:0:0:
192,192,54205,1,0,0:0:0:0:
64,192,54261,1,0,0:0:0:0:
320,192,54344,1,0,0:0:0:0:
64,192,54427,1,0,0:0:0:0:
448,192,54427,1,0,0:0:0:0:
192,192,54594,1,0,0:0:0:0:
320,192,54677,1,0,0:0:0:0:
448,192,54677,1,0,0:0:0:0:
192,192,54761,1,0,0:0:0:0:
64,192,54761,1,0,0:0:0:0:
320,192,54927,1,0,0:0:0:0:
192,192,55094,1,0,0:0:0:0:
64,192,55094,128,0,56344:0:0:0:0:
448,192,55094,128,0,55594:0:0:0:0:
320,192,55594,128,0,55761:0:0:0:0:
192,192,56094,128,0,56261:0:0:0:0:
320,192,56261,1,0,0:0:0:0:
448,192,56261,128,0,56427:0:0:0:0:
64,192,56427,128,0,56511:0:0:0:0:
192,192,56427,128,0,56511:0:0:0:0:
320,192,56594,128,0,56761:0:0:0:0:
448,192,56761,1,0,0:0:0:0:
64,192,56761,1,0,0:0:0:0:
192,192,56927,128,0,57094:0:0:0:0:
320,192,57094,128,0,57344:0:0:0:0:
448,192,57261,1,0,0:0:0:0:
64,192,57261,128,0,57344:0:0:0:0:
192,192,57427,128,0,57677:0:0:0:0:
320,192,57594,128,0,57677:0:0:0:0:
320,192,57761,1,0,0:0:0:0:
448,192,57761,128,0,58927:0:0:0:0:
64,192,57761,128,0,58261:0:0:0:0:
192,192,58261,128,0,58427:0:0:0:0:
320,192,58761,128,0,58927:0:0:0:0:
64,192,58927,128,0,59011:0:0:0:0:
448,192,59011,1,0,0:0:0:0:
320,192,59011,1,0,0:0:0:0:
64,192,59094,1,0,0:0:0:0:
192,192,59094,1,0,0:0:0:0:
192,192,59344,1,0,0:0:0:0:
64,192,59344,1,0,0:0:0:0:
320,192,59427,1,0,0:0:0:0:
448,192,59427,1,0,0:0:0:0:
448,192,59594,1,0,0:0:0:0:
192,192,59677,1,0,0:0:0:0:
64,192,59677,1,0,0:0:0:0:
320,192,59761,1,0,0:0:0:0:
448,192,59761,1,0,0:0:0:0:
192,192,59844,1,0,0:0:0:0:
64,192,59844,1,0,0:0:0:0:
320,192,59927,1,0,0:0:0:0:
448,192,59927,1,0,0:0:0:0:
64,192,60011,1,0,0:0:0:0:
192,192,60094,1,0,0:0:0:0:
320,192,60094,1,0,0:0:0:0:
448,192,60177,1,0,0:0:0:0:
192,192,60261,1,0,0:0:0:0:
64,192,60261,1,0,0:0:0:0:
448,192,60344,1,0,0:0:0:0:
192,192,60427,1,0,0:0:0:0:
64,192,60427,128,0,61677:0:0:0:0:
320,192,60427,128,0,60927:0:0:0:0:
192,192,60761,1,0,0:0:0:0:
448,192,60927,128,0,61094:0:0:0:0:
192,192,61094,1,0,0:0:0:0:
192,192,61427,128,0,61594:0:0:0:0:
448,192,61594,128,0,61761:0:0:0:0:
192,192,61761,1,0,0:0:0:0:
64,192,61761,128,0,62094:0:0:0:0:
320,192,62011,128,0,62094:0:0:0:0:
192,192,62094,1,0,0:0:0:0:
448,192,62094,128,0,62427:0:0:0:0:
320,192,62261,128,0,62427:0:0:0:0:
192,192,62427,1,0,0:0:0:0:
64,192,62427,128,0,62761:0:0:0:0:
320,192,62677,128,0,62761:0:0:0:0:
192,192,62761,1,0,0:0:0:0:
448,192,62761,128,0,63011:0:0:0:0:
64,192,62927,128,0,63094:0:0:0:0:
320,192,63094,5,0,0:0:0:0:
448,192,63094,1,0,0:0:0:0:
192,192,63177,1,0,0:0:0:0:
64,192,63261,1,0,0:0:0:0:
320,192,63261,1,0,0:0:0:0:
448,192,63344,1,0,0:0:0:0:
192,192,63427,1,0,0:0:0:0:
64,192,63427,1,0,0:0:0:0:
448,192,63511,1,0,0:0:0:0:
320,192,63594,1,0,0:0:0:0:
192,192,63594,1,0,0:0:0:0:
64,192,63677,1,0,0:0:0:0:
320,192,63761,1,0,0:0:0:0:
448,192,63761,1,0,0:0:0:0:
192,192,63844,1,0,0:0:0:0:
64,192,63844,1,0,0:0:0:0:
320,192,63927,1,0,0:0:0:0:
448,192,63927,1,0,0:0:0:0:
192,192,64011,1,0,0:0:0:0:
64,192,64011,1,0,0:0:0:0:
448,192,64094,1,0,0:0:0:0:
320,192,64094,128,0,64261:0:0:0:0:
64,192,64177,1,0,0:0:0:0:
448,192,64261,128,0,64427:0:0:0:0:
320,192,64344,1,0,0:0:0:0:
192,192,64427,128,0,64511:0:0:0:0:
64,192,64427,128,0,64511:0:0:0:0:
320,192,64761,1,0,0:0:0:0:
192,192,64761,1,0,0:0:0:0:
320,192,65094,128,0,65261:0:0:0:0:
64,192,65094,128,0,65427:0:0:0:0:
192,192,65261,128,0,65427:0:0:0:0:
320,192,65427,128,0,65594:0:0:0:0:
448,192,65427,128,0,65677:0:0:0:0:
192,192,65594,128,0,65761:0:0:0:0:
320,192,65761,1,0,0:0:0:0:
448,192,65761,1,0,0:0:0:0:
64,192,65761,128,0,65927:0:0:0:0:
192,192,65927,128,0,66344:0:0:0:0:
64,192,66094,128,0,66344:0:0:0:0:
320,192,66094,128,0,66344:0:0:0:0:
448,192,66261,128,0,66427:0:0:0:0:
64,192,66427,128,0,66594:0:0:0:0:
192,192,66427,1,0,0:0:0:0:
320,192,66427,1,0,0:0:0:0:
192,192,66594,128,0,67011:0:0:0:0:
64,192,66761,128,0,67011:0:0:0:0:
320,192,66761,128,0,67094:0:0:0:0:
448,192,66927,128,0,67094:0:0:0:0:
64,192,67094,1,0,0:0:0:0:
192,192,67094,128,0,67261:0:0:0:0:
320,192,67261,128,0,67677:0:0:0:0:
192,192,67427,128,0,67677:0:0:0:0:
448,192,67427,128,0,67677:0:0:0:0:
64,192,67594,128,0,67761:0:0:0:0:
192,192,67761,128,0,67927:0:0:0:0:
320,192,67761,1,0,0:0:0:0:
448,192,67761,1,0,0:0:0:0:
320,192,67927,128,0,68427:0:0:0:0:
192,192,68094,128,0,68344:0:0:0:0:
448,192,68094,128,0,68344:0:0:0:0:
64,192,68261,128,0,68427:0:0:0:0:
192,192,68427,1,0,0:0:0:0:
448,192,68427,128,0,68594:0:0:0:0:
64,192,68594,128,0,69011:0:0:0:0:
448,192,68761,128,0,69011:0:0:0:0:
320,192,68761,128,0,69011:0:0:0:0:
192,192,68927,128,0,69094:0:0:0:0:
448,192,69094,128,0,69261:0:0:0:0:
64,192,69094,1,0,0:0:0:0:
320,192,69094,1,0,0:0:0:0:
64,192,69261,128,0,69677:0:0:0:0:
448,192,69427,128,0,69594:0:0:0:0:
320,192,69427,128,0,69761:0:0:0:0:
192,192,69594,128,0,69761:0:0:0:0:
64,192,69761,128,0,69844:0:0:0:0:
448,192,69761,128,0,69844:0:0:0:0:
320,192,69844,128,0,69927:0:0:0:0:
192,192,69927,128,0,70011:0:0:0:0:
448,192,70011,128,0,70094:0:0:0:0:
320,192,70094,128,0,70177:0:0:0:0:
64,192,70177,128,0,70261:0:0:0:0:
448,192,70261,128,0,70344:0:0:0:0:
192,192,70344,128,0,70427:0:0:0:0:
64,192,70427,128,0,70511:0:0:0:0:
448,192,70511,128,0,70594:0:0:0:0:
320,192,70594,128,0,70677:0:0:0:0:
192,192,70677,128,0,70761:0:0:0:0:
64,192,70761,128,0,71011:0:0:0:0:
448,192,70761,128,0,71094:0:0:0:0:
320,192,70927,128,0,71094:0:0:0:0:
64,192,71094,1,0,0:0:0:0:
192,192,71094,128,0,71261:0:0:0:0:
320,192,71261,128,0,71677:0:0:0:0:
192,192,71427,128,0,71677:0:0:0:0:
64,192,71427,128,0,71677:0:0:0:0:
448,192,71594,128,0,71761:0:0:0:0:
192,192,71761,128,0,71927:0:0:0:0:
320,192,71761,1,0,0:0:0:0:
64,192,71761,1,0,0:0:0:0:
320,192,71927,128,0,72344:0:0:0:0:
64,192,72094,128,0,72344:0:0:0:0:
192,192,72094,128,0,72427:0:0:0:0:
448,192,72261,128,0,72427:0:0:0:0:
320,192,72427,128,0,72594:0:0:0:0:
64,192,72427,1,0,0:0:0:0:
192,192,72594,128,0,73011:0:0:0:0:
320,192,72761,128,0,73011:0:0:0:0:
448,192,72761,128,0,73011:0:0:0:0:
64,192,72927,128,0,73094:0:0:0:0:
320,192,73094,128,0,73261:0:0:0:0:
192,192,73094,1,0,0:0:0:0:
448,192,73094,1,0,0:0:0:0:
192,192,73261,128,0,73761:0:0:0:0:
320,192,73427,128,0,73677:0:0:0:0:
448,192,73427,128,0,73677:0:0:0:0:
64,192,73594,128,0,73761:0:0:0:0:
448,192,73761,128,0,73927:0:0:0:0:
320,192,73761,1,0,0:0:0:0:
192,192,73927,128,0,74344:0:0:0:0:
448,192,74094,128,0,74344:0:0:0:0:
64,192,74094,128,0,74344:0:0:0:0:
320,192,74261,128,0,74427:0:0:0:0:
448,192,74427,128,0,74594:0:0:0:0:
192,192,74427,1,0,0:0:0:0:
64,192,74427,1,0,0:0:0:0:
192,192,74594,128,0,75011:0:0:0:0:
448,192,74761,128,0,75011:0:0:0:0:
64,192,74761,128,0,75094:0:0:0:0:
320,192,74927,128,0,75094:0:0:0:0:
448,192,75094,128,0,75261:0:0:0:0:
192,192,75094,1,0,0:0:0:0:
192,192,75261,128,0,75677:0:0:0:0:
448,192,75427,128,0,75677:0:0:0:0:
64,192,75427,128,0,75677:0:0:0:0:
320,192,75594,128,0,75761:0:0:0:0:
448,192,75761,128,0,75927:0:0:0:0:
192,192,75761,1,0,0:0:0:0:
64,192,75761,1,0,0:0:0:0:
320,192,75927,128,0,76011:0:0:0:0:
192,192,76011,1,0,0:0:0:0:
64,192,76011,1,0,0:0:0:0:
320,192,76094,1,0,0:0:0:0:
448,192,76094,128,0,76261:0:0:0:0:
64,192,76261,128,0,76427:0:0:0:0:
192,192,76261,1,0,0:0:0:0:
448,192,76427,1,0,0:0:0:0:
320,192,76427,128,0,76594:0:0:0:0:
192,192,76594,128,0,77011:0:0:0:0:
320,192,76761,128,0,77011:0:0:0:0:
64,192,76761,128,0,77011:0:0:0:0:
448,192,76927,128,0,77094:0:0:0:0:
320,192,77094,128,0,77261:0:0:0:0:
64,192,77094,1,0,0:0:0:0:
192,192,77094,1,0,0:0:0:0:
192,192,77261,128,0,77677:0:0:0:0:
320,192,77427,128,0,77677:0:0:0:0:
64,192,77427,128,0,77761:0:0:0:0:
448,192,77594,128,0,77761:0:0:0:0:
192,192,77761,128,0,77927:0:0:0:0:
320,192,77761,1,0,0:0:0:0:
320,192,77927,128,0,78344:0:0:0:0:
192,192,78094,128,0,78344:0:0:0:0:
64,192,78094,128,0,78344:0:0:0:0:
448,192,78261,128,0,78427:0:0:0:0:
192,192,78427,128,0,78594:0:0:0:0:
320,192,78427,1,0,0:0:0:0:
64,192,78427,1,0,0:0:0:0:
320,192,78594,128,0,79094:0:0:0:0:
192,192,78761,128,0,79011:0:0:0:0:
64,192,78761,128,0,79011:0:0:0:0:
448,192,78927,128,0,79094:0:0:0:0:
64,192,79094,128,0,79261:0:0:0:0:
192,192,79094,1,0,0:0:0:0:
448,192,79261,128,0,79677:0:0:0:0:
64,192,79427,128,0,79677:0:0:0:0:
320,192,79427,128,0,79677:0:0:0:0:
192,192,79594,128,0,79761:0:0:0:0:
64,192,79761,128,0,79927:0:0:0:0:
320,192,79761,1,0,0:0:0:0:
448,192,79761,1,0,0:0:0:0:
448,192,79927,128,0,80344:0:0:0:0:
64,192,80094,128,0,80344:0:0:0:0:
320,192,80094,128,0,80344:0:0:0:0:
192,192,80261,128,0,80427:0:0:0:0:
448,192,80427,128,0,80511:0:0:0:0:
64,192,80427,128,0,80511:0:0:0:0:
192,192,80511,128,0,80594:0:0:0:0:
320,192,80594,128,0,80677:0:0:0:0:
64,192,80677,128,0,80761:0:0:0:0:
192,192,80761,128,0,80844:0:0:0:0:
448,192,80844,128,0,80927:0:0:0:0:
64,192,80927,128,0,81011:0:0:0:0:
320,192,81011,128,0,81094:0:0:0:0:
448,192,81094,128,0,81177:0:0:0:0:
64,192,81177,128,0,81261:0:0:0:0:
192,192,81261,128,0,81344:0:0:0:0:
320,192,81344,128,0,81427:0:0:0:0:
64,192,81427,128,0,81761:0:0:0:0:
448,192,81427,128,0,81677:0:0:0:0:
192,192,81594,128,0,81761:0:0:0:0:
448,192,81761,1,0,0:0:0:0:
320,192,81761,128,0,81927:0:0:0:0:
64,192,81927,128,0,82344:0:0:0:0:
320,192,82094,128,0,82344:0:0:0:0:
448,192,82094,128,0,82344:0:0:0:0:
192,192,82261,128,0,82427:0:0:0:0:
320,192,82427,128,0,82594:0:0:0:0:
64,192,82427,1,0,0:0:0:0:
448,192,82427,1,0,0:0:0:0:
64,192,82594,128,0,83011:0:0:0:0:
192,192,82761,128,0,83011:0:0:0:0:
320,192,82761,128,0,83094:0:0:0:0:
448,192,82927,128,0,83094:0:0:0:0:
64,192,83094,128,0,83261:0:0:0:0:
192,192,83094,1,0,0:0:0:0:
448,192,83261,128,0,83677:0:0:0:0:
64,192,83427,128,0,83677:0:0:0:0:
192,192,83427,128,0,83677:0:0:0:0:
320,192,83594,128,0,83761:0:0:0:0:
64,192,83761,128,0,83927:0:0:0:0:
192,192,83761,1,0,0:0:0:0:
448,192,83761,1,0,0:0:0:0:
320,192,83927,128,0,84094:0:0:0:0:
448,192,83927,128,0,84344:0:0:0:0:
192,192,84094,128,0,84261:0:0:0:0:
64,192,84261,128,0,84427:0:0:0:0:
320,192,84427,5,0,0:0:0:0:
448,192,84427,1,0,0:0:0:0:
192,192,84511,1,0,0:0:0:0:
320,192,84594,1,0,0:0:0:0:
192,192,84677,1,0,0:0:0:0:
64,192,84761,1,0,0:0:0:0:
320,192,84761,1,0,0:0:0:0:
192,192,84844,1,0,0:0:0:0:
320,192,84927,1,0,0:0:0:0:
192,192,85011,1,0,0:0:0:0:
320,192,85094,1,0,0:0:0:0:
448,192,85094,1,0,0:0:0:0:
64,192,85094,1,0,0:0:0:0:
192,192,85177,1,0,0:0:0:0:
320,192,85261,1,0,0:0:0:0:
192,192,85344,1,0,0:0:0:0:
448,192,85427,1,0,0:0:0:0:
320,192,85427,1,0,0:0:0:0:
192,192,85511,1,0,0:0:0:0:
320,192,85594,1,0,0:0:0:0:
192,192,85677,1,0,0:0:0:0:
320,192,85761,1,0,0:0:0:0:
64,192,85761,1,0,0:0:0:0:
448,192,86427,128,0,86761:0:0:0:0:
192,192,86427,128,0,86594:0:0:0:0:
320,192,86594,128,0,86761:0:0:0:0:
64,192,86761,128,0,87011:0:0:0:0:
192,192,86761,128,0,86927:0:0:0:0:
320,192,86927,128,0,87094:0:0:0:0:
64,192,87094,1,0,0:0:0:0:
448,192,87094,128,0,87261:0:0:0:0:
192,192,87177,1,0,0:0:0:0:
64,192,87261,1,0,0:0:0:0:
192,192,87344,1,0,0:0:0:0:
448,192,87427,128,0,87594:0:0:0:0:
64,192,87511,1,0,0:0:0:0:
192,192,87594,1,0,0:0:0:0:
64,192,87677,1,0,0:0:0:0:
448,192,87761,128,0,87927:0:0:0:0:
320,192,87761,1,0,0:0:0:0:
192,192,87844,1,0,0:0:0:0:
64,192,87927,1,0,0:0:0:0:
192,192,88011,1,0,0:0:0:0:
448,192,88094,128,0,88261:0:0:0:0:
64,192,88177,1,0,0:0:0:0:
192,192,88261,1,0,0:0:0:0:
64,192,88344,1,0,0:0:0:0:
320,192,88427,128,0,88594:0:0:0:0:
192,192,88511,1,0,0:0:0:0:
64,192,88594,1,0,0:0:0:0:
192,192,88677,1,0,0:0:0:0:
320,192,88761,128,0,88927:0:0:0:0:
64,192,88844,1,0,0:0:0:0:
192,192,88927,1,0,0:0:0:0:
64,192,89011,1,0,0:0:0:0:
320,192,89094,128,0,89261:0:0:0:0:
448,192,89094,1,0,0:0:0:0:
192,192,89177,1,0,0:0:0:0:
64,192,89261,1,0,0:0:0:0:
192,192,89344,1,0,0:0:0:0:
64,192,89427,128,0,89594:0:0:0:0:
320,192,89427,128,0,89761:0:0:0:0:
448,192,89594,128,0,89761:0:0:0:0:
64,192,89761,128,0,89927:0:0:0:0:
192,192,89761,1,0,0:0:0:0:
320,192,89844,1,0,0:0:0:0:
448,192,89927,1,0,0:0:0:0:
320,192,90011,1,0,0:0:0:0:
64,192,90094,128,0,90261:0:0:0:0:
448,192,90177,1,0,0:0:0:0:
320,192,90261,1,0,0:0:0:0:
448,192,90344,1,0,0:0:0:0:
64,192,90427,128,0,90594:0:0:0:0:
192,192,90427,1,0,0:0:0:0:
320,192,90511,1,0,0:0:0:0:
448,192,90594,1,0,0:0:0:0:
320,192,90677,1,0,0:0:0:0:
64,192,90761,128,0,90927:0:0:0:0:
448,192,90844,1,0,0:0:0:0:
192,192,90927,1,0,0:0:0:0:
320,192,91011,1,0,0:0:0:0:
64,192,91094,1,0,0:0:0:0:
448,192,91094,128,0,91177:0:0:0:0:
320,192,91177,128,0,91261:0:0:0:0:
192,192,91261,128,0,91344:0:0:0:0:
64,192,91344,128,0,91427:0:0:0:0:
320,192,91427,128,0,91511:0:0:0:0:
192,192,91511,128,0,91594:0:0:0:0:
448,192,91594,128,0,91677:0:0:0:0:
320,192,91677,128,0,91761:0:0:0:0:
192,192,91761,128,0,91844:0:0:0:0:
64,192,91844,128,0,91927:0:0:0:0:
320,192,91927,128,0,92011:0:0:0:0:
192,192,92011,128,0,92094:0:0:0:0:
64,192,92094,128,0,92261:0:0:0:0:
448,192,92094,128,0,92427:0:0:0:0:
192,192,92261,128,0,92427:0:0:0:0:
64,192,92427,1,0,0:0:0:0:
320,192,92427,128,0,92594:0:0:0:0:
192,192,92511,1,0,0:0:0:0:
64,192,92594,1,0,0:0:0:0:
192,192,92677,1,0,0:0:0:0:
320,192,92761,128,0,92927:0:0:0:0:
64,192,92844,1,0,0:0:0:0:
192,192,92927,1,0,0:0:0:0:
64,192,93011,1,0,0:0:0:0:
320,192,93094,128,0,93261:0:0:0:0:
448,192,93094,1,0,0:0:0:0:
192,192,93177,1,0,0:0:0:0:
64,192,93261,1,0,0:0:0:0:
192,192,93344,1,0,0:0:0:0:
448,192,93427,128,0,93594:0:0:0:0:
64,192,93427,128,0,93761:0:0:0:0:
320,192,93594,128,0,93761:0:0:0:0:
192,192,93761,128,0,93927:0:0:0:0:
448,192,93761,1,0,0:0:0:0:
320,192,93844,1,0,0:0:0:0:
448,192,93927,1,0,0:0:0:0:
320,192,94011,1,0,0:0:0:0:
192,192,94094,128,0,94261:0:0:0:0:
448,192,94177,1,0,0:0:0:0:
320,192,94261,1,0,0:0:0:0:
448,192,94344,1,0,0:0:0:0:
192,192,94427,128,0,94594:0:0:0:0:
64,192,94427,1,0,0:0:0:0:
320,192,94511,1,0,0:0:0:0:
448,192,94594,1,0,0:0:0:0:
320,192,94677,1,0,0:0:0:0:
448,192,94761,128,0,95094:0:0:0:0:
64,192,94761,128,0,94927:0:0:0:0:
192,192,94927,128,0,95094:0:0:0:0:
64,192,95094,128,0,95261:0:0:0:0:
320,192,95094,1,0,0:0:0:0:
448,192,95177,1,0,0:0:0:0:
320,192,95261,1,0,0:0:0:0:
448,192,95344,1,0,0:0:0:0:
64,192,95427,128,0,95594:0:0:0:0:
320,192,95511,1,0,0:0:0:0:
448,192,95594,1,0,0:0:0:0:
320,192,95677,1,0,0:0:0:0:
64,192,95761,128,0,95927:0:0:0:0:
192,192,95761,1,0,0:0:0:0:
448,192,95844,1,0,0:0:0:0:
320,192,95927,1,0,0:0:0:0:
448,192,96011,1,0,0:0:0:0:
64,192,96094,128,0,96261:0:0:0:0:
320,192,96177,1,0,0:0:0:0:
448,192,96261,1,0,0:0:0:0:
320,192,96344,1,0,0:0:0:0:
64,192,96427,128,0,96594:0:0:0:0:
192,192,96427,1,0,0:0:0:0:
448,192,96511,1,0,0:0:0:0:
320,192,96594,1,0,0:0:0:0:
448,192,96677,1,0,0:0:0:0:
64,192,96761,128,0,96927:0:0:0:0:
320,192,96844,1,0,0:0:0:0:
448,192,96927,1,0,0:0:0:0:
320,192,97011,1,0,0:0:0:0:
192,192,97094,128,0,97261:0:0:0:0:
64,192,97094,1,0,0:0:0:0:
448,192,97261,1,0,0:0:0:0:
320,192,97316,1,0,0:0:0:0:
192,192,97372,1,0,0:0:0:0:
64,192,97427,128,0,97594:0:0:0:0:
320,192,97594,1,0,0:0:0:0:
448,192,97594,128,0,97761:0:0:0:0:
192,192,97761,1,0,0:0:0:0:
64,192,97761,128,0,97927:0:0:0:0:
320,192,97844,1,0,0:0:0:0:
448,192,97927,1,0,0:0:0:0:
320,192,98011,1,0,0:0:0:0:
64,192,98094,128,0,98261:0:0:0:0:
448,192,98177,1,0,0:0:0:0:
320,192,98261,1,0,0:0:0:0:
448,192,98344,1,0,0:0:0:0:
64,192,98427,128,0,98594:0:0:0:0:
192,192,98427,1,0,0:0:0:0:
320,192,98511,1,0,0:0:0:0:
448,192,98594,1,0,0:0:0:0:
320,192,98677,1,0,0:0:0:0:
64,192,98761,128,0,98927:0:0:0:0:
448,192,98844,1,0,0:0:0:0:
320,192,98927,1,0,0:0:0:0:
448,192,99011,1,0,0:0:0:0:
192,192,99094,128,0,99261:0:0:0:0:
64,192,99094,1,0,0:0:0:0:
320,192,99177,1,0,0:0:0:0:
448,192,99261,1,0,0:0:0:0:
320,192,99344,1,0,0:0:0:0:
192,192,99427,128,0,99594:0:0:0:0:
448,192,99511,1,0,0:0:0:0:
320,192,99594,1,0,0:0:0:0:
448,192,99677,1,0,0:0:0:0:
192,192,99761,128,0,99927:0:0:0:0:
64,192,99761,1,0,0:0:0:0:
320,192,99844,1,0,0:0:0:0:
448,192,99927,1,0,0:0:0:0:
320,192,100011,1,0,0:0:0:0:
64,192,100094,128,0,100427:0:0:0:0:
192,192,100094,128,0,100261:0:0:0:0:
448,192,100261,128,0,100427:0:0:0:0:
320,192,100427,128,0,100594:0:0:0:0:
192,192,100427,1,0,0:0:0:0:
64,192,100511,1,0,0:0:0:0:
192,192,100594,1,0,0:0:0:0:
64,192,100677,1,0,0:0:0:0:
320,192,100761,128,0,100927:0:0:0:0:
192,192,100844,1,0,0:0:0:0:
64,192,100927,1,0,0:0:0:0:
192,192,101011,1,0,0:0:0:0:
320,192,101094,128,0,101261:0:0:0:0:
448,192,101094,1,0,0:0:0:0:
64,192,101177,1,0,0:0:0:0:
192,192,101261,1,0,0:0:0:0:
64,192,101344,1,0,0:0:0:0:
320,192,101427,128,0,101594:0:0:0:0:
192,192,101511,1,0,0:0:0:0:
64,192,101594,1,0,0:0:0:0:
320,192,101677,1,0,0:0:0:0:
448,192,101761,1,0,0:0:0:0:
64,192,101761,128,0,101844:0:0:0:0:
192,192,101844,128,0,101927:0:0:0:0:
320,192,101927,128,0,102011:0:0:0:0:
448,192,102011,128,0,102094:0:0:0:0:
192,192,102094,128,0,102177:0:0:0:0:
320,192,102177,128,0,102261:0:0:0:0:
64,192,102261,128,0,102344:0:0:0:0:
192,192,102344,128,0,102427:0:0:0:0:
320,192,102427,128,0,102511:0:0:0:0:
448,192,102511,128,0,102594:0:0:0:0:
192,192,102594,128,0,102677:0:0:0:0:
320,192,102677,128,0,102761:0:0:0:0:
448,192,102761,128,0,102927:0:0:0:0:
64,192,102761,128,0,103094:0:0:0:0:
192,192,102927,128,0,103094:0:0:0:0:
448,192,103094,128,0,103261:0:0:0:0:
320,192,103094,1,0,0:0:0:0:
192,192,103177,1,0,0:0:0:0:
64,192,103261,1,0,0:0:0:0:
192,192,103344,1,0,0:0:0:0:
448,192,103427,128,0,103594:0:0:0:0:
64,192,103511,1,0,0:0:0:0:
192,192,103594,1,0,0:0:0:0:
64,192,103677,1,0,0:0:0:0:
448,192,103761,128,0,103927:0:0:0:0:
320,192,103761,1,0,0:0:0:0:
192,192,103844,1,0,0:0:0:0:
64,192,103927,1,0,0:0:0:0:
64,192,104094,128,0,104261:0:0:0:0:
448,192,104094,128,0,104427:0:0:0:0:
320,192,104261,128,0,104427:0:0:0:0:
192,192,104427,128,0,104594:0:0:0:0:
64,192,104427,1,0,0:0:0:0:
448,192,104594,128,0,105011:0:0:0:0:
192,192,104761,128,0,105011:0:0:0:0:
64,192,104761,128,0,105011:0:0:0:0:
320,192,104927,128,0,105094:0:0:0:0:
192,192,105094,128,0,105261:0:0:0:0:
64,192,105094,1,0,0:0:0:0:
448,192,105094,1,0,0:0:0:0:
448,192,105261,128,0,105427:0:0:0:0:
320,192,105261,128,0,105677:0:0:0:0:
64,192,105427,128,0,105594:0:0:0:0:
192,192,105594,128,0,105761:0:0:0:0:
448,192,105761,1,0,0:0:0:0:
320,192,105761,1,0,0:0:0:0:
64,192,105844,1,0,0:0:0:0:
448,192,105927,1,0,0:0:0:0:
64,192,106011,1,0,0:0:0:0:
448,192,106094,1,0,0:0:0:0:
192,192,106094,1,0,0:0:0:0:
64,192,106177,1,0,0:0:0:0:
448,192,106261,1,0,0:0:0:0:
64,192,106344,1,0,0:0:0:0:
192,192,106427,1,0,0:0:0:0:
320,192,106427,1,0,0:0:0:0:
448,192,106427,1,0,0:0:0:0:
64,192,106511,1,0,0:0:0:0:
448,192,106594,5,0,0:0:0:0:
64,192,106677,1,0,0:0:0:0:
448,192,106761,1,0,0:0:0:0:
320,192,106761,1,0,0:0:0:0:
64,192,106844,1,0,0:0:0:0:
448,192,106927,1,0,0:0:0:0:
64,192,107011,1,0,0:0:0:0:
448,192,107094,1,0,0:0:0:0:
192,192,107094,1,0,0:0:0:0:
64,192,107736,5,0,0:0:0:0:
320,192,107820,1,0,0:0:0:0:
64,192,107904,1,0,0:0:0:0:
320,192,107988,1,0,0:0:0:0:
64,192,108073,1,0,0:0:0:0:
320,192,108157,1,0,0:0:0:0:
64,192,108241,1,0,0:0:0:0:
320,192,108325,1,0,0:0:0:0:
448,192,108410,128,0,108578:0:0:0:0:
192,192,108410,1,0,0:0:0:0:
64,192,108747,1,0,0:0:0:0:
320,192,108915,128,0,109084:0:0:0:0:
192,192,109252,1,0,0:0:0:0:
64,192,109421,128,0,109589:0:0:0:0:
192,192,109589,1,0,0:0:0:0:
448,192,109758,128,0,109926:0:0:0:0:
64,192,110095,1,0,0:0:0:0:
320,192,110263,128,0,110432:0:0:0:0:
192,192,110601,128,0,110685:0:0:0:0:
64,192,110769,128,0,110853:0:0:0:0:
320,192,110938,128,0,111022:0:0:0:0:
448,192,111106,128,0,111275:0:0:0:0:
64,192,111443,1,0,0:0:0:0:
320,192,111612,128,0,111780:0:0:0:0:
192,192,111949,1,0,0:0:0:0:
64,192,112117,128,0,112286:0:0:0:0:
192,192,112286,1,0,0:0:0:0:
448,192,112454,128,0,112623:0:0:0:0:
64,192,112792,1,0,0:0:0:0:
320,192,112960,128,0,113129:0:0:0:0:
192,192,113297,128,0,113381:0:0:0:0:
320,192,113466,128,0,113550:0:0:0:0:
64,192,113634,128,0,113718:0:0:0:0:
448,192,113803,128,0,113971:0:0:0:0:
64,192,114140,1,0,0:0:0:0:
320,192,114308,128,0,114477:0:0:0:0:
192,192,114645,1,0,0:0:0:0:
64,192,114814,128,0,114983:0:0:0:0:
192,192,114983,1,0,0:0:0:0:
448,192,115151,128,0,115320:0:0:0:0:
64,192,115488,1,0,0:0:0:0:
320,192,115657,128,0,115825:0:0:0:0:
192,192,115825,128,0,115910:0:0:0:0:
64,192,115994,128,0,116078:0:0:0:0:
448,192,116162,128,0,116247:0:0:0:0:
192,192,116331,128,0,116415:0:0:0:0:
448,192,116499,128,0,116668:0:0:0:0:
64,192,116836,1,0,0:0:0:0:
320,192,117005,128,0,117174:0:0:0:0:
192,192,117342,1,0,0:0:0:0:
64,192,117511,128,0,117679:0:0:0:0:
192,192,117679,1,0,0:0:0:0:
448,192,117848,128,0,118016:0:0:0:0:
320,192,118016,128,0,118185:0:0:0:0:
64,192,118185,128,0,118269:0:0:0:0:
192,192,118269,128,0,118353:0:0:0:0:
320,192,118353,128,0,118522:0:0:0:0:
64,192,118690,128,0,118775:0:0:0:0:
448,192,118859,128,0,118943:0:0:0:0:
192,192,119027,128,0,119112:0:0:0:0:
320,192,119196,128,0,119280:0:0:0:0:
64,192,119196,1,0,0:0:0:0:
64,192,119533,1,0,0:0:0:0:
448,192,119870,1,0,0:0:0:0:
320,192,119870,1,0,0:0:0:0:
192,192,120207,1,0,0:0:0:0:
448,192,120376,1,0,0:0:0:0:
192,192,120544,1,0,0:0:0:0:
448,192,120713,1,0,0:0:0:0:
320,192,120881,1,0,0:0:0:0:
64,192,120881,1,0,0:0:0:0:
64,192,121050,1,0,0:0:0:0:
448,192,121218,1,0,0:0:0:0:
320,192,121218,1,0,0:0:0:0:
64,192,121387,128,0,121471:0:0:0:0:
448,192,121556,128,0,121640:0:0:0:0:
192,192,121724,128,0,121808:0:0:0:0:
320,192,121893,128,0,121977:0:0:0:0:
64,192,121893,1,0,0:0:0:0:
64,192,122230,1,0,0:0:0:0:
448,192,122567,1,0,0:0:0:0:
320,192,122567,1,0,0:0:0:0:
192,192,122904,1,0,0:0:0:0:
448,192,123072,1,0,0:0:0:0:
192,192,123241,1,0,0:0:0:0:
448,192,123409,1,0,0:0:0:0:
320,192,123578,1,0,0:0:0:0:
64,192,123578,1,0,0:0:0:0:
64,192,123747,1,0,0:0:0:0:
448,192,123915,1,0,0:0:0:0:
320,192,123915,1,0,0:0:0:0:
192,192,124084,128,0,124168:0:0:0:0:
448,192,124252,128,0,124336:0:0:0:0:
64,192,124421,128,0,124505:0:0:0:0:
320,192,124589,128,0,124674:0:0:0:0:
192,192,124589,1,0,0:0:0:0:
192,192,124926,1,0,0:0:0:0:
448,192,125263,1,0,0:0:0:0:
320,192,125263,1,0,0:0:0:0:
64,192,125601,1,0,0:0:0:0:
448,192,125769,1,0,0:0:0:0:
64,192,125938,1,0,0:0:0:0:
448,192,126106,1,0,0:0:0:0:
448,192,126275,1,0,0:0:0:0:
320,192,126275,1,0,0:0:0:0:
448,192,126612,1,0,0:0:0:0:
320,192,126612,1,0,0:0:0:0:
448,192,127117,1,0,0:0:0:0:
320,192,127117,1,0,0:0:0:0:
64,192,127202,1,0,0:0:0:0:
320,192,127286,1,0,0:0:0:0:
192,192,127286,1,0,0:0:0:0:
448,192,127454,1,0,0:0:0:0:
320,192,127454,1,0,0:0:0:0:
192,192,127792,1,0,0:0:0:0:
448,192,127960,1,0,0:0:0:0:
320,192,127960,1,0,0:0:0:0:
64,192,128297,1,0,0:0:0:0:
448,192,128466,1,0,0:0:0:0:
320,192,128634,1,0,0:0:0:0:
192,192,128634,128,0,128718:0:0:0:0:
192,192,128803,1,0,0:0:0:0:
448,192,128971,128,0,129056:0:0:0:0:
320,192,128971,1,0,0:0:0:0:
192,192,129056,1,0,0:0:0:0:
64,192,129140,1,0,0:0:0:0:
448,192,129308,1,0,0:0:0:0:
320,192,129308,128,0,129393:0:0:0:0:
64,192,129393,1,0,0:0:0:0:
192,192,129477,1,0,0:0:0:0:
320,192,129561,1,0,0:0:0:0:
64,192,129645,128,0,129730:0:0:0:0:
448,192,129730,1,0,0:0:0:0:
320,192,129814,1,0,0:0:0:0:
64,192,129898,1,0,0:0:0:0:
448,192,129983,1,0,0:0:0:0:
192,192,129983,128,0,130067:0:0:0:0:
448,192,130320,1,0,0:0:0:0:
192,192,130657,1,0,0:0:0:0:
64,192,130657,1,0,0:0:0:0:
320,192,130994,1,0,0:0:0:0:
64,192,131162,1,0,0:0:0:0:
320,192,131331,1,0,0:0:0:0:
192,192,131499,1,0,0:0:0:0:
192,192,131668,1,0,0:0:0:0:
64,192,131668,1,0,0:0:0:0:
448,192,131836,1,0,0:0:0:0:
192,192,132005,1,0,0:0:0:0:
64,192,132005,1,0,0:0:0:0:
320,192,132174,128,0,132258:0:0:0:0:
448,192,132342,1,0,0:0:0:0:
64,192,132342,128,0,132426:0:0:0:0:
448,192,132511,128,0,132595:0:0:0:0:
448,192,132679,1,0,0:0:0:0:
192,192,132679,128,0,132763:0:0:0:0:
448,192,133016,1,0,0:0:0:0:
192,192,133353,1,0,0:0:0:0:
64,192,133353,1,0,0:0:0:0:
320,192,133690,1,0,0:0:0:0:
64,192,133859,1,0,0:0:0:0:
320,192,134027,1,0,0:0:0:0:
64,192,134196,1,0,0:0:0:0:
448,192,134365,1,0,0:0:0:0:
192,192,134365,1,0,0:0:0:0:
448,192,134533,1,0,0:0:0:0:
192,192,134702,1,0,0:0:0:0:
64,192,134702,1,0,0:0:0:0:
448,192,134870,128,0,134954:0:0:0:0:
448,192,135039,1,0,0:0:0:0:
192,192,135039,128,0,135123:0:0:0:0:
320,192,135207,128,0,135292:0:0:0:0:
320,192,135376,1,0,0:0:0:0:
192,192,135376,128,0,135460:0:0:0:0:
320,192,135713,1,0,0:0:0:0:
192,192,136050,1,0,0:0:0:0:
64,192,136050,1,0,0:0:0:0:
448,192,136387,1,0,0:0:0:0:
64,192,136556,1,0,0:0:0:0:
448,192,136724,1,0,0:0:0:0:
64,192,136893,1,0,0:0:0:0:
320,192,137061,1,0,0:0:0:0:
192,192,137061,1,0,0:0:0:0:
320,192,137230,1,0,0:0:0:0:
192,192,137398,1,0,0:0:0:0:
64,192,137398,1,0,0:0:0:0:
192,192,137904,1,0,0:0:0:0:
64,192,137904,1,0,0:0:0:0:
448,192,137988,1,0,0:0:0:0:
320,192,138072,1,0,0:0:0:0:
192,192,138072,1,0,0:0:0:0:
320,192,138409,1,0,0:0:0:0:
192,192,138747,1,0,0:0:0:0:
64,192,138747,1,0,0:0:0:0:
448,192,139084,1,0,0:0:0:0:
64,192,139252,1,0,0:0:0:0:
448,192,139421,128,0,139758:0:0:0:0:
64,192,139589,1,0,0:0:0:0:
320,192,139758,1,0,0:0:0:0:
192,192,139758,128,0,139926:0:0:0:0:
320,192,139926,128,0,140095:0:0:0:0:
192,192,140095,1,0,0:0:0:0:
64,192,140095,1,0,0:0:0:0:
448,192,140263,1,0,0:0:0:0:
64,192,140432,128,0,140601:0:0:0:0:
448,192,140601,128,0,140769:0:0:0:0:
320,192,140769,1,0,0:0:0:0:
192,192,140769,1,0,0:0:0:0:
64,192,140769,1,0,0:0:0:0:
192,192,140938,1,0,0:0:0:0:
320,192,141106,1,0,0:0:0:0:
192,192,141275,1,0,0:0:0:0:
64,192,141443,1,0,0:0:0:0:
192,192,141612,1,0,0:0:0:0:
320,192,141780,1,0,0:0:0:0:
64,192,141865,1,0,0:0:0:0:
320,192,141949,1,0,0:0:0:0:
64,192,142033,1,0,0:0:0:0:
192,192,142117,1,0,0:0:0:0:
448,192,142286,1,0,0:0:0:0:
192,192,142454,1,0,0:0:0:0:
448,192,142623,1,0,0:0:0:0:
448,192,142792,1,0,0:0:0:0:
192,192,142960,1,0,0:0:0:0:
448,192,143129,1,0,0:0:0:0:
320,192,143213,1,0,0:0:0:0:
192,192,143297,1,0,0:0:0:0:
64,192,143381,1,0,0:0:0:0:
320,192,143466,1,0,0:0:0:0:
192,192,143634,1,0,0:0:0:0:
448,192,143803,1,0,0:0:0:0:
192,192,143971,1,0,0:0:0:0:
320,192,144140,1,0,0:0:0:0:
448,192,144308,1,0,0:0:0:0:
64,192,144393,1,0,0:0:0:0:
320,192,144477,1,0,0:0:0:0:
192,192,144561,1,0,0:0:0:0:
64,192,144645,1,0,0:0:0:0:
320,192,144730,1,0,0:0:0:0:
448,192,144814,1,0,0:0:0:0:
64,192,144898,1,0,0:0:0:0:
448,192,144983,1,0,0:0:0:0:
320,192,145151,1,0,0:0:0:0:
192,192,145235,1,0,0:0:0:0:
448,192,145320,1,0,0:0:0:0:
64,192,145404,1,0,0:0:0:0:
448,192,145488,1,0,0:0:0:0:
192,192,145657,1,0,0:0:0:0:
320,192,145825,128,0,146162:0:0:0:0:
448,192,145881,128,0,146162:0:0:0:0:
192,192,146162,1,0,0:0:0:0:
64,192,146162,1,0,0:0:0:0:
320,192,146331,1,0,0:0:0:0:
448,192,146499,1,0,0:0:0:0:
192,192,146668,1,0,0:0:0:0:
448,192,146836,1,0,0:0:0:0:
320,192,147005,1,0,0:0:0:0:
448,192,147174,1,0,0:0:0:0:
64,192,147174,1,0,0:0:0:0:
192,192,147258,1,0,0:0:0:0:
320,192,147342,1,0,0:0:0:0:
64,192,147426,1,0,0:0:0:0:
320,192,147511,1,0,0:0:0:0:
64,192,147595,1,0,0:0:0:0:
448,192,147679,1,0,0:0:0:0:
192,192,147848,1,0,0:0:0:0:
448,192,148016,1,0,0:0:0:0:
448,192,148185,1,0,0:0:0:0:
320,192,148185,1,0,0:0:0:0:
192,192,148353,1,0,0:0:0:0:
448,192,148522,1,0,0:0:0:0:
320,192,148522,1,0,0:0:0:0:
192,192,148690,1,0,0:0:0:0:
448,192,148775,1,0,0:0:0:0:
64,192,148859,1,0,0:0:0:0:
192,192,149027,1,0,0:0:0:0:
448,192,149196,1,0,0:0:0:0:
192,192,149365,1,0,0:0:0:0:
448,192,149533,1,0,0:0:0:0:
64,192,149617,1,0,0:0:0:0:
448,192,149702,1,0,0:0:0:0:
64,192,149786,1,0,0:0:0:0:
448,192,149870,1,0,0:0:0:0:
64,192,149954,1,0,0:0:0:0:
448,192,150039,1,0,0:0:0:0:
64,192,150123,1,0,0:0:0:0:
192,192,150207,128,0,150292:0:0:0:0:
448,192,150376,1,0,0:0:0:0:
320,192,150544,128,0,150629:0:0:0:0:
448,192,150713,1,0,0:0:0:0:
192,192,150881,1,0,0:0:0:0:
64,192,150881,128,0,150966:0:0:0:0:
448,192,151218,128,0,151303:0:0:0:0:
320,192,151218,1,0,0:0:0:0:
64,192,151303,1,0,0:0:0:0:
192,192,151387,1,0,0:0:0:0:
64,192,151471,1,0,0:0:0:0:
320,192,151556,128,0,151640:0:0:0:0:
192,192,151556,1,0,0:0:0:0:
448,192,151724,1,0,0:0:0:0:
64,192,151893,1,0,0:0:0:0:
320,192,151977,1,0,0:0:0:0:
64,192,152061,1,0,0:0:0:0:
320,192,152145,1,0,0:0:0:0:
192,192,152230,1,0,0:0:0:0:
64,192,152230,1,0,0:0:0:0:
192,192,152398,1,0,0:0:0:0:
64,192,152483,1,0,0:0:0:0:
448,192,152567,1,0,0:0:0:0:
320,192,152567,1,0,0:0:0:0:
192,192,152651,1,0,0:0:0:0:
448,192,152735,1,0,0:0:0:0:
192,192,152820,1,0,0:0:0:0:
320,192,152904,1,0,0:0:0:0:
64,192,153072,1,0,0:0:0:0:
448,192,153241,1,0,0:0:0:0:
64,192,153409,1,0,0:0:0:0:
320,192,153494,1,0,0:0:0:0:
192,192,153578,1,0,0:0:0:0:
64,192,153578,1,0,0:0:0:0:
448,192,153747,1,0,0:0:0:0:
192,192,153915,1,0,0:0:0:0:
64,192,153915,1,0,0:0:0:0:
320,192,154084,1,0,0:0:0:0:
64,192,154168,1,0,0:0:0:0:
448,192,154252,1,0,0:0:0:0:
192,192,154421,1,0,0:0:0:0:
448,192,154589,1,0,0:0:0:0:
320,192,154589,1,0,0:0:0:0:
192,192,154758,1,0,0:0:0:0:
448,192,154926,1,0,0:0:0:0:
320,192,154926,1,0,0:0:0:0:
64,192,155039,1,0,0:0:0:0:
448,192,155151,1,0,0:0:0:0:
320,192,155151,1,0,0:0:0:0:
448,192,155263,1,0,0:0:0:0:
320,192,155263,1,0,0:0:0:0:
64,192,155376,1,0,0:0:0:0:
192,192,155432,1,0,0:0:0:0:
448,192,155488,1,0,0:0:0:0:
64,192,155544,1,0,0:0:0:0:
320,192,155601,1,0,0:0:0:0:
192,192,155685,1,0,0:0:0:0:
64,192,155769,1,0,0:0:0:0:
192,192,155853,1,0,0:0:0:0:
448,192,155938,1,0,0:0:0:0:
320,192,155938,1,0,0:0:0:0:
64,192,156022,1,0,0:0:0:0:
448,192,156106,1,0,0:0:0:0:
320,192,156106,1,0,0:0:0:0:
192,192,156190,1,0,0:0:0:0:
64,192,156190,1,0,0:0:0:0:
448,192,156275,128,0,156443:0:0:0:0:
192,192,156443,1,0,0:0:0:0:
64,192,156443,1,0,0:0:0:0:
448,192,156527,1,0,0:0:0:0:
320,192,156527,1,0,0:0:0:0:
192,192,156612,1,0,0:0:0:0:
64,192,156612,1,0,0:0:0:0:
320,192,156780,1,0,0:0:0:0:
448,192,156949,1,0,0:0:0:0:
64,192,156949,1,0,0:0:0:0:
64,192,157117,1,0,0:0:0:0:
448,192,157286,1,0,0:0:0:0:
64,192,157286,1,0,0:0:0:0:
448,192,157454,1,0,0:0:0:0:
192,192,157623,1,0,0:0:0:0:
64,192,157623,1,0,0:0:0:0:
320,192,157707,1,0,0:0:0:0:
448,192,157792,1,0,0:0:0:0:
320,192,157876,1,0,0:0:0:0:
192,192,157960,1,0,0:0:0:0:
64,192,157960,1,0,0:0:0:0:
448,192,158044,1,0,0:0:0:0:
192,192,158129,1,0,0:0:0:0:
448,192,158297,1,0,0:0:0:0:
64,192,158297,1,0,0:0:0:0:
448,192,158466,1,0,0:0:0:0:
64,192,158466,1,0,0:0:0:0:
192,192,158634,1,0,0:0:0:0:
64,192,158634,1,0,0:0:0:0:
320,192,158718,1,0,0:0:0:0:
448,192,158803,1,0,0:0:0:0:
320,192,158887,1,0,0:0:0:0:
192,192,158971,1,0,0:0:0:0:
64,192,158971,1,0,0:0:0:0:
448,192,159056,1,0,0:0:0:0:
320,192,159140,1,0,0:0:0:0:
192,192,159224,1,0,0:0:0:0:
64,192,159308,128,0,159645:0:0:0:0:
448,192,159393,128,0,159645:0:0:0:0:
192,192,159477,128,0,159645:0:0:0:0:
320,192,159561,128,0,159645:0:0:0:0:
64,192,160965,5,0,0:0:0:0:
192,192,161302,1,0,0:0:0:0:
320,192,161639,1,0,0:0:0:0:
448,192,161976,1,0,0:0:0:0:
192,192,162313,1,0,0:0:0:0:
64,192,162315,1,0,0:0:0:0:
320,192,162399,1,0,0:0:0:0:
192,192,162483,1,0,0:0:0:0:
448,192,162483,1,0,0:0:0:0:
320,192,162567,1,0,0:0:0:0:
448,192,162652,1,0,0:0:0:0:
64,192,162652,1,0,0:0:0:0:
192,192,162736,1,0,0:0:0:0:
64,192,162820,1,0,0:0:0:0:
320,192,162904,1,0,0:0:0:0:
192,192,162989,1,0,0:0:0:0:
448,192,162989,1,0,0:0:0:0:
320,192,163073,1,0,0:0:0:0:
448,192,163157,1,0,0:0:0:0:
64,192,163157,1,0,0:0:0:0:
192,192,163241,1,0,0:0:0:0:
64,192,163326,1,0,0:0:0:0:
320,192,163410,1,0,0:0:0:0:
192,192,163494,1,0,0:0:0:0:
448,192,163494,1,0,0:0:0:0:
320,192,163579,1,0,0:0:0:0:
64,192,163663,1,0,0:0:0:0:
320,192,163747,1,0,0:0:0:0:
192,192,163831,1,0,0:0:0:0:
448,192,163831,1,0,0:0:0:0:
320,192,163916,1,0,0:0:0:0:
448,192,164000,1,0,0:0:0:0:
64,192,164000,1,0,0:0:0:0:
192,192,164084,1,0,0:0:0:0:
64,192,164168,1,0,0:0:0:0:
320,192,164253,1,0,0:0:0:0:
192,192,164337,1,0,0:0:0:0:
448,192,164337,1,0,0:0:0:0:
320,192,164421,1,0,0:0:0:0:
448,192,164506,1,0,0:0:0:0:
64,192,164506,1,0,0:0:0:0:
192,192,164590,1,0,0:0:0:0:
64,192,164674,1,0,0:0:0:0:
320,192,164758,1,0,0:0:0:0:
192,192,164843,1,0,0:0:0:0:
448,192,164843,1,0,0:0:0:0:
320,192,164927,1,0,0:0:0:0:
448,192,165011,1,0,0:0:0:0:
64,192,165011,1,0,0:0:0:0:
192,192,165067,1,0,0:0:0:0:
320,192,165123,1,0,0:0:0:0:
448,192,165180,1,0,0:0:0:0:
64,192,165236,1,0,0:0:0:0:
192,192,165292,1,0,0:0:0:0:
448,192,165348,1,0,0:0:0:0:
320,192,165432,1,0,0:0:0:0:
448,192,165517,1,0,0:0:0:0:
192,192,165601,1,0,0:0:0:0:
64,192,165685,1,0,0:0:0:0:
320,192,165685,1,0,0:0:0:0:
192,192,165770,1,0,0:0:0:0:
64,192,165854,1,0,0:0:0:0:
448,192,165854,1,0,0:0:0:0:
320,192,165938,1,0,0:0:0:0:
448,192,166022,1,0,0:0:0:0:
192,192,166107,1,0,0:0:0:0:
64,192,166191,1,0,0:0:0:0:
320,192,166191,1,0,0:0:0:0:
192,192,166275,1,0,0:0:0:0:
448,192,166359,1,0,0:0:0:0:
192,192,166444,1,0,0:0:0:0:
64,192,166528,1,0,0:0:0:0:
320,192,166528,1,0,0:0:0:0:
192,192,166612,1,0,0:0:0:0:
64,192,166697,1,0,0:0:0:0:
448,192,166697,1,0,0:0:0:0:
320,192,166781,1,0,0:0:0:0:
448,192,166865,1,0,0:0:0:0:
192,192,166949,1,0,0:0:0:0:
64,192,167034,1,0,0:0:0:0:
320,192,167034,1,0,0:0:0:0:
192,192,167118,1,0,0:0:0:0:
64,192,167202,1,0,0:0:0:0:
448,192,167202,1,0,0:0:0:0:
320,192,167286,1,0,0:0:0:0:
448,192,167371,1,0,0:0:0:0:
192,192,167455,1,0,0:0:0:0:
64,192,167539,1,0,0:0:0:0:
320,192,167539,1,0,0:0:0:0:
192,192,167623,1,0,0:0:0:0:
320,192,167708,1,0,0:0:0:0:
448,192,167708,1,0,0:0:0:0:
192,192,167792,1,0,0:0:0:0:
448,192,167876,1,0,0:0:0:0:
64,192,167876,1,0,0:0:0:0:
320,192,167961,1,0,0:0:0:0:
448,192,168045,1,0,0:0:0:0:
192,192,168045,1,0,0:0:0:0:
320,192,168129,1,0,0:0:0:0:
64,192,168213,1,0,0:0:0:0:
192,192,168298,1,0,0:0:0:0:
448,192,168382,1,0,0:0:0:0:
64,192,168382,1,0,0:0:0:0:
320,192,168466,1,0,0:0:0:0:
448,192,168550,1,0,0:0:0:0:
192,192,168550,1,0,0:0:0:0:
320,192,168635,1,0,0:0:0:0:
64,192,168719,1,0,0:0:0:0:
192,192,168803,1,0,0:0:0:0:
64,192,168888,1,0,0:0:0:0:
448,192,168888,1,0,0:0:0:0:
320,192,168972,1,0,0:0:0:0:
448,192,169056,1,0,0:0:0:0:
320,192,169140,1,0,0:0:0:0:
64,192,169225,1,0,0:0:0:0:
448,192,169225,1,0,0:0:0:0:
192,192,169309,1,0,0:0:0:0:
320,192,169393,1,0,0:0:0:0:
64,192,169393,1,0,0:0:0:0:
192,192,169477,1,0,0:0:0:0:
448,192,169562,1,0,0:0:0:0:
320,192,169646,1,0,0:0:0:0:
64,192,169730,1,0,0:0:0:0:
448,192,169730,1,0,0:0:0:0:
192,192,169815,1,0,0:0:0:0:
320,192,169899,1,0,0:0:0:0:
64,192,169899,1,0,0:0:0:0:
192,192,169983,1,0,0:0:0:0:
448,192,170067,1,0,0:0:0:0:
320,192,170152,1,0,0:0:0:0:
64,192,170236,1,0,0:0:0:0:
448,192,170236,1,0,0:0:0:0:
192,192,170320,1,0,0:0:0:0:
64,192,170404,1,0,0:0:0:0:
192,192,170489,1,0,0:0:0:0:
64,192,170573,1,0,0:0:0:0:
448,192,170573,1,0,0:0:0:0:
320,192,170657,1,0,0:0:0:0:
192,192,170741,1,0,0:0:0:0:
448,192,170741,1,0,0:0:0:0:
320,192,170826,1,0,0:0:0:0:
64,192,170910,1,0,0:0:0:0:
192,192,170994,1,0,0:0:0:0:
64,192,171079,1,0,0:0:0:0:
448,192,171079,1,0,0:0:0:0:
320,192,171163,1,0,0:0:0:0:
192,192,171247,1,0,0:0:0:0:
448,192,171247,1,0,0:0:0:0:
320,192,171331,1,0,0:0:0:0:
64,192,171416,1,0,0:0:0:0:
192,192,171500,1,0,0:0:0:0:
64,192,171584,1,0,0:0:0:0:
448,192,171584,1,0,0:0:0:0:
320,192,171668,1,0,0:0:0:0:
448,192,171753,1,0,0:0:0:0:
192,192,171753,1,0,0:0:0:0:
320,192,171837,1,0,0:0:0:0:
64,192,171921,1,0,0:0:0:0:
192,192,172006,1,0,0:0:0:0:
64,192,172090,1,0,0:0:0:0:
320,192,172090,1,0,0:0:0:0:
192,192,172174,1,0,0:0:0:0:
448,192,172258,1,0,0:0:0:0:
320,192,172343,1,0,0:0:0:0:
192,192,172427,1,0,0:0:0:0:
448,192,172427,1,0,0:0:0:0:
320,192,172511,1,0,0:0:0:0:
64,192,172595,1,0,0:0:0:0:
192,192,172680,1,0,0:0:0:0:
320,192,172764,1,0,0:0:0:0:
64,192,172764,1,0,0:0:0:0:
192,192,172848,1,0,0:0:0:0:
448,192,172932,1,0,0:0:0:0:
320,192,173017,1,0,0:0:0:0:
192,192,173101,1,0,0:0:0:0:
64,192,173101,1,0,0:0:0:0:
448,192,173185,1,0,0:0:0:0:
320,192,173270,1,0,0:0:0:0:
64,192,173326,1,0,0:0:0:0:
192,192,173382,1,0,0:0:0:0:
320,192,173438,1,0,0:0:0:0:
448,192,173438,1,0,0:0:0:0:
64,192,173522,1,0,0:0:0:0:
192,192,173607,1,0,0:0:0:0:
64,192,173691,1,0,0:0:0:0:
320,192,173775,1,0,0:0:0:0:
448,192,173775,1,0,0:0:0:0:
192,192,173859,1,0,0:0:0:0:
64,192,173944,1,0,0:0:0:0:
320,192,173944,1,0,0:0:0:0:
448,192,174028,1,0,0:0:0:0:
64,192,174112,1,0,0:0:0:0:
192,192,174197,1,0,0:0:0:0:
320,192,174281,1,0,0:0:0:0:
448,192,174281,1,0,0:0:0:0:
64,192,174365,1,0,0:0:0:0:
192,192,174449,1,0,0:0:0:0:
64,192,174534,1,0,0:0:0:0:
320,192,174618,1,0,0:0:0:0:
448,192,174618,1,0,0:0:0:0:
192,192,174702,1,0,0:0:0:0:
320,192,174786,1,0,0:0:0:0:
64,192,174786,1,0,0:0:0:0:
448,192,174871,1,0,0:0:0:0:
64,192,174955,1,0,0:0:0:0:
192,192,175039,1,0,0:0:0:0:
320,192,175123,1,0,0:0:0:0:
448,192,175123,1,0,0:0:0:0:
192,192,175208,1,0,0:0:0:0:
320,192,175292,1,0,0:0:0:0:
64,192,175292,1,0,0:0:0:0:
448,192,175376,1,0,0:0:0:0:
64,192,175461,1,0,0:0:0:0:
192,192,175545,1,0,0:0:0:0:
320,192,175629,1,0,0:0:0:0:
448,192,175629,1,0,0:0:0:0:
64,192,175713,1,0,0:0:0:0:
192,192,175798,1,0,0:0:0:0:
448,192,175798,1,0,0:0:0:0:
320,192,175854,1,0,0:0:0:0:
64,192,175910,1,0,0:0:0:0:
192,192,175966,1,0,0:0:0:0:
448,192,176022,1,0,0:0:0:0:
320,192,176079,1,0,0:0:0:0:
192,192,176135,1,0,0:0:0:0:
64,192,176135,1,0,0:0:0:0:
448,192,176219,1,0,0:0:0:0:
320,192,176303,1,0,0:0:0:0:
448,192,176388,1,0,0:0:0:0:
64,192,176472,1,0,0:0:0:0:
192,192,176472,1,0,0:0:0:0:
320,192,176556,1,0,0:0:0:0:
448,192,176640,1,0,0:0:0:0:
192,192,176640,1,0,0:0:0:0:
64,192,176725,1,0,0:0:0:0:
448,192,176809,1,0,0:0:0:0:
320,192,176893,1,0,0:0:0:0:
64,192,176977,1,0,0:0:0:0:
192,192,176977,1,0,0:0:0:0:
448,192,177062,1,0,0:0:0:0:
320,192,177146,1,0,0:0:0:0:
448,192,177230,1,0,0:0:0:0:
64,192,177315,1,0,0:0:0:0:
192,192,177315,1,0,0:0:0:0:
320,192,177399,1,0,0:0:0:0:
192,192,177483,1,0,0:0:0:0:
448,192,177483,1,0,0:0:0:0:
320,192,177567,1,0,0:0:0:0:
448,192,177652,1,0,0:0:0:0:
64,192,177708,1,0,0:0:0:0:
192,192,177764,1,0,0:0:0:0:
320,192,177820,1,0,0:0:0:0:
64,192,177904,1,0,0:0:0:0:
448,192,177989,1,0,0:0:0:0:
320,192,178045,1,0,0:0:0:0:
192,192,178101,1,0,0:0:0:0:
448,192,178157,1,0,0:0:0:0:
320,192,178241,1,0,0:0:0:0:
64,192,178326,1,0,0:0:0:0:
192,192,178382,1,0,0:0:0:0:
448,192,178438,1,0,0:0:0:0:
64,192,178494,1,0,0:0:0:0:
320,192,178579,1,0,0:0:0:0:
64,192,178663,1,0,0:0:0:0:
448,192,178663,1,0,0:0:0:0:
192,192,178747,1,0,0:0:0:0:
320,192,178831,1,0,0:0:0:0:
448,192,178831,1,0,0:0:0:0:
192,192,178916,1,0,0:0:0:0:
64,192,179000,1,0,0:0:0:0:
320,192,179084,1,0,0:0:0:0:
64,192,179168,1,0,0:0:0:0:
448,192,179168,1,0,0:0:0:0:
192,192,179253,1,0,0:0:0:0:
320,192,179337,1,0,0:0:0:0:
448,192,179337,1,0,0:0:0:0:
192,192,179421,1,0,0:0:0:0:
64,192,179506,1,0,0:0:0:0:
320,192,179590,1,0,0:0:0:0:
64,192,179674,1,0,0:0:0:0:
448,192,179674,1,0,0:0:0:0:
320,192,179758,1,0,0:0:0:0:
448,192,179843,1,0,0:0:0:0:
192,192,179927,1,0,0:0:0:0:
448,192,180011,1,0,0:0:0:0:
64,192,180011,1,0,0:0:0:0:
320,192,180095,1,0,0:0:0:0:
64,192,180180,1,0,0:0:0:0:
192,192,180180,1,0,0:0:0:0:
320,192,180264,1,0,0:0:0:0:
448,192,180348,1,0,0:0:0:0:
192,192,180432,1,0,0:0:0:0:
64,192,180517,1,0,0:0:0:0:
448,192,180517,1,0,0:0:0:0:
320,192,180601,1,0,0:0:0:0:
192,192,180685,1,0,0:0:0:0:
64,192,180685,1,0,0:0:0:0:
320,192,180770,1,0,0:0:0:0:
448,192,180854,1,0,0:0:0:0:
192,192,180938,1,0,0:0:0:0:
64,192,181022,1,0,0:0:0:0:
448,192,181022,1,0,0:0:0:0:
192,192,181107,1,0,0:0:0:0:
64,192,181191,1,0,0:0:0:0:
320,192,181275,1,0,0:0:0:0:
64,192,181359,1,0,0:0:0:0:
448,192,181359,1,0,0:0:0:0:
192,192,181444,1,0,0:0:0:0:
320,192,181528,1,0,0:0:0:0:
448,192,181528,1,0,0:0:0:0:
192,192,181612,1,0,0:0:0:0:
64,192,181697,1,0,0:0:0:0:
320,192,181781,1,0,0:0:0:0:
64,192,181865,1,0,0:0:0:0:
448,192,181865,1,0,0:0:0:0:
192,192,181949,1,0,0:0:0:0:
320,192,182034,1,0,0:0:0:0:
448,192,182034,1,0,0:0:0:0:
192,192,182118,1,0,0:0:0:0:
64,192,182202,1,0,0:0:0:0:
320,192,182286,1,0,0:0:0:0:
448,192,182371,1,0,0:0:0:0:
64,192,182371,1,0,0:0:0:0:
192,192,182539,1,0,0:0:0:0:
64,192,182539,1,0,0:0:0:0:
320,192,182623,1,0,0:0:0:0:
448,192,182708,5,0,0:0:0:0:
64,192,182792,1,0,0:0:0:0:
320,192,182876,1,0,0:0:0:0:
448,192,182876,1,0,0:0:0:0:
192,192,182961,1,0,0:0:0:0:
64,192,183045,1,0,0:0:0:0:
448,192,183129,1,0,0:0:0:0:
64,192,183213,1,0,0:0:0:0:
192,192,183213,1,0,0:0:0:0:
320,192,183298,1,0,0:0:0:0:
448,192,183382,1,0,0:0:0:0:
192,192,183466,1,0,0:0:0:0:
320,192,183550,1,0,0:0:0:0:
64,192,183550,1,0,0:0:0:0:
448,192,183550,1,0,0:0:0:0:
320,192,183719,1,0,0:0:0:0:
64,192,183888,5,0,0:0:0:0:
192,192,183944,1,0,0:0:0:0:
448,192,184000,1,0,0:0:0:0:
320,192,184056,1,0,0:0:0:0:
64,192,184225,1,0,0:0:0:0:
192,192,184225,1,0,0:0:0:0:
448,192,184393,1,0,0:0:0:0:
320,192,184449,1,0,0:0:0:0:
64,192,184506,1,0,0:0:0:0:
192,192,184562,1,0,0:0:0:0:
448,192,184562,1,0,0:0:0:0:
64,192,184730,1,0,0:0:0:0:
320,192,184730,1,0,0:0:0:0:
448,192,184899,1,0,0:0:0:0:
320,192,184955,1,0,0:0:0:0:
64,192,185011,1,0,0:0:0:0:
192,192,185067,1,0,0:0:0:0:
448,192,185236,1,0,0:0:0:0:
320,192,185236,1,0,0:0:0:0:
64,192,185404,1,0,0:0:0:0:
192,192,185461,1,0,0:0:0:0:
448,192,185517,1,0,0:0:0:0:
320,192,185573,1,0,0:0:0:0:
448,192,185741,1,0,0:0:0:0:
192,192,185741,1,0,0:0:0:0:
64,192,185910,1,0,0:0:0:0:
320,192,185910,1,0,0:0:0:0:
192,192,185966,1,0,0:0:0:0:
448,192,186022,1,0,0:0:0:0:
320,192,186079,1,0,0:0:0:0:
192,192,186247,1,0,0:0:0:0:
64,192,186247,1,0,0:0:0:0:
192,192,186416,1,0,0:0:0:0:
64,192,186416,1,0,0:0:0:0:
448,192,186584,1,0,0:0:0:0:
320,192,186640,1,0,0:0:0:0:
64,192,186697,1,0,0:0:0:0:
192,192,186753,1,0,0:0:0:0:
320,192,186921,1,0,0:0:0:0:
448,192,186921,1,0,0:0:0:0:
64,192,187090,1,0,0:0:0:0:
192,192,187146,1,0,0:0:0:0:
448,192,187202,1,0,0:0:0:0:
320,192,187258,1,0,0:0:0:0:
64,192,187258,1,0,0:0:0:0:
192,192,187427,1,0,0:0:0:0:
448,192,187427,1,0,0:0:0:0:
64,192,187595,1,0,0:0:0:0:
192,192,187652,1,0,0:0:0:0:
448,192,187708,1,0,0:0:0:0:
320,192,187764,1,0,0:0:0:0:
64,192,187932,1,0,0:0:0:0:
192,192,187932,1,0,0:0:0:0:
448,192,188101,1,0,0:0:0:0:
320,192,188157,1,0,0:0:0:0:
64,192,188213,1,0,0:0:0:0:
192,192,188270,1,0,0:0:0:0:
64,192,188438,1,0,0:0:0:0:
320,192,188438,1,0,0:0:0:0:
192,192,188607,1,0,0:0:0:0:
448,192,188607,1,0,0:0:0:0:
320,192,188663,1,0,0:0:0:0:
64,192,188719,1,0,0:0:0:0:
192,192,188775,1,0,0:0:0:0:
448,192,188944,1,0,0:0:0:0:
320,192,188944,1,0,0:0:0:0:
320,192,189112,1,0,0:0:0:0:
192,192,189281,1,0,0:0:0:0:
64,192,189281,1,0,0:0:0:0:
320,192,189449,1,0,0:0:0:0:
448,192,189506,1,0,0:0:0:0:
64,192,189562,1,0,0:0:0:0:
192,192,189618,1,0,0:0:0:0:
64,192,189786,1,0,0:0:0:0:
320,192,189786,1,0,0:0:0:0:
192,192,189955,1,0,0:0:0:0:
448,192,189955,1,0,0:0:0:0:
64,192,190011,1,0,0:0:0:0:
320,192,190067,1,0,0:0:0:0:
448,192,190123,1,0,0:0:0:0:
64,192,190292,1,0,0:0:0:0:
192,192,190292,1,0,0:0:0:0:
320,192,190461,1,0,0:0:0:0:
448,192,190517,1,0,0:0:0:0:
64,192,190573,1,0,0:0:0:0:
192,192,190629,1,0,0:0:0:0:
320,192,190798,1,0,0:0:0:0:
448,192,190854,1,0,0:0:0:0:
64,192,190910,1,0,0:0:0:0:
192,192,190966,1,0,0:0:0:0:
64,192,191135,1,0,0:0:0:0:
320,192,191135,1,0,0:0:0:0:
192,192,191303,1,0,0:0:0:0:
448,192,191303,1,0,0:0:0:0:
320,192,191359,1,0,0:0:0:0:
64,192,191416,1,0,0:0:0:0:
192,192,191472,1,0,0:0:0:0:
448,192,191528,1,0,0:0:0:0:
320,192,191584,1,0,0:0:0:0:
192,192,191640,1,0,0:0:0:0:
448,192,191809,1,0,0:0:0:0:
320,192,191809,1,0,0:0:0:0:
192,192,191977,1,0,0:0:0:0:
64,192,192034,1,0,0:0:0:0:
448,192,192090,1,0,0:0:0:0:
320,192,192146,1,0,0:0:0:0:
64,192,192315,1,0,0:0:0:0:
192,192,192315,1,0,0:0:0:0:
448,192,192483,1,0,0:0:0:0:
320,192,192539,1,0,0:0:0:0:
64,192,192595,1,0,0:0:0:0:
192,192,192652,1,0,0:0:0:0:
448,192,192652,1,0,0:0:0:0:
320,192,192820,1,0,0:0:0:0:
64,192,192820,1,0,0:0:0:0:
192,192,192989,1,0,0:0:0:0:
64,192,193045,1,0,0:0:0:0:
448,192,193101,1,0,0:0:0:0:
320,192,193157,1,0,0:0:0:0:
64,192,193326,1,0,0:0:0:0:
192,192,193326,1,0,0:0:0:0:
320,192,193494,1,0,0:0:0:0:
448,192,193550,1,0,0:0:0:0:
64,192,193607,1,0,0:0:0:0:
192,192,193663,1,0,0:0:0:0:
448,192,193831,1,0,0:0:0:0:
320,192,193831,1,0,0:0:0:0:
192,192,194000,1,0,0:0:0:0:
448,192,194000,1,0,0:0:0:0:
64,192,194000,128,0,194168:0:0:0:0:
320,192,194168,128,0,194337:0:0:0:0:
448,192,194337,1,0,0:0:0:0:
64,192,194337,1,0,0:0:0:0:
192,192,194337,128,0,194506:0:0:0:0:
320,192,194506,128,0,194674:0:0:0:0:
64,192,194674,5,0,0:0:0:0:
448,192,194674,1,0,0:0:0:0:
192,192,194730,1,0,0:0:0:0:
320,192,194786,1,0,0:0:0:0:
64,192,194843,1,0,0:0:0:0:
192,192,194899,1,0,0:0:0:0:
448,192,194955,1,0,0:0:0:0:
320,192,195011,1,0,0:0:0:0:
192,192,195067,1,0,0:0:0:0:
448,192,195123,1,0,0:0:0:0:
320,192,195180,1,0,0:0:0:0:
64,192,195236,1,0,0:0:0:0:
192,192,195292,1,0,0:0:0:0:
320,192,195348,1,0,0:0:0:0:
448,192,195348,1,0,0:0:0:0:
64,192,195685,1,0,0:0:0:0:
448,192,195685,1,0,0:0:0:0:
192,192,195741,1,0,0:0:0:0:
320,192,195798,1,0,0:0:0:0:
64,192,195854,1,0,0:0:0:0:
192,192,195910,1,0,0:0:0:0:
448,192,195966,1,0,0:0:0:0:
320,192,196022,1,0,0:0:0:0:
192,192,196079,1,0,0:0:0:0:
448,192,196135,1,0,0:0:0:0:
320,192,196191,1,0,0:0:0:0:
64,192,196247,1,0,0:0:0:0:
192,192,196303,1,0,0:0:0:0:
320,192,196359,1,0,0:0:0:0:
448,192,196359,1,0,0:0:0:0:
64,192,196697,1,0,0:0:0:0:
320,192,196697,1,0,0:0:0:0:
192,192,196753,1,0,0:0:0:0:
448,192,196809,1,0,0:0:0:0:
320,192,196865,1,0,0:0:0:0:
192,192,197034,1,0,0:0:0:0:
64,192,197090,1,0,0:0:0:0:
448,192,197146,1,0,0:0:0:0:
320,192,197202,1,0,0:0:0:0:
64,192,197371,1,0,0:0:0:0:
448,192,197371,1,0,0:0:0:0:
320,192,197427,1,0,0:0:0:0:
192,192,197483,1,0,0:0:0:0:
448,192,197539,1,0,0:0:0:0:
320,192,197595,1,0,0:0:0:0:
64,192,197652,1,0,0:0:0:0:
192,192,197708,1,0,0:0:0:0:
320,192,197764,1,0,0:0:0:0:
64,192,197820,1,0,0:0:0:0:
192,192,197876,1,0,0:0:0:0:
448,192,197932,1,0,0:0:0:0:
320,192,197989,1,0,0:0:0:0:
192,192,198045,1,0,0:0:0:0:
64,192,198045,1,0,0:0:0:0:
64,192,198382,1,0,0:0:0:0:
448,192,198382,1,0,0:0:0:0:
320,192,198438,1,0,0:0:0:0:
192,192,198494,1,0,0:0:0:0:
448,192,198550,1,0,0:0:0:0:
320,192,198607,1,0,0:0:0:0:
64,192,198663,1,0,0:0:0:0:
192,192,198719,1,0,0:0:0:0:
320,192,198775,1,0,0:0:0:0:
64,192,198831,1,0,0:0:0:0:
192,192,198888,1,0,0:0:0:0:
448,192,198944,1,0,0:0:0:0:
320,192,199000,1,0,0:0:0:0:
192,192,199056,1,0,0:0:0:0:
64,192,199056,1,0,0:0:0:0:
64,192,199393,1,0,0:0:0:0:
448,192,199393,1,0,0:0:0:0:
192,192,199562,1,0,0:0:0:0:
320,192,199562,1,0,0:0:0:0:
64,192,199730,1,0,0:0:0:0:
448,192,199730,1,0,0:0:0:0:
192,192,199899,1,0,0:0:0:0:
320,192,199899,1,0,0:0:0:0:
64,192,200067,1,0,0:0:0:0:
448,192,200067,1,0,0:0:0:0:
192,192,200123,1,0,0:0:0:0:
320,192,200180,1,0,0:0:0:0:
64,192,200236,1,0,0:0:0:0:
192,192,200292,1,0,0:0:0:0:
448,192,200348,1,0,0:0:0:0:
64,192,200404,1,0,0:0:0:0:
320,192,200461,1,0,0:0:0:0:
448,192,200517,1,0,0:0:0:0:
192,192,200573,1,0,0:0:0:0:
320,192,200629,1,0,0:0:0:0:
448,192,200685,1,0,0:0:0:0:
192,192,200741,1,0,0:0:0:0:
64,192,200741,1,0,0:0:0:0:
448,192,201079,1,0,0:0:0:0:
64,192,201079,1,0,0:0:0:0:
320,192,201135,1,0,0:0:0:0:
192,192,201191,1,0,0:0:0:0:
448,192,201247,1,0,0:0:0:0:
320,192,201303,1,0,0:0:0:0:
64,192,201359,1,0,0:0:0:0:
448,192,201416,1,0,0:0:0:0:
192,192,201472,1,0,0:0:0:0:
64,192,201528,1,0,0:0:0:0:
320,192,201584,1,0,0:0:0:0:
192,192,201640,1,0,0:0:0:0:
64,192,201697,1,0,0:0:0:0:
320,192,201753,1,0,0:0:0:0:
448,192,201753,1,0,0:0:0:0:
64,192,202090,1,0,0:0:0:0:
192,192,202146,1,0,0:0:0:0:
448,192,202202,1,0,0:0:0:0:
320,192,202258,1,0,0:0:0:0:
192,192,202427,1,0,0:0:0:0:
64,192,202427,1,0,0:0:0:0:
320,192,202511,1,0,0:0:0:0:
448,192,202511,1,0,0:0:0:0:
192,192,202595,1,0,0:0:0:0:
64,192,202595,1,0,0:0:0:0:
448,192,202764,1,0,0:0:0:0:
64,192,202764,1,0,0:0:0:0:
192,192,202820,1,0,0:0:0:0:
320,192,202876,1,0,0:0:0:0:
64,192,202932,1,0,0:0:0:0:
192,192,202989,1,0,0:0:0:0:
448,192,203045,1,0,0:0:0:0:
64,192,203101,1,0,0:0:0:0:
320,192,203157,1,0,0:0:0:0:
448,192,203213,1,0,0:0:0:0:
192,192,203270,1,0,0:0:0:0:
320,192,203326,1,0,0:0:0:0:
448,192,203382,1,0,0:0:0:0:
192,192,203438,1,0,0:0:0:0:
64,192,203438,1,0,0:0:0:0:
64,192,203775,1,0,0:0:0:0:
448,192,203775,1,0,0:0:0:0:
320,192,203831,1,0,0:0:0:0:
192,192,203888,1,0,0:0:0:0:
448,192,203944,1,0,0:0:0:0:
320,192,204000,1,0,0:0:0:0:
64,192,204056,1,0,0:0:0:0:
448,192,204112,1,0,0:0:0:0:
192,192,204112,1,0,0:0:0:0:
320,192,204197,1,0,0:0:0:0:
192,192,204281,1,0,0:0:0:0:
320,192,204365,1,0,0:0:0:0:
192,192,204449,1,0,0:0:0:0:
320,192,204534,1,0,0:0:0:0:
192,192,204618,1,0,0:0:0:0:
320,192,204702,1,0,0:0:0:0:
448,192,204786,1,0,0:0:0:0:
64,192,204786,1,0,0:0:0:0:
320,192,205418,1,0,0:0:0:0:
192,192,205418,1,0,0:0:0:0:
