osu file format v14

[General]
AudioFilename: audio.mp3
AudioLeadIn: 0
PreviewTime: 146614
Countdown: 0
SampleSet: Soft
StackLeniency: 0.7
Mode: 0
LetterboxInBreaks: 0
WidescreenStoryboard: 1

[Editor]
Bookmarks: 13489,40156,53490,66823,80156,106823,120156,131823,133490,146823,160156,173490,186823,198906,200156,213490,226833,234757,235390,240198,253560,263490
DistanceSpacing: 0.75
BeatDivisor: 4
GridSize: 16
TimelineZoom: 1.6

[Metadata]
Title:Something Comforting
TitleUnicode:Something Comforting
Artist:Porter Robinson
ArtistUnicode:Porter Robinson
Creator:Mimari
Version:Normal
Source:
Tags:nurture altai ascended jaybone english electronic pop synth piano instrumental -_ascended_- -ascended-
BeatmapID:2965630
BeatmapSetID:1441516

[Difficulty]
HPDrainRate:3
CircleSize:3.5
OverallDifficulty:3.5
ApproachRate:5
SliderMultiplier:1.2
SliderTickRate:1

[Events]
//Background and Video events
0,0,"bgs.jpg",0,0
//Break Periods
2,107047,118981
2,147047,158981
2,211197,212313
//Storyboard Layer 0 (Background)
//Storyboard Layer 1 (Fail)
//Storyboard Layer 2 (Pass)
//Storyboard Layer 3 (Foreground)
//Storyboard Layer 4 (Overlay)
//Storyboard Sound Samples

[TimingPoints]
181,416.666666666667,4,2,2,30,1,0
13514,-111.111111111111,4,2,2,30,0,0
39843,-111.111111111111,4,2,2,5,0,0
39868,-111.111111111111,4,2,2,30,0,0
39972,-111.111111111111,4,2,2,30,0,0
40181,-105.263157894737,4,2,2,40,0,0
53514,-100,4,2,2,50,0,0
65389,-100,4,2,2,60,0,0
66431,-100,4,2,2,65,0,0
66847,-111.111111111111,4,2,2,60,0,0
77576,-111.111111111111,4,2,2,60,0,0
77681,-111.111111111111,4,2,2,60,0,0
78410,-111.111111111111,4,2,2,60,0,0
78514,-111.111111111111,4,2,2,60,0,0
79764,-111.111111111111,4,2,2,70,0,0
80181,-95.2380952380952,4,2,2,85,0,1
93514,-90.9090909090909,4,2,13,85,0,1
93931,-90.9090909090909,4,2,2,85,0,1
94347,-90.9090909090909,4,2,18,85,0,1
94764,-90.9090909090909,4,2,2,85,0,1
95181,-90.9090909090909,4,2,20,85,0,1
95597,-90.9090909090909,4,2,2,85,0,1
96014,-90.9090909090909,4,2,22,85,0,1
96222,-90.9090909090909,4,2,2,85,0,1
96847,-90.9090909090909,4,2,12,85,0,1
97264,-90.9090909090909,4,2,2,85,0,1
98097,-90.9090909090909,4,2,35,85,0,1
98514,-90.9090909090909,4,2,12,85,0,1
98931,-90.9090909090909,4,2,36,85,0,1
99139,-90.9090909090909,4,2,2,85,0,1
99347,-90.9090909090909,4,2,23,85,0,1
99556,-90.9090909090909,4,2,2,85,0,1
100181,-90.9090909090909,4,2,13,85,0,1
100597,-90.9090909090909,4,2,2,85,0,1
101014,-90.9090909090909,4,2,18,85,0,1
101431,-90.9090909090909,4,2,2,85,0,1
101847,-90.9090909090909,4,2,20,85,0,1
102264,-90.9090909090909,4,2,2,85,0,1
102681,-90.9090909090909,4,2,22,85,0,1
102889,-90.9090909090909,4,2,2,85,0,1
103514,-90.9090909090909,4,2,23,85,0,1
103931,-90.9090909090909,4,2,2,85,0,1
104347,-90.9090909090909,4,2,2,75,0,1
104764,-90.9090909090909,4,2,2,70,0,1
105181,-90.9090909090909,4,2,2,65,0,1
105597,-90.9090909090909,4,2,2,85,0,1
106014,-90.9090909090909,4,2,2,60,0,1
106301,-90.9090909090909,4,2,2,5,0,1
106326,-90.9090909090909,4,2,2,60,0,1
106431,-90.9090909090909,4,2,2,60,0,1
106743,-90.9090909090909,4,2,2,60,0,1
106847,-100,4,2,18,60,0,0
119764,-100,4,2,2,30,0,0
120181,-111.111111111111,4,2,18,30,0,0
120597,-111.111111111111,4,2,2,30,0,0
131847,-111.111111111111,4,2,2,40,0,0
133514,-105.263157894737,4,2,2,50,0,0
145181,-111.111111111111,4,2,2,50,0,0
145885,-111.111111111111,4,2,2,5,0,0
145910,-111.111111111111,4,2,2,50,0,0
146014,-111.111111111111,4,2,2,50,0,0
146639,-111.111111111111,4,2,2,50,0,0
146743,-111.111111111111,4,2,2,50,0,0
146847,-111.111111111111,4,2,12,50,0,0
147264,-111.111111111111,4,2,2,30,0,0
147681,-111.111111111111,4,2,2,30,0,0
148097,-111.111111111111,4,2,2,30,0,0
148236,-111.111111111111,4,2,2,30,0,0
148375,-111.111111111111,4,2,2,30,0,0
148514,-111.111111111111,4,2,2,30,0,0
148931,-111.111111111111,4,2,2,30,0,0
149347,-111.111111111111,4,2,2,30,0,0
149556,-111.111111111111,4,2,2,30,0,0
149972,-111.111111111111,4,2,2,30,0,0
150076,-111.111111111111,4,2,2,30,0,0
150181,-111.111111111111,4,2,2,30,0,0
150597,-111.111111111111,4,2,2,30,0,0
151014,-111.111111111111,4,2,2,30,0,0
151431,-111.111111111111,4,2,2,30,0,0
151569,-111.111111111111,4,2,2,30,0,0
151708,-111.111111111111,4,2,2,30,0,0
151847,-111.111111111111,4,2,2,30,0,0
152264,-111.111111111111,4,2,2,30,0,0
152681,-111.111111111111,4,2,2,30,0,0
153097,-111.111111111111,4,2,2,30,0,0
153514,-111.111111111111,4,2,2,30,0,0
154764,-111.111111111111,4,2,2,30,0,0
155181,-111.111111111111,4,2,2,30,0,0
155285,-111.111111111111,4,2,2,30,0,0
155597,-111.111111111111,4,2,2,30,0,0
156014,-111.111111111111,4,2,2,30,0,0
156431,-111.111111111111,4,2,2,30,0,0
156847,-111.111111111111,4,2,2,30,0,0
158097,-111.111111111111,4,2,2,30,0,0
158306,-111.111111111111,4,2,2,30,0,0
158410,-111.111111111111,4,2,2,30,0,0
158514,-111.111111111111,4,2,2,30,0,0
159347,-111.111111111111,4,2,2,30,0,0
159556,-111.111111111111,4,2,2,30,0,0
160076,-105.263157894737,4,2,2,30,0,0
160181,-105.263157894737,4,2,2,45,0,0
173514,-111.111111111111,4,2,2,60,0,0
184660,-111.111111111111,4,2,2,60,0,0
184764,-111.111111111111,4,2,2,60,0,0
186014,-111.111111111111,4,2,2,40,0,0
186847,-95.2380952380952,4,2,2,85,0,1
198722,-95.2380952380952,4,2,37,85,0,1
198931,-105.263157894737,4,2,38,85,0,0
199139,-105.263157894737,4,2,2,70,0,0
199347,-105.263157894737,4,2,2,85,0,0
200181,-95.2380952380952,4,2,13,85,0,0
200597,-95.2380952380952,4,2,2,85,0,1
200806,-90.9090909090909,4,2,2,85,0,1
201013,-90.9090909090909,4,2,2,85,0,1
201222,-90.9090909090909,4,2,18,85,0,1
201430,-90.9090909090909,4,2,2,85,0,1
201847,-90.9090909090909,4,2,20,85,0,1
202263,-90.9090909090909,4,2,2,85,0,1
202680,-90.9090909090909,4,2,22,85,0,1
202889,-90.9090909090909,4,2,2,85,0,1
203514,-90.9090909090909,4,2,12,85,0,1
203930,-90.9090909090909,4,2,2,85,0,1
204763,-90.9090909090909,4,2,35,85,0,1
204947,-90.9090909090909,4,2,2,85,0,1
204972,-90.9090909090909,4,2,2,85,0,1
205180,-90.9090909090909,4,2,12,85,0,1
205597,-90.9090909090909,4,2,36,85,0,1
205806,-90.9090909090909,4,2,2,85,0,1
206013,-90.9090909090909,4,2,23,85,0,1
206222,-90.9090909090909,4,2,2,85,0,1
206847,-90.9090909090909,4,2,13,85,0,1
207263,-90.9090909090909,4,2,2,85,0,1
207680,-90.9090909090909,4,2,18,85,0,1
208097,-90.9090909090909,4,2,2,85,0,1
208513,-90.9090909090909,4,2,20,85,0,1
208930,-90.9090909090909,4,2,2,85,0,1
209347,-90.9090909090909,4,2,22,85,0,1
209556,-90.9090909090909,4,2,2,85,0,1
210597,-105.263157894737,4,2,2,30,0,0
211489,434.782608695652,4,2,2,30,1,0
213305,416.666666666667,4,2,2,30,1,0
213409,-100,4,2,2,30,0,0
213513,425.531914893617,4,2,2,40,1,0
213513,-125,4,2,2,40,0,0
213913,-125,4,2,13,40,0,0
213938,-125,4,2,2,30,0,0
214364,-125,4,2,2,30,0,0
214906,465.116279069767,4,2,2,30,1,0
214906,-125,4,2,2,30,0,0
215022,-125,4,2,2,30,0,0
215138,526.315789473684,4,2,12,40,1,0
215138,-125,4,2,12,40,0,0
215610,400,4,2,2,30,1,0
215610,-125,4,2,2,30,0,0
216010,431.654676258993,4,2,14,40,1,0
216010,-125,4,2,14,40,0,0
216225,-125,4,2,2,30,0,0
216602,458.015267175573,4,2,2,30,1,0
216602,-125,4,2,2,30,0,0
216716,-125,4,2,2,30,0,0
216831,491.803278688525,4,2,12,40,1,0
216831,-125,4,2,12,40,0,0
217076,413.793103448276,4,2,2,30,1,0
217076,-125,4,2,2,30,0,0
217282,-125,4,2,2,30,0,0
217489,405.405405405405,4,2,2,30,1,0
217489,-125,4,2,2,30,0,0
217691,-125,4,2,2,30,0,0
217894,-125,4,2,2,30,0,0
218299,422.535211267606,4,2,2,30,1,0
218299,-125,4,2,2,30,0,0
218404,-125,4,2,2,30,0,0
218510,419.58041958042,4,2,12,40,1,0
218510,-125,4,2,12,40,0,0
218929,-125,4,2,2,30,0,0
219349,-125,4,2,16,40,0,0
219768,-125,4,2,2,30,0,0
219932,454.545454545455,4,2,2,30,1,0
219932,-125,4,2,2,30,0,0
220045,-125,4,2,2,30,0,0
220159,434.782608695652,4,2,12,40,1,0
220159,-125,4,2,12,40,0,0
220593,402.684563758389,4,2,2,30,1,0
220593,-125,4,2,2,30,0,0
220995,428.571428571429,4,2,19,60,1,0
220995,-125,4,2,19,60,0,0
221423,461.538461538462,4,2,13,40,1,0
221423,-125,4,2,13,40,0,0
221884,413.793103448276,4,2,2,30,1,0
221884,-125,4,2,2,30,0,0
221987,-125,4,2,2,30,0,0
222282,413.793103448276,4,2,14,35,1,0
222282,-125,4,2,14,35,0,0
222695,-125,4,2,18,55,0,0
223109,-125,4,2,17,40,0,0
223316,-125,4,2,2,30,0,0
223419,-125,4,2,2,30,0,0
223523,422.535211267606,4,2,12,40,1,0
223523,-125,4,2,12,40,0,0
223945,394.736842105263,4,2,2,30,1,0
223945,-125,4,2,2,30,0,0
224339,413.793103448276,4,2,2,40,1,0
224339,-125,4,2,2,40,0,0
224752,-125,4,2,2,30,0,0
224987,361.44578313253,4,2,2,30,1,0
224987,-125,4,2,2,30,0,0
225077,-125,4,2,2,30,0,0
225166,447.761194029851,4,2,12,40,1,0
225166,-125,4,2,12,40,0,0
225613,422.535211267606,4,2,2,30,1,0
225613,-125,4,2,2,30,0,0
226035,-125,4,2,2,30,0,0
226458,400,4,2,2,30,1,0
226458,-125,4,2,2,30,0,0
226858,408.163265306122,4,2,20,40,1,0
226858,-125,4,2,20,40,0,0
227674,-125,4,2,24,50,0,0
227878,-125,4,2,2,30,0,0
228296,451.127819548872,4,2,2,30,1,0
228296,-125,4,2,2,30,0,0
228521,434.782608695652,4,2,22,40,1,0
228521,-125,4,2,22,40,0,0
228955,394.736842105263,4,2,2,30,1,0
228955,-125,4,2,2,30,0,0
229349,422.535211267606,4,2,2,30,1,0
229349,-125,4,2,2,30,0,0
229781,410.958904109589,4,2,2,30,1,0
229781,-125,4,2,2,30,0,0
229986,-125,4,2,21,40,0,0
230089,-125,4,2,2,30,0,0
230191,422.535211267606,4,2,2,30,1,0
230191,-125,4,2,2,30,0,0
230401,-125,4,2,13,40,0,0
230613,413.793103448276,4,2,2,30,1,0
230613,-125,4,2,2,30,0,0
230819,-125,4,2,13,40,0,0
231001,-125,4,2,24,50,0,0
231208,-125,4,2,24,40,0,0
231233,-125,4,2,2,30,0,0
231440,-125,4,2,23,35,0,0
231608,461.538461538462,4,2,2,30,1,0
231608,-125,4,2,2,30,0,0
231723,-125,4,2,2,30,0,0
231839,425.531914893617,4,2,23,40,1,0
231839,-125,4,2,23,40,0,0
232264,431.654676258993,4,2,2,30,1,0
232264,-125,4,2,2,30,0,0
232695,-125,4,2,16,40,0,0
233127,413.793103448276,4,2,17,40,1,0
233127,-125,4,2,17,40,0,0
233540,-125,4,2,12,40,0,0
234160,-125,4,2,12,30,0,0
234782,422.535211267606,4,2,13,40,1,0
234782,-125,4,2,13,40,0,0
235204,-125,4,2,2,30,0,0
235415,413.793103448276,4,2,2,40,1,0
235620,-100,4,2,13,30,0,0
236035,-125,4,2,16,40,0,0
236449,-125,4,2,17,40,0,0
236863,413.793103448276,4,2,12,40,1,0
236863,-125,4,2,12,40,0,0
237690,-125,4,2,12,30,0,0
238104,-125,4,2,2,30,0,0
238311,-125,4,2,13,40,0,0
240223,375,4,2,23,40,1,0
240223,-125,4,2,23,40,0,0
240598,422.535211267606,4,2,2,30,1,0
240598,-125,4,2,2,30,0,0
240703,-125,4,2,2,30,0,0
241443,419.58041958042,4,2,2,30,1,0
241443,-125,4,2,2,30,0,0
241862,-125,4,2,23,20,0,0
242282,408.163265306122,4,2,2,30,1,0
242282,-125,4,2,2,30,0,0
242680,425.531914893617,4,2,2,30,1,0
242680,-125,4,2,2,30,0,0
243105,405.405405405405,4,2,2,30,1,0
243105,-125,4,2,2,30,0,0
243501,441.176470588235,4,2,12,40,1,0
243501,-125,4,2,12,40,0,0
243942,410.958904109589,4,2,2,30,1,0
243942,-125,4,2,2,30,0,0
244763,-125,4,2,2,30,0,0
245189,416.666666666667,4,2,12,20,1,0
245189,-125,4,2,12,20,0,0
246022,-125,4,2,2,30,0,0
246230,431.654676258993,4,2,2,30,1,0
246230,-125,4,2,2,30,0,0
246337,-125,4,2,2,30,0,0
246445,405.405405405405,4,2,2,30,1,0
246445,-125,4,2,2,30,0,0
246808,468.75,4,2,26,40,1,0
246808,-125,4,2,26,40,0,0
247276,352.941176470588,4,2,2,30,1,0
247276,-125,4,2,2,30,0,0
247682,416.666666666667,4,2,2,30,1,0
247682,-125,4,2,2,30,0,0
248049,476.190476190476,4,2,15,40,1,0
248049,-125,4,2,15,40,0,0
248525,413.793103448276,4,2,2,30,1,0
248525,-125,4,2,2,30,0,0
249352,-125,4,2,2,25,0,0
249559,425.531914893617,4,2,2,30,1,0
249559,-125,4,2,2,30,0,0
249771,413.793103448276,4,2,2,30,1,0
249771,-125,4,2,2,30,0,0
249977,-125,4,2,2,30,0,0
250081,-125,4,2,2,30,0,0
250184,-125,4,2,14,30,0,0
251012,425.531914893617,4,2,2,30,1,0
251012,-125,4,2,2,30,0,0
251437,416.666666666667,4,2,2,30,1,0
251437,-125,4,2,2,30,0,0
251853,-125,4,2,2,20,0,0
252895,400,4,2,2,30,1,0
252895,-125,4,2,2,30,0,0
253095,416.666666666667,4,2,12,30,1,0
253095,-125,4,2,12,30,0,0
253303,-125,4,2,2,30,0,0
253585,357.142857142857,4,2,23,50,1,0
253585,-125,4,2,23,50,0,0
253942,324.324324324324,4,2,2,30,1,0
253942,-125,4,2,2,30,0,0
254104,-125,4,2,2,30,0,0
254355,394.736842105263,4,2,2,30,1,0
254355,-125,4,2,2,30,0,0
254749,-125,4,2,2,30,0,0
254759,419.58041958042,4,2,2,30,1,0
255178,-100,4,2,2,20,0,0
255956,540.540540540541,4,2,10,30,1,0
255956,-125,4,2,10,30,0,0
256017,-125,4,2,2,30,0,0
256023,413.793103448276,4,2,2,30,1,0
256023,-125,4,2,2,30,0,0
256850,428.571428571429,4,2,26,30,1,0
256850,-125,4,2,26,30,0,0
257278,405.405405405405,4,2,2,30,1,0
257278,-125,4,2,2,30,0,0
257683,-125,4,2,2,30,0,0
258100,413.793103448276,4,2,2,30,1,0
258100,-125,4,2,2,30,0,0
258485,447.761194029851,4,2,14,30,1,0
258485,-125,4,2,14,30,0,0
259369,405.405405405405,4,2,27,30,1,0
259369,-125,4,2,27,30,0,0
259571,-125,4,2,2,30,0,0
259774,413.793103448276,4,2,29,30,1,0
259774,-125,4,2,29,30,0,0
259980,405.405405405405,4,2,2,30,1,0
259980,-125,4,2,2,30,0,0
260081,-125,4,2,2,30,0,0
260182,425.531914893617,4,2,13,40,1,0
260182,-125,4,2,13,40,0,0
260607,422.535211267606,4,2,2,30,1,0
260607,-125,4,2,2,30,0,0
261028,-125,4,2,13,25,0,0
261452,-125,4,2,2,30,0,0
261845,437.956204379562,4,2,14,40,1,0
261845,-125,4,2,14,40,0,0
262282,413.793103448276,4,2,2,30,1,0
262282,-125,4,2,2,30,0,0
262622,535.714285714286,4,2,2,30,1,0
262622,-125,4,2,2,30,0,0
262689,422.535211267606,4,2,13,40,1,0
262689,-125,4,2,13,40,0,0
263111,-125,4,2,2,30,0,0
263534,-125,4,2,12,50,0,0

[Colours]
Combo1 : 97,142,218
Combo2 : 101,213,233

[HitObjects]
362,359,13514,6,0,L|372:242,1,107.999996704102,0|2,0:0|0:0,0:0:0:0:
428,193,14347,1,2,0:0:0:0:
380,127,14764,2,0,B|335:108|308:146|308:146|277:190|215:165,1,161.999995056153,2|0,0:0|0:0,0:0:0:0:
198,161,15597,6,0,B|180:17|180:17|215:103,1,215.999993408203,2|2,0:0|0:0,0:0:0:0:
279,47,16847,2,0,B|324:28|351:66|351:66|382:110|444:85,1,161.999995056153,2|0,0:0|0:0,0:0:0:0:
458,75,17681,1,2,0:0:0:0:
512,134,18097,1,2,0:0:0:0:
470,203,18514,6,0,L|480:320,2,107.999996704102
394,174,19764,2,0,L|329:158,1,53.9999983520508
301,153,20181,6,0,P|253:161|219:213,1,107.999996704102,0|2,0:0|0:0,0:0:0:0:
257,280,21014,1,2,0:0:0:0:
203,340,21431,2,0,L|34:305,1,161.999995056153,2|0,0:0|0:0,0:0:0:0:
26,270,22264,2,0,P|5:231|34:173,1,107.999996704102,2|0,0:0|0:0,0:0:0:0:
4,98,23097,6,0,B|59:74|93:121|93:121|132:185|208:145,1,215.999993408203,2|0,0:0|0:0,0:0:0:0:
267,123,24347,1,2,0:0:0:0:
233,48,24764,1,2,0:0:0:0:
308,18,25181,6,0,P|368:21|397:61,2,107.999996704102,2|0|2,0:0|0:0|0:0,0:0:0:0:
233,48,26431,2,0,L|162:33,1,53.9999983520508
140,27,26847,6,0,P|85:49|71:102,1,107.999996704102,2|2,0:0|0:0,0:0:0:0:
102,166,27681,1,2,0:0:0:0:
180,147,28097,2,0,B|235:155|235:155|264:196|264:196|342:203,1,161.999995056153,2|0,0:0|0:0,0:0:0:0:
360,196,28931,2,0,L|375:78,1,107.999996704102,2|0,0:0|0:0,0:0:0:0:
390,9,29764,1,2,0:0:0:0:
467,31,30181,6,0,B|510:63|510:63|493:188,1,161.999995056153,2|0,0:0|0:0,0:0:0:0:
489,210,31014,1,2,0:0:0:0:
474,289,31431,1,2,0:0:0:0:
395,307,31847,6,0,P|353:352|300:346,2,107.999996704102,0|0|2,0:0|0:0|0:0,0:0:0:0:
406,226,33097,2,0,L|341:210,1,53.9999983520508,2|0,0:0|0:0,0:0:0:0:
317,230,33514,6,0,L|193:252,1,107.999996704102,2|0,0:0|0:0,0:0:0:0:
151,304,34347,2,0,B|110:258|110:258|155:147,1,161.999995056153,2|0,0:0|0:0,0:0:0:0:
168,130,35181,2,0,L|294:155,1,107.999996704102,2|0,0:0|0:0,0:0:0:0:
309,78,36014,2,0,L|135:44,1,161.999995056153,2|2,0:0|0:0,0:0:0:0:
109,43,36847,6,0,P|62:54|51:70,1,53.9999983520508,2|0,0:0|0:0,0:0:0:0:
43,93,37264,1,0,0:0:0:0:
10,167,37681,2,0,L|26:279,1,107.999996704102
83,330,38514,6,0,B|138:353|172:306|172:306|211:242|287:282,1,215.999993408203
305,297,39556,2,0,L|430:279,1,107.999996704102,2|2,0:0|0:0,0:0:0:0:
454,274,40181,5,2,0:0:0:0:
492,197,40597,1,0,0:0:0:0:
492,197,40806,2,0,P|505:147|475:88,1,113.999996955872,2|2,0:0|0:0,0:0:0:0:
446,64,41431,1,2,0:0:0:0:
361,50,41847,6,0,L|246:32,1,113.999996955872,2|0,0:0|0:0,0:0:0:0:
175,75,42681,1,0,0:0:0:0:
175,75,42890,2,0,P|162:125|192:184,1,113.999996955872,2|2,0:0|0:0,0:0:0:0:
219,207,43514,6,0,L|347:187,1,113.999996955872,2|0,0:0|0:0,0:0:0:0:
373,182,44139,1,2,0:0:0:0:
456,217,44556,1,2,0:0:0:0:
456,217,44764,2,0,P|457:249|445:281,1,56.9999984779358,2|0,0:0|0:0,0:0:0:0:
426,309,45181,6,0,L|310:289,1,113.999996955872,2|0,0:0|0:0,0:0:0:0:
229,273,46014,1,2,0:0:0:0:
207,355,46431,1,2,0:0:0:0:
123,335,46847,6,2,B|8:302|8:302|40:301|73:266,1,170.999995433807,2|0,0:0|0:0,0:0:0:0:
91,261,47681,2,0,P|114:223|95:160,1,113.999996955872,0|2,0:0|0:0,0:0:0:0:
18,120,48514,2,0,P|-5:82|14:19,1,113.999996955872,2|0,0:0|0:0,0:0:0:0:
97,1,49347,1,2,0:0:0:0:
133,78,49764,1,2,0:0:0:0:
213,47,50181,6,2,B|262:28|290:68|290:68|322:113|387:87,1,170.999995433807,2|0,0:0|0:0,0:0:0:0:
404,82,51014,2,0,L|389:203,1,113.999996955872,0|2,0:0|0:0,0:0:0:0:
382,237,51639,1,2,0:0:0:0:
382,237,51847,5,0,3:0:0:0:
303,203,52264,1,0,3:0:0:0:
233,252,52681,2,0,P|212:303|236:353,1,113.999996955872,0|2,3:0|3:0,0:0:0:0:
276,369,53306,1,10,3:3:0:0:
276,369,53514,6,0,L|403:357,1,120,2|0,3:0|3:0,0:0:0:0:
440,353,54139,1,2,0:0:0:0:
492,278,54556,1,2,0:0:0:0:
492,278,54764,2,0,L|502:192,1,60,2|0,3:0|0:0,0:0:0:0:
503,173,55181,6,0,P|467:143|389:172,1,120,2|0,3:0|3:0,0:0:0:0:
322,200,56014,1,0,3:0:0:0:
322,200,56222,2,0,L|312:114,1,60,2|2,0:0|3:0,0:0:0:0:
308,95,56639,6,0,P|272:125|194:96,1,120,2|2,0:0|0:0,0:0:0:0:
125,67,57472,2,0,L|139:201,1,120,2|2,0:0|0:0,0:0:0:0:
142,231,58097,1,2,3:0:0:0:
54,251,58514,1,2,3:0:0:0:
77,337,58931,1,0,3:0:0:0:
164,318,59347,6,0,L|281:343,1,120,2|2,3:0|3:0,0:0:0:0:
369,361,60181,2,2,P|394:317|371:254,1,120,2|0,3:0|3:0,0:0:0:0:
311,188,61014,1,0,3:0:0:0:
228,224,61431,2,0,L|152:209,1,60,2|0,3:0|0:0,0:0:0:0:
125,201,61847,6,0,P|100:157|123:94,1,120,0|0,3:0|3:0,0:0:0:0:
198,46,62681,1,2,3:0:0:0:
230,129,63097,1,2,3:0:0:0:
314,96,63514,6,2,L|449:121,1,120,2|0,3:0|3:0,0:0:0:0:
476,196,64347,1,0,3:0:0:0:
386,199,64764,2,0,L|309:184,1,60,2|2,3:0|0:0,0:0:0:0:
282,183,65181,6,0,P|235:198|214:273,1,120,0|8,3:0|3:3,0:0:0:0:
221,308,65806,1,8,3:3:0:0:
221,308,66014,1,0,3:0:0:0:
141,349,66431,1,8,3:3:0:0:
57,315,66847,6,0,L|40:193,1,107.999996704102,8|2,0:0|0:0,0:0:0:0:
30,127,67681,6,0,L|152:110,1,107.999996704102,8|2,0:0|0:0,0:0:0:0:
217,103,68514,6,0,L|234:225,1,107.999996704102,8|2,0:0|0:0,0:0:0:0:
240,249,69139,5,2,0:0:0:0:
162,271,69556,1,2,0:0:0:0:
182,349,69972,1,2,0:0:0:0:
182,349,70181,6,0,L|311:370,1,107.999996704102,8|2,0:0|0:0,0:0:0:0:
369,375,71014,6,0,L|390:246,1,107.999996704102,8|2,0:0|0:0,0:0:0:0:
401,188,71847,6,0,L|272:167,1,107.999996704102,8|2,0:0|0:0,0:0:0:0:
254,164,72472,5,2,0:0:0:0:
239,243,72889,1,2,0:0:0:0:
159,225,73306,1,2,0:0:0:0:
159,225,73514,6,0,L|144:108,1,107.999996704102,8|2,0:0|0:0,0:0:0:0:
138,37,74347,6,0,L|255:22,1,107.999996704102,8|2,0:0|0:0,0:0:0:0:
325,11,75181,6,0,L|340:128,1,107.999996704102,8|2,0:0|0:0,0:0:0:0:
343,158,75806,5,2,0:0:0:0:
423,148,76222,1,2,0:0:0:0:
437,227,76639,1,2,0:0:0:0:
437,227,76847,6,0,L|453:347,1,107.999996704102,8|2,0:0|0:0,0:0:0:0:
372,352,77681,6,0,L|252:368,1,107.999996704102,8|2,0:0|0:0,0:0:0:0:
256,285,78514,6,0,L|240:165,1,107.999996704102,8|2,0:0|0:0,0:0:0:0:
232,97,79347,5,2,0:0:0:0:
177,36,79764,2,0,L|111:27,1,53.9999983520508,2|2,3:3|3:3,0:0:0:0:
78,24,80181,6,0,P|37:69|64:140,1,125.999996154785,8|10,0:1|0:0,0:0:0:0:
88,165,80806,1,2,0:0:0:0:
88,165,81014,1,8,0:1:0:0:
186,159,81431,1,10,0:0:0:0:
186,159,81639,6,0,L|323:139,1,125.999996154785,2|0,0:0|0:0,0:0:0:0:
361,138,82264,1,10,0:0:0:0:
361,138,82472,1,2,0:0:0:0:
377,231,82889,1,2,0:0:0:0:
469,210,83306,1,2,0:0:0:0:
469,210,83514,6,0,P|498:265|476:334,1,125.999996154785,8|10,0:1|0:0,0:0:0:0:
457,364,84139,1,2,0:0:0:0:
457,364,84347,1,8,0:1:0:0:
366,365,84764,1,10,0:0:0:0:
366,365,84972,6,0,L|229:345,1,125.999996154785,2|0,0:0|0:0,0:0:0:0:
199,339,85597,1,10,0:0:0:0:
199,339,85806,1,2,0:0:0:0:
105,353,86222,2,0,P|72:305|101:234,1,125.999996154785,2|2,0:0|0:0,0:0:0:0:
121,209,86847,6,0,L|251:230,1,125.999996154785,8|10,0:1|0:0,0:0:0:0:
295,241,87472,1,2,0:0:0:0:
295,241,87680,1,8,0:1:0:0:
392,260,88097,1,10,0:0:0:0:
392,260,88306,6,0,P|425:212|396:141,1,125.999996154785,2|0,0:0|0:0,0:0:0:0:
381,118,88930,1,10,0:0:0:0:
381,118,89138,1,2,0:0:0:0:
390,23,89555,1,2,0:0:0:0:
296,12,89972,1,2,0:0:0:0:
296,12,90181,2,0,L|213:27,1,62.9999980773926,8|0,0:1|0:0,0:0:0:0:
186,25,90597,6,2,P|153:73|182:144,1,125.999996154785,10|8,0:0|0:1,0:0:0:0:
253,180,91431,2,2,P|286:228|257:299,1,125.999996154785,10|8,0:0|0:1,0:0:0:0:
202,356,92264,2,2,L|71:334,1,125.999996154785,10|8,0:0|0:1,0:0:0:0:
31,324,92889,1,0,0:0:0:0:
31,324,93097,2,0,L|22:249,1,62.9999980773926,2|2,3:3|3:3,0:0:0:0:
18,214,93514,6,0,L|6:55,1,132.00000402832,10|10,0:1|0:0,0:0:0:0:
5,36,94139,1,2,0:0:0:0:
5,36,94347,1,10,0:1:0:0:
96,74,94764,2,0,L|160:59,1,66.0000020141602,10|2,0:0|0:0,0:0:0:0:
208,48,95181,5,10,0:1:0:0:
303,22,95597,1,10,0:0:0:0:
308,71,95806,1,2,0:0:0:0:
315,119,96014,2,0,P|382:140|433:89,1,132.00000402832,10|8,0:1|0:0,0:0:0:0:
462,71,96639,1,2,0:0:0:0:
462,71,96847,6,0,L|455:205,1,132.00000402832,10|10,0:1|0:0,0:0:0:0:
455,256,97472,1,2,0:0:0:0:
455,256,97680,1,8,0:1:0:0:
494,347,98097,2,0,L|413:361,1,66.0000020141602,10|0,0:0|0:0,0:0:0:0:
380,366,98514,5,10,0:1:0:0:
283,346,98930,1,10,0:0:0:0:
300,248,99347,2,0,P|290:186|343:135,1,132.00000402832,10|8,0:1|0:0,0:0:0:0:
376,111,99972,1,2,0:0:0:0:
376,111,100181,6,0,L|222:83,1,132.00000402832,10|10,0:1|0:0,0:0:0:0:
201,81,100805,1,2,0:0:0:0:
201,81,101013,1,10,0:1:0:0:
136,5,101431,2,0,L|50:19,1,66.0000020141602,10|2,0:0|0:0,0:0:0:0:
27,39,101847,6,0,P|-3:92|28:160,1,132.00000402832,10|10,0:1|0:0,0:0:0:0:
68,182,102472,1,2,0:0:0:0:
68,182,102681,1,10,0:1:0:0:
156,138,103097,1,8,0:0:0:0:
198,164,103306,1,2,0:0:0:0:
205,212,103514,2,0,L|192:303,1,66.0000020141602,10|0,0:1|0:0,0:0:0:0:
189,325,103930,6,2,P|238:363|308:329,1,132.00000402832,10|8,0:0|0:1,0:0:0:0:
377,280,104764,2,2,P|435:261|493:307,2,132.00000402832,10|8|0,0:0|0:1|0:0,0:0:0:0:
284,243,106014,2,0,L|272:94,1,132.00000402832,8|2,0:0|0:2,0:0:0:0:
267,21,106847,5,2,0:0:0:0:
105,134,120181,6,0,L|116:264,2,107.999996704102,0|2|2,0:0|0:0|0:0,0:0:0:0:
99,53,121431,2,0,B|154:29|188:76|188:76|227:140|303:100,1,215.999993408203,2|2,0:0|0:0,0:0:0:0:
359,72,122681,1,2,0:0:0:0:
419,125,123097,6,0,P|438:86|422:18,2,107.999996704102,2|0|2,0:0|0:0|0:0,0:0:0:0:
360,180,124347,1,2,0:0:0:0:
427,225,124764,2,0,B|439:370|439:370|404:288,1,215.999993408203,2|0,0:0|0:0,0:0:0:0:
343,261,126014,2,0,P|295:236|235:257,1,107.999996704102
172,285,126847,5,2,0:0:0:0:
151,206,127264,1,2,0:0:0:0:
73,228,127681,1,2,0:0:0:0:
54,149,128097,2,0,P|45:95|82:52,1,107.999996704102,2|0,0:0|0:0,0:0:0:0:
153,33,128931,6,0,L|272:45,2,107.999996704102,2|2|2,0:0|0:0|0:0,0:0:0:0:
75,55,130181,2,0,P|44:97|54:149,1,107.999996704102
103,213,131014,1,2,0:0:0:0:
167,163,131431,1,2,0:0:0:0:
231,212,131847,6,0,L|299:204,1,53.9999983520508,2|0,3:0|3:0,0:0:0:0:
324,200,132264,1,8,0:0:0:0:
401,225,132681,2,0,P|417:278|385:329,1,107.999996704102,0|0,3:0|3:3,0:0:0:0:
364,349,133306,1,0,3:3:0:0:
364,349,133514,6,0,L|230:331,1,113.999996955872,8|10,3:0|3:0,0:0:0:0:
169,359,134347,2,0,L|93:352,1,56.9999984779358,2|8,3:0|3:3,0:0:0:0:
69,348,134764,2,0,P|40:316|59:237,1,113.999996955872,10|0,3:3|3:0,0:0:0:0:
108,189,135597,1,10,3:0:0:0:
174,242,136014,2,0,L|241:252,1,56.9999984779358,2|0,3:0|3:0,0:0:0:0:
273,252,136431,6,0,P|302:220|283:141,1,113.999996955872,2|0,3:3|3:3,0:0:0:0:
270,117,137056,1,0,3:0:0:0:
270,117,137264,1,10,3:0:0:0:
303,38,137681,2,0,L|373:52,1,56.9999984779358,2|8,3:0|3:3,0:0:0:0:
399,60,138097,6,0,P|432:110|416:164,1,113.999996955872,10|0,3:3|3:0,0:0:0:0:
375,232,138931,1,8,3:0:0:0:
445,279,139347,1,0,3:0:0:0:
398,350,139764,2,0,L|322:364,1,56.9999984779358,0|0,3:0|3:0,0:0:0:0:
307,335,140181,6,0,L|180:313,1,113.999996955872,2|10,3:0|3:0,0:0:0:0:
157,309,140806,1,0,3:0:0:0:
157,309,141014,1,2,3:0:0:0:
196,232,141431,2,0,L|258:218,1,56.9999984779358,10|0,3:3|0:0,0:0:0:0:
290,202,141847,6,0,P|317:153|294:92,1,113.999996955872,0|10,3:0|3:0,0:0:0:0:
255,27,142681,1,2,3:0:0:0:
181,71,143097,2,0,L|111:54,1,56.9999984779358,2|0,0:0|0:0,0:0:0:0:
83,50,143514,6,0,P|42:72|26:140,1,113.999996955872,0|8,3:0|3:0,0:0:0:0:
38,179,144139,1,0,3:0:0:0:
38,179,144347,1,0,3:0:0:0:
1,256,144764,1,10,3:3:0:0:
75,287,145181,6,0,B|130:263|164:310|164:310|203:374|279:334,1,215.999993408203,0|0,3:0|3:0,0:0:0:0:
415,287,146847,1,2,0:0:0:0:
317,250,160181,6,0,L|246:264,1,56.9999984779358,2|0,3:3|3:3,0:0:0:0:
231,291,160597,1,0,3:3:0:0:
231,291,160806,2,0,L|114:272,1,113.999996955872,2|2,0:0|0:0,0:0:0:0:
76,264,161431,1,2,3:3:0:0:
43,184,161847,6,0,P|29:120|65:75,1,113.999996955872,2|0,0:0|3:3,0:0:0:0:
131,41,162681,1,8,0:0:0:0:
131,41,162889,2,0,L|258:58,1,113.999996955872,2|0,0:0|0:0,0:0:0:0:
286,64,163514,6,0,L|296:144,1,56.9999984779358,2|0,3:3|3:3,0:0:0:0:
275,161,163931,1,0,3:3:0:0:
275,161,164139,2,0,L|262:285,1,113.999996955872,2|0,0:0|0:0,0:0:0:0:
279,314,164764,1,2,3:3:0:0:
353,356,165181,6,0,P|405:361|445:293,1,113.999996955872,2|0,0:0|0:0,0:0:0:0:
471,237,166014,1,10,0:0:0:0:
386,222,166431,1,2,3:3:0:0:
402,138,166847,6,0,L|410:71,1,56.9999984779358,2|0,3:3|3:3,0:0:0:0:
413,38,167264,2,0,P|363:23|302:66,1,113.999996955872,0|8,3:3|0:0,0:0:0:0:
249,110,168097,1,2,3:3:0:0:
249,110,168306,2,0,L|261:233,1,113.999996955872,8|8,0:0|0:0,0:0:0:0:
270,265,168931,6,0,P|220:280|159:237,1,113.999996955872,0|10,3:3|0:0,0:0:0:0:
111,188,169764,1,2,3:3:0:0:
143,109,170181,2,0,L|158:47,1,56.9999984779358,2|0,3:3|3:3,0:0:0:0:
134,16,170597,2,0,P|82:9|33:62,1,113.999996955872,0|8,3:3|0:0,0:0:0:0:
21,134,171431,1,2,3:3:0:0:
21,134,171639,6,0,L|42:326,1,170.999995433807,10|0,0:0|0:0,0:0:0:0:
301,352,173514,6,0,L|318:230,1,107.999996704102,8|2,0:0|0:0,0:0:0:0:
390,203,175181,6,0,L|407:81,1,107.999996704102,8|2,0:0|0:0,0:0:0:0:
411,56,175806,5,2,0:0:0:0:
330,45,176223,1,2,0:0:0:0:
317,124,176639,1,2,0:0:0:0:
317,124,176847,6,0,L|185:146,1,107.999996704102,10|2,0:0|0:0,0:0:0:0:
149,90,178514,6,0,L|17:112,1,107.999996704102,8|2,0:0|0:0,0:0:0:0:
2,114,179139,5,2,0:0:0:0:
9,194,179556,1,2,0:0:0:0:
89,182,179972,1,2,0:0:0:0:
89,182,180181,6,0,L|221:204,1,107.999996704102,10|2,0:0|0:0,0:0:0:0:
248,264,181848,6,0,L|380:286,1,107.999996704102,8|2,0:0|0:0,0:0:0:0:
394,287,182472,5,2,0:0:0:0:
406,206,182889,1,2,0:0:0:0:
486,217,183306,1,2,0:0:0:0:
486,217,183514,6,0,L|470:86,1,107.999996704102,10|2,0:0|0:0,0:0:0:0:
333,26,184764,2,0,P|284:30|256:92,1,107.999996704102,2|0,0:0|0:0,0:0:0:0:
254,76,186847,6,0,L|263:209,1,125.999996154785,14|10,0:1|0:0,0:0:0:0:
272,252,187472,1,2,3:0:0:0:
272,252,187681,1,8,0:1:0:0:
233,340,188097,1,10,0:0:0:0:
233,340,188306,6,0,P|168:356|119:297,1,125.999996154785,2|0,3:0|3:0,0:0:0:0:
112,275,188931,2,0,L|125:190,1,62.9999980773926,10|2,0:0|3:0,0:0:0:0:
128,166,189347,1,10,0:1:0:0:
34,153,189764,1,10,0:0:0:0:
51,59,190181,6,0,P|105:20|178:46,1,125.999996154785,10|10,0:1|0:0,0:0:0:0:
200,64,190806,1,2,3:0:0:0:
200,64,191014,1,8,0:1:0:0:
288,25,191431,1,10,0:0:0:0:
288,25,191639,6,0,L|308:162,1,125.999996154785,2|0,3:0|3:0,0:0:0:0:
278,188,192264,2,0,L|270:264,1,62.9999980773926,10|2,0:0|3:0,0:0:0:0:
266,297,192681,1,10,0:1:0:0:
337,358,193097,1,10,0:0:0:0:
428,333,193514,6,0,P|464:285|439:211,1,125.999996154785,10|10,0:1|0:0,0:0:0:0:
431,187,194139,1,2,3:0:0:0:
431,187,194347,1,8,0:1:0:0:
476,105,194764,1,10,0:0:0:0:
476,105,194972,6,0,L|336:83,1,125.999996154785,2|0,3:0|3:0,0:0:0:0:
309,63,195597,2,0,L|242:71,1,62.9999980773926,10|2,0:0|3:0,0:0:0:0:
199,74,196014,1,10,0:1:0:0:
123,16,196431,1,10,0:0:0:0:
42,65,196847,6,0,P|12:118|38:182,1,125.999996154785,10|10,0:1|0:0,0:0:0:0:
98,243,197681,1,8,0:1:0:0:
172,184,198097,2,0,L|310:207,1,125.999996154785,10|8,0:0|0:1,0:0:0:0:
347,215,198722,1,2,0:0:0:0:
347,215,198931,5,2,0:0:0:0:
412,159,199347,2,0,P|428:190|413:273,1,113.999996955872,2|2,3:0|3:0,0:0:0:0:
367,346,200181,1,2,0:0:0:0:
277,364,200597,5,14,0:1:0:0:
277,364,200806,2,0,L|136:349,1,132.00000402832,2|0,3:0|3:0,0:0:0:0:
96,341,201431,2,0,L|84:265,1,66.0000020141602,10|2,0:0|3:0,0:0:0:0:
78,226,201847,5,10,0:1:0:0:
63,127,202264,1,10,0:0:0:0:
103,98,202472,1,2,3:0:0:0:
151,108,202681,2,0,L|304:143,1,132.00000402832,10|10,0:1|0:0,0:0:0:0:
330,157,203306,1,2,3:0:0:0:
330,157,203514,6,0,P|384:151|427:78,1,132.00000402832,10|10,0:1|0:0,0:0:0:0:
442,46,204139,1,2,3:0:0:0:
442,46,204347,1,8,0:1:0:0:
350,7,204764,2,0,L|258:23,1,66.0000020141602,10|2,0:0|3:0,0:0:0:0:
236,29,205181,5,10,0:1:0:0:
138,47,205597,1,10,0:0:0:0:
166,141,206014,2,0,L|151:280,1,132.00000402832,10|10,0:1|0:0,0:0:0:0:
149,325,206639,1,2,3:0:0:0:
149,325,206847,6,0,P|95:368|19:342,1,132.00000402832,10|10,0:1|0:0,0:0:0:0:
14,319,207472,1,2,3:0:0:0:
14,319,207681,1,10,0:1:0:0:
56,229,208097,1,10,0:0:0:0:
71,181,208306,1,2,3:0:0:0:
51,135,208514,6,0,L|191:161,1,132.00000402832,10|10,0:1|0:0,0:0:0:0:
231,172,209139,1,2,3:0:0:0:
231,172,209347,1,10,0:1:0:0:
247,74,209764,1,10,0:0:0:0:
345,83,210181,2,0,L|433:69,1,66.0000020141602,10|0,0:1|3:0,0:0:0:0:
313,266,213513,6,0,B|330:55,1,192,2|2,0:0|0:0,0:0:0:0:
232,14,215138,5,2,0:0:0:0:
172,82,215610,2,0,P|123:89|73:53,1,96,2|2,0:0|0:0,0:0:0:0:
19,178,216831,6,0,L|42:331,1,128.5,2|2,0:0|0:0,0:0:0:0:
141,355,218097,5,2,0:0:0:0:
195,297,218510,2,0,B|242:277|277:325|277:325|311:370|371:338,1,192,2|2,0:0|0:0,0:0:0:0:
460,240,220159,6,0,B|482:86|482:86|437:115,1,185,2|2,0:0|0:0,0:0:0:0:
395,148,221423,2,0,B|348:168|313:120|313:120|279:75|219:107,1,179,2|2,0:0|0:0,0:0:0:0:
166,125,222695,5,2,0:0:0:0:
150,49,223109,1,2,0:0:0:0:
75,59,223523,6,0,P|64:163|53:252,1,185.25,2|2,0:0|0:0,0:0:0:0:
152,346,225167,2,0,B|200:366|236:317|236:317|271:270|333:303,1,186,2|2,0:0|0:0,0:0:0:0:
458,353,226858,6,0,B|475:142,1,192,2|2,0:0|0:0,0:0:0:0:
394,48,228521,2,0,P|350:31|291:54,1,96,2|2,0:0|0:0,0:0:0:0:
225,119,229560,1,0,0:0:0:0:
288,167,229986,6,0,L|299:275,1,97,2|0,0:0|0:0,0:0:0:0:
243,319,230819,2,0,P|156:315|139:263,1,144,0|2,0:0|0:0,0:0:0:0:
154,197,231839,1,2,0:0:0:0:
73,67,232695,6,0,P|101:40|158:45,1,96,2|2,0:0|0:0,0:0:0:0:
216,89,233540,2,0,B|346:67|346:67|375:86,1,144,2|0,0:0|0:0,0:0:0:0:
459,27,234782,6,0,L|436:231,1,190.5,2|0,0:0|0:0,0:0:0:0:
424,292,236035,1,2,0:0:0:0:
349,273,236449,1,2,0:0:0:0:
327,346,236863,6,0,B|277:366|239:315|239:315|203:267|139:301,1,192,2|0,0:0|0:0,0:0:0:0:
75,223,238311,6,0,B|125:243|164:190|164:190|205:145|262:172|262:172|269:207,1,240,2|0,0:0|0:0,0:0:0:0:
344,213,239759,1,0,0:0:0:0:
361,127,240223,6,0,B|424:117|427:47|427:47|453:355,1,419.5,2|0,0:0|0:0,0:0:0:0:
452,351,243501,6,0,B|269:364|269:364|213:348|188:268|237:221,1,367.5,2|0,0:0|0:0,0:0:0:0:
242,215,246808,6,0,P|270:169|244:86,1,132,2|2,0:0|0:0,0:0:0:0:
173,38,248049,2,0,B|108:6|108:6|131:210,1,262.5,2|0,0:0|0:0,0:0:0:0:
96,346,250184,6,0,B|145:366|183:315|183:315|219:267|283:301,1,192,2|0,0:0|0:0,0:0:0:0:
399,367,251853,2,0,P|386:259|379:167,1,192
402,104,253095,1,2,0:0:0:0:
319,50,253585,5,2,0:0:0:0:
218,107,254104,2,0,B|19:77|19:77|94:75|159:20,1,318,2|0,0:0|0:0,0:0:0:0:
233,23,255956,6,0,L|254:205,1,158.75,2|2,0:0|0:0,0:0:0:0:
140,287,257683,2,0,B|189:267|227:318|227:318|263:366|327:332,1,190,2|2,0:0|0:0,0:0:0:0:
463,277,259369,5,2,0:0:0:0:
499,213,259774,1,2,0:0:0:0:
435,176,260182,6,0,L|239:145,1,191,2|0,0:0|0:0,0:0:0:0:
142,47,261845,2,0,P|81:66|70:193,1,185,2|2,0:0|0:0,0:0:0:0:
107,233,263111,1,2,0:0:0:0:
175,193,263534,1,2,0:0:0:0:
